osu file format v14

[General]
AudioFilename: 3FS_Snore.mp3.mp3
AudioLeadIn: 0
PreviewTime: -1
Countdown: 0
SampleSet: None
StackLeniency: 0.7
Mode: 0
LetterboxInBreaks: 1
WidescreenStoryboard: 0

[Editor]
Bookmarks: 31726,55639
DistanceSpacing: 0.5
BeatDivisor: 2
GridSize: 16
TimelineZoom: 1

[Metadata]
Title:Snore
TitleUnicode:Snore
Artist:3 Feet Smaller
ArtistUnicode:3 Feet Smaller
Creator:Dolot
Version:Easy xD
Source:
Tags:3feetsmaller 3 feet smaller
BeatmapID:662562
BeatmapSetID:294759

[Difficulty]
HPDrainRate:3
CircleSize:6
OverallDifficulty:8
ApproachRate:4
SliderMultiplier:0.9
SliderTickRate:1

[Events]
//Background and Video events
//Break Periods
//Storyboard Layer 0 (Background)
//Storyboard Layer 1 (Fail)
//Storyboard Layer 2 (Pass)
//Storyboard Layer 3 (Foreground)
//Storyboard Sound Samples

[TimingPoints]
210,262.697022767075,4,2,0,50,1,0

[HitObjects]
48,96,2311,6,0,P|112:64|176:80,2,135
144,128,3362,2,0,P|224:144|288:112,2,135
192,224,4413,2,0,P|96:192|80:144,2,135
288,240,5463,2,0,B|240:256|224:304|224:304|176:304|128:336,2,180
336,288,6908,5,0,0:0:0:0:
400,320,7302,1,0,0:0:0:0:
448,304,7565,1,0,0:0:0:0:
480,240,7959,1,0,0:0:0:0:
416,240,8353,1,0,0:0:0:0:
432,192,8616,1,0,0:0:0:0:
368,160,9010,1,0,0:0:0:0:
432,128,9404,1,0,0:0:0:0:
384,112,9667,2,0,P|288:48|224:48,2,180
320,128,11111,5,0,0:0:0:0:
256,112,11505,1,0,0:0:0:0:
256,112,11768,1,0,0:0:0:0:
192,128,12162,1,0,0:0:0:0:
144,80,12556,1,0,0:0:0:0:
144,80,12819,1,0,0:0:0:0:
80,64,13213,1,0,0:0:0:0:
48,128,13607,1,0,0:0:0:0:
32,176,13870,2,0,P|48:208|128:256,3,90
128,240,14921,5,0,0:0:0:0:
96,304,15315,1,0,0:0:0:0:
160,304,15709,1,0,0:0:0:0:
192,336,15971,1,0,0:0:0:0:
256,304,16365,1,0,0:0:0:0:
256,304,16759,1,0,0:0:0:0:
288,336,17022,1,0,0:0:0:0:
288,336,17416,1,0,0:0:0:0:
352,320,17810,1,0,0:0:0:0:
400,304,18073,1,0,0:0:0:0:
432,272,18336,6,0,P|448:256|448:224,6,45
400,240,19386,2,0,P|416:192|480:160,2,90
352,224,20174,1,0,0:0:0:0:
352,224,20306,1,0,0:0:0:0:
320,192,20569,1,0,0:0:0:0:
368,176,20831,2,0,P|384:144|416:112,3,45
352,96,21488,5,0,0:0:0:0:
336,80,21619,1,0,0:0:0:0:
320,64,21751,1,0,0:0:0:0:
288,48,22013,2,0,P|256:48|240:80,3,45
247,55,22670,1,0,0:0:0:0:
208,80,22933,1,0,0:0:0:0:
144,64,23327,6,0,P|64:80|80:160,2,180
144,128,24772,1,0,0:0:0:0:
128,176,25034,1,0,0:0:0:0:
96,240,25428,2,0,P|144:288|256:304,3,180
288,288,27267,1,0,0:0:0:0:
288,288,27399,1,0,0:0:0:0:
288,288,27530,1,0,0:0:0:0:
320,320,27793,1,0,0:0:0:0:
368,304,28055,5,0,0:0:0:0:
368,304,28187,2,0,P|416:288|448:240,3,90
448,208,29238,2,0,L|400:160,3,45
448,160,29894,5,0,0:0:0:0:
432,144,30026,1,0,0:0:0:0:
416,128,30157,1,0,0:0:0:0:
368,112,30420,1,0,0:0:0:0:
352,64,30682,1,0,0:0:0:0:
336,48,30814,1,0,0:0:0:0:
320,48,30945,1,0,0:0:0:0:
304,48,31076,2,0,P|224:64|160:96,1,135
160,96,31602,1,0,0:0:0:0:
144,112,31733,1,0,0:0:0:0:
112,144,31996,6,0,P|80:176|64:224,1,90
80,240,32390,2,0,P|96:288|80:352,1,90
91,326,32784,1,0,0:0:0:0:
128,352,33047,1,0,0:0:0:0:
144,352,33178,1,0,0:0:0:0:
160,352,33309,1,0,0:0:0:0:
176,352,33441,1,0,0:0:0:0:
192,352,33572,1,0,0:0:0:0:
240,352,33835,6,0,B|320:368|304:272|400:368|432:288,3,180
432,304,35542,1,0,0:0:0:0:
448,288,35674,1,0,0:0:0:0:
448,272,35805,1,0,0:0:0:0:
432,256,35936,2,0,B|432:224|336:240|336:144,1,135
352,144,36462,2,0,B|272:144|304:208|192:176,1,135
224,160,36987,2,0,P|256:224|240:288,1,135
224,272,37512,2,0,P|192:272|160:304,1,45
176,304,37775,2,0,P|160:320|112:336,1,45
112,336,38038,6,0,P|96:256|32:240,1,135
32,256,38563,2,0,B|32:208|112:208|128:128,1,135
128,176,39089,2,0,P|96:128|32:80,1,135
48,64,39614,2,0,P|80:64|128:80,1,45
112,80,39877,2,0,P|144:80|192:96,1,45
160,112,40139,6,0,P|224:96|256:32,1,135
240,32,40665,2,0,B|272:80|272:80|320:80|336:144,1,135
304,144,41190,2,0,P|320:96|416:64,1,135
384,80,41716,2,0,P|384:128|400:144,1,45
400,112,41978,2,0,P|400:160|384:176,1,45
384,176,42241,2,0,P|352:240|352:320,1,135
368,320,42766,2,0,P|400:256|400:176,1,135
416,208,43292,2,0,P|448:272|464:288,1,90
288,336,43817,6,0,P|272:320|224:304,3,45
224,304,44343,1,0,0:0:0:0:
176,320,44605,1,0,0:0:0:0:
128,304,44868,1,0,0:0:0:0:
144,256,45131,1,0,0:0:0:0:
112,224,45393,1,0,0:0:0:0:
112,224,45656,1,0,0:0:0:0:
80,192,45919,2,0,L|144:160,1,45
112,144,46181,2,0,L|176:112,1,45
160,96,46444,5,0,0:0:0:0:
112,80,46707,1,0,0:0:0:0:
144,48,46970,1,0,0:0:0:0:
144,48,47232,1,0,0:0:0:0:
192,48,47495,2,0,L|256:16,1,45
240,48,47758,2,0,L|304:16,1,45
288,48,48020,2,0,L|352:16,1,45
336,48,48283,2,0,L|400:16,1,45
384,48,48546,5,0,0:0:0:0:
416,80,48808,1,0,0:0:0:0:
384,112,49071,1,0,0:0:0:0:
416,144,49334,1,0,0:0:0:0:
416,192,49597,2,0,L|375:212,1,45
384,240,49859,2,0,L|320:272,1,45
320,272,50122,1,0,0:0:0:0:
288,304,50385,1,0,0:0:0:0:
272,304,50516,1,0,0:0:0:0:
256,304,50647,6,0,P|176:320|64:288,2,180
192,256,52224,1,0,0:0:0:0:
176,240,52355,1,0,0:0:0:0:
160,224,52486,1,0,0:0:0:0:
144,208,52618,1,0,0:0:0:0:
128,192,52749,1,0,0:0:0:0:
96,160,53012,5,0,0:0:0:0:
64,128,53274,1,0,0:0:0:0:
96,96,53537,1,0,0:0:0:0:
96,96,53668,1,0,0:0:0:0:
64,64,53931,1,0,0:0:0:0:
96,32,54194,1,0,0:0:0:0:
144,48,54456,1,0,0:0:0:0:
160,64,54588,1,0,0:0:0:0:
176,80,54719,1,0,0:0:0:0:
192,96,54850,1,0,0:0:0:0:
224,64,55113,6,0,P|256:48|336:32,2,90
256,80,55901,1,0,0:0:0:0:
272,80,56033,1,0,0:0:0:0:
288,80,56164,1,0,0:0:0:0:
304,80,56295,2,0,P|368:96|400:160,1,135
384,192,56952,5,0,0:0:0:0:
416,224,57215,1,0,0:0:0:0:
400,272,57477,2,0,L|336:256,2,45
432,304,58003,1,0,0:0:0:0:
400,336,58266,1,0,0:0:0:0:
352,352,58528,2,0,L|320:304,2,45
304,368,59054,1,0,0:0:0:0:
304,368,59185,1,0,0:0:0:0:
304,368,59316,1,0,0:0:0:0:
256,352,59579,1,0,0:0:0:0:
272,336,59710,1,0,0:0:0:0:
288,320,59842,1,0,0:0:0:0:
304,272,60104,2,0,L|272:208,4,45
256,272,60893,1,0,0:0:0:0:
240,272,61024,1,0,0:0:0:0:
224,272,61155,1,0,0:0:0:0:
192,304,61418,5,0,0:0:0:0:
144,288,61681,1,0,0:0:0:0:
144,288,61812,2,0,P|80:288|32:256,3,90
80,240,62863,1,0,0:0:0:0:
96,224,62994,1,0,0:0:0:0:
112,208,63125,1,0,0:0:0:0:
128,192,63257,1,0,0:0:0:0:
160,160,63519,2,0,L|208:112,2,45
192,128,64045,1,0,0:0:0:0:
224,96,64308,1,0,0:0:0:0:
224,96,64439,1,0,0:0:0:0:
224,96,64570,1,0,0:0:0:0:
224,96,64702,2,0,P|256:64|352:64,1,135
368,96,65358,1,0,0:0:0:0:
48,336,65884,5,0,0:0:0:0:
464,336,66409,1,0,0:0:0:0:
448,80,66935,1,0,0:0:0:0:
256,144,67197,1,0,0:0:0:0:
64,80,67460,1,0,0:0:0:0:
256,144,67985,2,0,B|224:192|224:192|288:224|288:224|256:288,1,180
256,32,68773,5,0,0:0:0:0:
256,48,68905,1,0,0:0:0:0:
256,64,69036,1,0,0:0:0:0:
256,80,69167,1,0,0:0:0:0:
256,96,69299,1,0,0:0:0:0:
256,112,69430,1,0,0:0:0:0:
320,128,69562,6,0,L|320:272,1,135
288,128,70087,2,0,L|288:272,1,135
224,128,70612,2,0,L|224:272,1,135
256,128,71138,2,0,L|256:272,1,135
192,128,71663,6,0,L|192:272,1,135
160,128,72188,2,0,L|160:272,1,135
288,128,72714,2,0,L|288:272,1,135
320,128,73239,2,0,L|320:272,1,135
64,80,73765,6,0,P|32:128|64:224,1,135
448,80,74290,2,0,P|480:128|448:224,1,135
144,336,74815,2,0,P|176:288|144:192,1,135
368,48,75341,2,0,P|336:96|368:192,1,135
144,48,75866,6,0,P|176:96|144:192,1,135
368,336,76392,2,0,P|336:288|368:192,1,135
256,192,76917,1,0,0:0:0:0:
256,192,77180,1,0,0:0:0:0:
32,192,77442,5,0,0:0:0:0:
48,176,77574,1,0,0:0:0:0:
64,160,77705,1,0,0:0:0:0:
80,144,77836,1,0,0:0:0:0:
96,128,77968,2,0,P|128:80|192:48,1,90
160,112,78493,1,0,0:0:0:0:
176,128,78625,1,0,0:0:0:0:
192,144,78756,1,0,0:0:0:0:
208,144,78887,1,0,0:0:0:0:
224,144,79019,2,0,P|240:112|320:96,1,90
304,128,79544,5,0,0:0:0:0:
304,128,79675,1,0,0:0:0:0:
304,128,79807,1,0,0:0:0:0:
304,128,79938,1,0,0:0:0:0:
304,128,80069,2,0,P|304:160|384:192,1,90
384,224,80595,1,0,0:0:0:0:
384,224,80726,1,0,0:0:0:0:
384,224,80857,1,0,0:0:0:0:
384,224,80989,1,0,0:0:0:0:
384,224,81120,2,0,L|416:96,2,90
368,240,81777,1,0,0:0:0:0:
352,256,81908,1,0,0:0:0:0:
336,272,82040,1,0,0:0:0:0:
320,272,82171,6,0,P|240:272|176:288,1,135
176,272,82696,2,0,P|208:192|272:160,1,135
176,272,83222,2,0,P|144:192|80:160,1,135
176,272,83747,2,0,P|208:192|272:160,1,135
176,272,84273,5,0,0:0:0:0:
176,272,84798,1,0,0:0:0:0:
176,272,85323,1,0,0:0:0:0:
336,80,86374,6,0,P|400:80|480:112,4,135
176,80,88476,2,0,P|112:80|32:112,4,135
176,304,90577,2,0,P|112:304|32:272,4,135
336,304,92679,2,0,P|400:304|480:272,4,135
64,80,94780,5,0,0:0:0:0:
64,80,95569,1,0,0:0:0:0:
64,80,95831,1,0,0:0:0:0:
176,272,96882,1,0,0:0:0:0:
176,272,97670,1,0,0:0:0:0:
176,272,97933,1,0,0:0:0:0:
368,160,98984,1,0,0:0:0:0:
368,160,99772,1,0,0:0:0:0:
368,160,100034,1,0,0:0:0:0:
304,272,101085,1,0,0:0:0:0:
304,272,101873,1,0,0:0:0:0:
304,272,102136,1,0,0:0:0:0:
256,224,102530,1,0,0:0:0:0:
208,176,102924,1,0,0:0:0:0:
272,64,103187,6,0,L|240:32,1,45
320,80,103449,2,0,L|352:112,1,45
272,64,103712,2,0,L|240:32,1,45
320,80,103975,2,0,L|352:112,1,45
272,64,104238,6,0,L|240:32,1,45
320,80,104500,2,0,L|352:112,1,45
272,64,104763,2,0,L|240:32,1,45
320,80,105026,2,0,L|352:112,1,45
272,64,105288,6,0,L|240:32,1,45
192,112,105551,2,0,L|160:80,1,45
224,144,105814,2,0,L|192:112,1,45
256,176,106076,2,0,L|224:144,1,45
288,208,106339,6,0,L|256:176,1,45
320,240,106602,2,0,L|288:208,1,45
352,272,106864,2,0,L|320:240,1,45
384,304,107127,2,0,L|352:272,1,45
272,320,107390,6,0,L|304:288,1,45
224,320,107653,2,0,L|192:288,1,45
272,240,107915,2,0,L|304:208,1,45
224,240,108178,2,0,L|192:208,1,45
272,160,108441,6,0,L|304:128,1,45
224,160,108703,2,0,L|192:128,1,45
272,80,108966,2,0,L|304:48,1,45
224,80,109229,2,0,L|192:48,1,45
192,48,109491,6,0,L|224:80,1,45
304,48,109754,2,0,L|272:80,1,45
224,160,110017,2,0,L|192:192,1,45
272,160,110280,2,0,L|304:192,1,45
224,240,110542,6,0,L|192:272,1,45
272,240,110805,2,0,L|304:272,1,45
112,224,111068,2,0,L|80:192,1,45
400,160,111330,2,0,L|432:192,1,45
112,224,111593,6,0,L|80:192,1,45
400,160,111856,2,0,L|432:192,1,45
112,224,112118,2,0,L|80:192,1,45
400,160,112381,2,0,L|432:192,1,45
304,336,112644,6,0,L|272:304,1,45
208,48,112907,2,0,L|240:80,1,45
304,336,113169,2,0,L|272:304,1,45
208,48,113432,2,0,L|240:80,1,45
304,336,113695,6,0,L|272:304,1,45
208,48,113957,2,0,L|240:80,1,45
64,48,114220,2,0,L|96:80,1,45
95,79,114483,2,0,L|127:111,1,45
126,110,114745,6,0,L|158:142,1,45
157,141,115008,2,0,L|189:173,1,45
192,176,115271,2,0,L|224:208,1,45
223,207,115533,2,0,L|255:239,1,45
448,96,115796,6,0,L|416:64,1,45
336,64,116059,2,0,L|368:96,1,45
368,176,116322,2,0,L|336:144,1,45
240,112,116584,2,0,L|272:144,1,45
288,240,116847,6,0,L|256:208,1,45
160,160,117110,2,0,L|192:192,1,45
224,288,117372,2,0,L|192:256,1,45
96,224,117635,2,0,L|128:256,1,45
160,352,117898,6,0,L|128:320,1,45
16,256,118160,2,0,L|48:288,1,45
160,352,118423,2,0,L|128:320,1,45
16,256,118686,2,0,L|48:288,1,45
96,160,118949,5,4,0:0:0:0:
400,112,119474,1,4,0:0:0:0:
464,96,119999,6,0,P|400:64|336:80,2,135
368,128,121050,2,0,P|288:144|224:112,2,135
320,224,122101,2,0,P|416:192|432:144,2,135
224,240,123151,2,0,B|272:256|288:304|288:304|336:304|384:336,2,180
176,288,124596,5,0,0:0:0:0:
112,320,124990,1,0,0:0:0:0:
64,304,125253,1,0,0:0:0:0:
32,240,125647,1,0,0:0:0:0:
96,240,126041,1,0,0:0:0:0:
80,192,126304,1,0,0:0:0:0:
144,160,126698,1,0,0:0:0:0:
80,128,127092,1,0,0:0:0:0:
128,112,127355,2,0,P|224:48|288:48,2,180,0|0|4,0:0|0:0|0:0,0:0:0:0:
144,128,128537,1,0,0:0:0:0:
160,144,128668,1,0,0:0:0:0:
176,160,128800,1,0,0:0:0:0:
128,208,129194,5,0,0:0:0:0:
128,224,129325,1,0,0:0:0:0:
128,240,129456,1,0,0:0:0:0:
128,256,129588,1,0,0:0:0:0:
128,272,129719,1,4,0:0:0:0:
128,288,129850,1,0,0:0:0:0:
128,304,129982,1,0,0:0:0:0:
160,352,130245,1,4,0:0:0:0:
208,336,130507,5,0,0:0:0:0:
224,320,130639,1,0,0:0:0:0:
240,304,130770,1,0,0:0:0:0:
256,288,130901,1,0,0:0:0:0:
320,320,131295,1,0,0:0:0:0:
320,320,131427,1,0,0:0:0:0:
320,320,131558,1,0,0:0:0:0:
320,320,131689,1,0,0:0:0:0:
320,320,131821,1,4,0:0:0:0:
352,288,132083,1,0,0:0:0:0:
336,272,132215,1,0,0:0:0:0:
320,256,132346,1,4,0:0:0:0:
352,224,132609,5,0,0:0:0:0:
336,208,132740,1,0,0:0:0:0:
320,192,132871,1,0,0:0:0:0:
304,176,133003,1,0,0:0:0:0:
288,160,133134,1,0,0:0:0:0:
320,128,133397,1,0,0:0:0:0:
304,112,133528,1,0,0:0:0:0:
288,96,133660,1,0,0:0:0:0:
272,80,133791,1,0,0:0:0:0:
256,64,133922,1,4,0:0:0:0:
240,48,134054,1,0,0:0:0:0:
224,32,134185,1,0,0:0:0:0:
448,320,134448,5,4,0:0:0:0:
448,320,134579,1,0,0:0:0:0:
448,320,134710,2,0,L|352:208,2,135
256,192,136024,1,0,0:0:0:0:
256,192,136155,1,0,0:0:0:0:
256,192,136287,1,0,0:0:0:0:
256,192,136418,1,0,0:0:0:0:
256,192,136549,1,0,0:0:0:0:
256,192,136681,1,0,0:0:0:0:
80,256,136812,6,0,B|80:224|176:240|176:144,1,135,4|0,0:0|0:0,0:0:0:0:
160,144,137338,2,0,B|240:144|208:208|320:176,1,135
288,160,137863,2,0,P|256:224|272:288,1,135
288,272,138388,2,0,P|320:272|352:304,1,45
336,304,138651,2,0,P|352:320|400:336,1,45
400,336,138914,6,0,P|416:256|480:240,1,135
480,256,139439,2,0,B|480:208|400:208|384:128,1,135
384,176,139965,2,0,P|416:128|480:80,1,135
464,64,140490,2,0,P|432:64|384:80,1,45
400,80,140753,2,0,P|368:80|320:96,1,45
352,112,141015,6,0,P|288:96|256:32,1,135
272,32,141541,2,0,B|240:80|240:80|192:80|176:144,1,135
208,144,142066,2,0,P|192:96|96:64,1,135
128,80,142592,2,0,P|128:128|112:144,1,45
112,112,142854,2,0,P|112:160|128:176,1,45
128,176,143117,2,0,P|160:240|160:320,1,135
144,320,143642,2,0,P|112:256|112:176,1,135
96,208,144168,2,0,P|64:272|48:288,1,90
224,336,144693,6,0,P|240:320|288:304,3,45
288,304,145219,1,0,0:0:0:0:
336,320,145481,1,0,0:0:0:0:
384,304,145744,1,0,0:0:0:0:
368,256,146007,1,0,0:0:0:0:
400,224,146269,1,0,0:0:0:0:
400,224,146532,1,0,0:0:0:0:
432,192,146795,2,0,L|368:160,1,45
400,144,147057,2,0,L|336:112,1,45
352,96,147320,5,0,0:0:0:0:
400,80,147583,1,0,0:0:0:0:
368,48,147846,1,0,0:0:0:0:
368,48,148108,1,0,0:0:0:0:
320,48,148371,2,0,L|256:16,1,45
272,48,148634,2,0,L|208:16,1,45
224,48,148896,2,0,L|160:16,1,45
176,48,149159,2,0,L|112:16,1,45
128,48,149422,5,0,0:0:0:0:
96,80,149684,1,0,0:0:0:0:
128,112,149947,1,0,0:0:0:0:
96,144,150210,1,0,0:0:0:0:
96,192,150473,2,0,L|137:212,1,45
128,240,150735,2,0,L|192:272,1,45
192,272,150998,1,0,0:0:0:0:
224,304,151261,1,0,0:0:0:0:
240,304,151392,1,0,0:0:0:0:
256,304,151523,6,0,L|352:288,1,90
368,288,151917,1,0,0:0:0:0:
416,288,152180,1,0,0:0:0:0:
416,288,152311,1,0,0:0:0:0:
448,256,152574,1,0,0:0:0:0:
448,256,152705,1,0,0:0:0:0:
416,224,152968,1,0,0:0:0:0:
400,208,153099,1,0,0:0:0:0:
384,192,153231,1,0,0:0:0:0:
368,176,153362,1,0,0:0:0:0:
352,160,153493,1,0,0:0:0:0:
336,144,153625,6,0,P|272:112|256:32,1,135
208,80,154281,1,0,0:0:0:0:
336,144,154675,2,0,P|272:112|256:32,1,135
208,80,155332,1,0,0:0:0:0:
336,144,155726,2,0,P|272:112|256:32,1,135
208,80,156383,1,0,0:0:0:0:
336,144,156777,2,0,P|272:112|256:32,1,135
208,80,157434,1,0,0:0:0:0:
32,176,157828,5,0,0:0:0:0:
96,208,158222,1,0,0:0:0:0:
64,272,158616,1,0,0:0:0:0:
128,288,159010,1,0,0:0:0:0:
192,256,159404,1,0,0:0:0:0:
240,256,159667,1,0,0:0:0:0:
288,256,159929,5,0,0:0:0:0:
320,320,160323,1,0,0:0:0:0:
384,352,160717,1,0,0:0:0:0:
384,352,161111,1,0,0:0:0:0:
432,304,161505,1,0,0:0:0:0:
432,304,161768,1,0,0:0:0:0:
464,272,162031,5,0,0:0:0:0:
448,256,162162,1,0,0:0:0:0:
432,240,162294,1,0,0:0:0:0:
400,208,162556,1,0,0:0:0:0:
384,192,162688,1,0,0:0:0:0:
368,176,162819,1,0,0:0:0:0:
336,144,163082,1,0,0:0:0:0:
320,128,163213,1,0,0:0:0:0:
304,112,163344,1,0,0:0:0:0:
288,96,163476,1,0,0:0:0:0:
272,80,163607,1,0,0:0:0:0:
256,64,163738,1,0,0:0:0:0:
240,48,163870,1,0,0:0:0:0:
80,304,164132,5,0,0:0:0:0:
96,304,164264,1,0,0:0:0:0:
112,304,164395,1,0,0:0:0:0:
160,304,164658,1,0,0:0:0:0:
176,304,164789,1,0,0:0:0:0:
192,304,164921,1,0,0:0:0:0:
240,304,165183,1,0,0:0:0:0:
256,304,165315,1,0,0:0:0:0:
272,304,165446,1,0,0:0:0:0:
288,304,165577,1,0,0:0:0:0:
304,304,165709,1,0,0:0:0:0:
320,304,165840,1,0,0:0:0:0:
336,304,165971,1,0,0:0:0:0:
400,176,166234,6,0,P|304:144|208:144,3,180
128,160,168336,1,0,0:0:0:0:
256,192,168467,12,0,169386,0:0:0:0:
