osu file format v4

[General]
AudioFilename: 2pm - Tetris.mp3
AudioLeadIn: 0
AudioHash: c3ae380934f1c275b6840c8c81e74865
PreviewTime: -1
SampleSet: Soft

[Metadata]
Title:Tetris
Artist:2pm
Creator:Bonesnake
Version:Level 3 (easy)

[Difficulty]
HPDrainRate:3
CircleSize:5
OverallDifficulty:4
SliderMultiplier: 1.4
SliderTickRate: 1

[Events]
1,0,"tetris.avi"
2,54327,60642
2,88613,101785
2,105756,108641
2,111541,115499
3,0,163,162,255

[TimingPoints]
6960,428.571428571429,4,2,0
33960,428.571428571429,4,1,0

[HitObjects]
32,32,6959,5,0,
128,32,7388,1,0,
224,32,7817,1,0,
224,128,8245,1,0,
128,128,8674,5,0,
32,128,9102,1,0,
32,224,9531,1,0,
128,224,9959,1,0,
224,224,10388,5,0,
224,320,10817,1,0,
128,320,11245,1,0,
224,320,11674,1,0,
320,320,12102,1,0,
416,320,12531,5,0,
416,224,12959,1,0,
448,32,14031,5,0,
320,32,14459,1,0,
320,32,14674,1,0,
224,32,15102,5,0,
224,128,15531,1,0,
224,256,16174,5,0,
224,256,16388,1,0,
320,256,16817,5,0,
416,256,17245,1,0,
512,256,17674,1,0,
512,160,18102,1,0,
416,160,18531,5,0,
320,160,18960,1,0,
224,160,19388,1,0,
128,160,19817,1,0,
0,288,20674,5,0,
96,288,21102,2,2,B|96:288|96:192,2,70
192,288,21960,6,2,B|192:288|192:384,2,70
288,288,22817,6,2,B|288:288|288:192,2,70
384,288,23674,6,2,B|384:288|384:384,2,70
384,192,24531,5,2,
384,96,24960,1,2,
288,96,25388,1,2,
192,96,25817,1,2,
96,96,26245,1,2,
96,192,26674,1,2,
256,352,27745,5,2,
256,256,28174,1,2,
256,256,28388,1,2,
256,160,28817,5,2,
256,64,29245,1,2,
128,64,29888,5,2,
128,64,30102,1,2,
32,64,30531,5,2,
32,160,30960,1,2,
32,256,31388,1,2,
32,352,31817,1,2,
128,352,32245,5,2,
128,256,32674,1,2,
224,256,33102,1,2,
224,352,33531,1,2,
192,32,34388,6,0,B|192:32|352:32,5,140
320,128,36960,6,4,B|320:128|320:288,1,140
320,352,37817,6,0,B|320:352|160:352,5,140
160,256,40388,6,4,B|160:256|160:96,1,140
256,32,41460,5,0,
256,128,41888,5,0,
256,128,42102,1,0,
256,256,42745,5,0,
256,256,42960,1,0,
128,256,43602,5,0,
128,256,43817,1,0,
32,224,44245,5,0,
32,128,44674,1,0,
32,32,45102,5,0,
128,32,45531,1,0,
224,32,45959,1,0,
128,32,46388,1,0,
128,128,46817,1,0,
128,224,47245,5,0,
256,352,48102,5,0,
352,352,48531,1,0,
448,352,48959,1,0,
352,352,49388,1,0,
352,256,49817,1,0,
352,160,50245,1,0,
352,64,50674,1,0,
256,64,51102,5,0,
160,64,51531,1,0,
160,160,51959,1,0,
256,160,52388,1,0,
256,256,52817,5,0,
160,256,53245,1,0,
64,256,53674,1,0,
64,352,54102,1,0,
128,32,61817,5,0,
32,32,62245,1,0,
32,128,62674,1,0,
32,224,63102,1,0,
128,224,63531,5,0,
128,320,63959,1,0,
224,320,64388,1,0,
224,224,64817,1,0,
224,128,65245,5,0,
320,128,65674,1,0,
320,224,66102,1,0,
320,320,66531,1,2,
416,320,66959,5,2,
512,320,67388,1,2,
512,224,67817,1,2,
416,224,68245,1,0,
416,128,68674,5,0,
416,32,69102,1,0,
320,32,69531,1,0,
224,32,69959,1,0,
128,32,70388,5,0,
0,32,71031,5,0,
0,32,71245,1,0,
0,160,71888,5,0,
0,160,72102,1,0,
0,256,72531,5,0,
96,256,72959,1,0,
192,256,73388,5,2,
288,256,73817,1,2,
384,256,74245,1,2,
480,256,74674,1,2,
480,352,75102,5,0,
384,352,75531,1,0,
288,352,75959,1,0,
192,352,76388,1,0,
96,352,76817,5,0,
96,256,77245,1,0,
192,256,77674,1,0,
288,256,78102,1,0,
384,256,78531,5,0,
384,160,78959,1,0,
384,64,79388,1,0,
288,64,79817,1,0,
288,160,80245,5,2,
192,160,80674,1,2,
192,64,81102,1,2,
96,64,81531,1,2,
256,192,82388,12,0,88388
192,32,102959,6,0,B|192:32|192:352|160:352|352:352,2,420
256,32,109817,5,0,
256,128,110245,2,0,B|256:128|256:288,3,140
256,352,116674,5,0,
256,256,117102,2,0,B|256:256|256:96,3,140
128,32,119245,5,0,
224,32,119674,1,0,
320,32,120102,1,0,
416,32,120531,1,0,
416,128,120959,5,0,
416,224,121388,1,0,
416,320,121817,1,0,
320,320,122245,1,0,
224,320,122674,5,0,
128,320,123102,1,0,
128,224,123531,5,0,
128,128,123959,1,0,
224,128,124388,1,0,
224,32,124817,1,0,
320,32,125245,5,0,
416,32,125674,1,0,
416,128,126102,1,0,
416,224,126531,1,0,
320,224,126959,5,0,
224,224,127388,1,0,
128,224,127817,1,0,
32,224,128245,1,0,
32,320,128674,5,0,
128,320,129102,1,0,
224,320,129531,1,0,
320,320,129959,1,0,
416,320,130388,1,0,
448,160,131245,5,0,
256,160,132102,1,0,
64,160,132959,1,0,
50,32,133817,2,2,B|50:32|498:32,1,420
256,32,137245,5,0,
256,128,137674,1,0,
256,224,138102,1,0,
256,320,138531,1,0,
352,320,138959,5,0,
448,320,139388,1,0,
448,224,139817,1,0,
352,224,140245,1,0,
352,128,140674,5,0,
256,128,141102,1,0,
256,32,141531,1,0,
160,32,141959,5,2,
64,32,142388,1,2,
64,128,142817,1,2,
64,224,143245,1,2,
64,320,143674,5,0,
160,320,144102,1,0,
160,224,144531,1,0,
256,224,144959,1,0,
256,320,145388,5,0,
352,320,145817,1,0,
352,224,146245,1,0,
352,128,146674,1,0,
256,128,147102,5,0,
256,224,147531,1,0,
160,224,147960,1,0,
160,128,148388,1,0,
160,32,148817,5,2,
256,32,149245,1,2,
352,32,149674,1,2,
352,128,150102,1,2,
448,128,150531,5,0,
448,224,150960,1,0,
352,224,151388,1,0,
256,224,151817,1,0,
256,128,152245,5,0,
160,128,152674,1,0,
160,224,153102,1,0,
64,224,153531,1,0,
64,320,153960,5,0,
160,320,154388,1,0,
256,320,154817,1,0,
352,320,155245,1,0,
448,320,155674,5,2,
448,224,156102,1,2,
352,224,156531,1,2,
352,128,156960,1,2,
256,128,157388,5,0,
160,128,157817,1,0,
160,224,158245,1,0,
256,224,158674,1,0,
256,320,159102,5,0,
160,320,159531,1,0,
32,320,160174,5,0,
32,320,160388,1,0,
32,192,161031,5,0,
32,192,161245,1,0,
32,64,161888,5,0,
32,64,162102,1,0,
128,64,162531,5,2,
224,64,162960,1,2,
320,64,163388,1,2,
416,64,163817,1,2,
128,96,165102,5,4,
192,96,165317,1,4,
320,96,165960,1,4,
480,96,166817,5,4,
480,160,167031,1,4,
480,288,167674,1,4,
352,288,168531,5,4,
288,288,168745,1,4,
160,288,169388,1,4,
160,160,170245,5,4,
160,96,170460,1,4,
288,96,171102,1,4,
288,224,171960,5,4,
288,288,172174,1,4,
160,288,172817,1,4,
160,160,173674,5,4,
160,96,173888,1,4,
320,96,174531,5,0,
416,96,174960,1,0,
416,192,175388,1,0,
416,288,175817,1,0,
320,288,176245,5,0,
224,288,176674,1,0,
224,192,177102,1,0,
320,192,177531,1,0,
