osu file format v4

[General]
AudioFilename: 2pm - Tetris.mp3
AudioLeadIn: 0
AudioHash: c3ae380934f1c275b6840c8c81e74865
PreviewTime: -1
SampleSet: Soft

[Metadata]
Title:Tetris
Artist:2pm
Creator:Bonesnake
Version:Level 12 (hard)

[Difficulty]
HPDrainRate:5
CircleSize:5
OverallDifficulty:6
SliderMultiplier: 1.4
SliderTickRate: 1

[Events]
1,0,"tetris.avi"
2,54327,60642
2,88613,101785
2,105756,108641
2,111541,115499
3,0,163,162,255

[TimingPoints]
6960,428.571428571429,4,2,0
33960,428.571428571429,4,1,0

[HitObjects]
32,192,6959,1,0,
32,288,7388,5,0,
32,352,7602,1,0,
96,352,7817,1,0,
192,352,8245,5,0,
192,288,8459,1,0,
256,288,8674,1,0,
352,288,9102,5,0,
416,288,9317,1,0,
416,224,9531,1,0,
416,128,9959,5,0,
352,128,10174,1,0,
352,64,10388,1,0,
256,64,10817,5,0,
256,128,11031,1,0,
192,128,11245,1,0,
96,128,11674,5,0,
96,224,12102,1,0,
96,320,12531,1,0,
192,320,12959,1,0,
480,320,14031,5,0,
480,224,14459,1,0,
416,224,14674,1,0,
320,224,15102,5,0,
256,224,15317,1,0,
256,288,15531,1,0,
128,288,16174,5,0,
64,288,16388,1,0,
64,192,16817,5,0,
64,128,17031,1,0,
128,128,17245,1,0,
224,128,17674,5,0,
224,64,17888,1,0,
288,64,18102,1,0,
384,64,18531,5,0,
384,160,18960,1,0,
384,256,19388,1,0,
384,352,19817,1,0,
0,288,20674,5,0,
96,288,21102,2,2,B|96:288|96:192,2,70
192,288,21960,6,2,B|192:288|192:384,2,70
288,288,22817,6,2,B|288:288|288:192,2,70
384,288,23674,6,2,B|384:288|384:384,2,70
384,192,24531,5,2,
384,128,24745,1,2,
384,64,24960,1,2,
288,64,25388,5,2,
192,64,25817,1,2,
96,64,26245,1,2,
96,160,26674,1,2,
480,192,27745,5,2,
384,192,28174,1,2,
320,192,28388,1,2,
224,192,28817,5,2,
224,128,29031,1,2,
160,128,29245,1,2,
64,128,29888,5,2,
64,192,30102,1,2,
64,288,30531,5,2,
64,352,30745,1,2,
128,352,30960,1,2,
224,352,31388,5,2,
224,288,31602,1,2,
288,288,31817,1,2,
384,288,32245,5,2,
480,288,32674,1,2,
480,192,33102,1,2,
480,96,33531,1,2,
64,192,34388,6,4,B|64:192|64:352,1,140
148,333,35245,6,4,B|148:333|308:333,1,140
290,242,36102,6,4,B|290:242|130:242,1,140
147,147,36960,6,4,B|147:147|307:147,1,140
375,148,37817,6,4,B|375:148|375:308,1,140
373,366,38674,6,4,B|373:366|533:368,1,140
510,285,39531,6,4,B|510:285|510:125,1,140
512,32,40388,6,4,B|512:32|352:32,1,140
256,32,41460,5,0,
256,128,41888,5,0,
192,128,42102,1,0,
128,128,42317,1,0,
128,160,42424,1,0,
128,192,42531,1,0,
128,256,42745,1,0,
192,256,42960,1,0,
320,256,43602,5,0,
384,256,43817,1,0,
384,192,44031,1,0,
384,128,44245,1,0,
320,128,44459,5,0,
320,128,44674,1,0,
192,128,45102,5,0,
128,128,45317,1,0,
128,192,45531,1,0,
128,288,45959,5,0,
224,288,46388,1,0,
320,288,46817,1,0,
416,288,47245,1,0,
256,64,48102,5,0,
256,160,48531,5,0,
192,160,48745,1,0,
128,160,48959,1,0,
64,160,49174,1,0,
64,224,49388,5,0,
64,288,49602,1,0,
128,288,49817,1,0,
256,288,50459,5,0,
320,288,50674,1,0,
320,224,50888,1,0,
256,224,51102,1,0,
256,160,51317,5,0,
256,96,51531,1,0,
352,96,51959,5,0,
416,96,52174,1,0,
480,96,52388,1,0,
480,160,52602,1,0,
480,224,52817,5,0,
480,320,53245,1,0,
384,320,53674,1,0,
288,320,54102,1,0,
160,96,61817,5,0,
256,96,62245,5,0,
320,96,62459,1,0,
384,96,62674,1,0,
384,160,62888,1,0,
384,224,63102,5,0,
320,224,63317,1,0,
256,224,63531,1,0,
256,320,63959,5,0,
192,320,64174,1,0,
128,320,64388,5,0,
128,256,64602,1,0,
128,192,64817,1,0,
64,192,65031,1,0,
64,128,65245,5,0,
64,32,65674,5,0,
128,32,65888,1,0,
192,32,66102,1,0,
256,32,66317,1,0,
256,96,66531,5,2,
256,192,66959,1,2,
256,288,67388,1,2,
352,288,67817,1,2,
448,288,68245,5,0,
448,224,68459,1,0,
448,160,68674,1,0,
448,64,69102,5,0,
384,64,69317,1,0,
320,64,69531,1,0,
320,128,69745,1,0,
256,128,69959,5,0,
256,64,70174,1,0,
192,64,70388,1,0,
192,128,70602,1,0,
96,128,71031,5,0,
96,192,71245,5,0,
96,256,71459,1,0,
160,256,71674,1,0,
160,320,71888,1,0,
224,320,72102,5,0,
320,320,72531,5,0,
320,256,72745,1,0,
384,256,72959,1,0,
384,160,73388,5,2,
384,64,73817,1,2,
288,64,74245,1,2,
192,64,74674,1,2,
96,64,75102,5,0,
32,64,75317,1,0,
32,128,75531,1,0,
32,224,75959,5,0,
32,288,76174,1,0,
32,352,76388,1,0,
96,352,76602,1,0,
160,352,76817,5,0,
224,352,77031,1,0,
224,288,77245,1,0,
224,192,77674,5,0,
288,192,77888,1,0,
288,128,78102,1,0,
352,128,78317,1,0,
416,128,78531,5,0,
416,192,78745,1,0,
416,256,78959,1,0,
416,352,79388,5,0,
352,352,79602,1,0,
352,288,79817,1,0,
288,288,80031,1,0,
224,288,80245,5,2,
128,288,80674,1,2,
32,288,81102,1,2,
32,192,81531,1,2,
256,192,82388,12,0,88388
192,32,102959,6,0,B|192:32|192:352|160:352|352:352,2,420
256,32,109817,5,0,
256,128,110245,1,0,
256,192,110459,1,0,
256,256,110674,2,0,B|256:256|256:352,3,70
256,352,116674,5,0,
256,256,117102,1,0,
256,192,117317,1,0,
256,128,117531,2,0,B|256:128|256:32,3,70
128,32,119245,5,0,
224,32,119674,1,0,
320,32,120102,1,0,
416,32,120531,1,0,
416,128,120959,5,0,
416,224,121388,5,0,
416,320,121817,1,0,
352,320,122031,1,0,
288,320,122245,1,0,
192,320,122674,5,0,
192,320,122781,1,0,
128,320,122995,1,0,
128,320,123102,1,0,
128,224,123531,5,0,
128,128,123959,1,0,
224,128,124388,1,0,
224,32,124709,1,0,
224,32,124817,1,0,
320,32,125245,5,0,
416,32,125674,1,0,
416,128,126102,1,0,
416,128,126209,1,0,
416,192,126424,1,0,
416,192,126531,1,0,
320,192,126959,5,0,
224,192,127388,1,0,
128,192,127817,1,0,
128,192,127924,1,0,
64,192,128138,1,0,
64,192,128245,1,0,
64,288,128674,5,0,
160,288,129102,1,0,
256,288,129531,1,0,
352,288,129959,1,0,
448,288,130388,1,0,
448,160,131245,5,0,
256,160,132102,1,0,
64,160,132959,1,0,
50,32,133817,2,2,B|50:32|498:32,1,420
256,32,137245,5,0,
352,32,137674,5,0,
352,96,137888,1,0,
352,160,138102,1,0,
352,224,138317,1,0,
352,288,138531,5,0,
288,288,138745,1,0,
288,352,138959,1,0,
192,352,139388,5,0,
192,288,139602,1,0,
128,288,139817,1,0,
128,352,140031,1,0,
64,352,140245,5,0,
0,352,140459,1,0,
0,288,140674,1,0,
0,192,141102,5,0,
64,192,141317,1,0,
128,192,141531,1,0,
128,128,141745,1,0,
128,64,141959,5,2,
224,64,142388,1,2,
320,64,142817,1,2,
320,160,143245,1,2,
224,160,143674,5,0,
224,224,143888,1,0,
160,224,144102,1,0,
64,224,144424,1,0,
64,224,144531,1,0,
64,160,144745,5,0,
64,96,144959,1,0,
128,96,145174,1,0,
128,32,145388,1,0,
192,32,145602,5,0,
256,32,145817,1,0,
256,128,146245,5,0,
320,128,146460,1,0,
320,192,146674,1,0,
320,256,146888,1,0,
320,320,147102,5,0,
384,320,147317,1,0,
448,320,147531,1,0,
448,224,147960,5,0,
512,224,148174,1,0,
512,160,148388,1,0,
448,160,148602,1,0,
448,96,148817,5,2,
352,96,149245,1,2,
256,96,149674,1,2,
160,96,150102,1,2,
64,96,150531,5,0,
64,192,150960,1,0,
64,288,151388,5,0,
128,288,151602,1,0,
128,224,151817,1,0,
192,224,152031,1,0,
256,224,152245,5,0,
256,288,152460,1,0,
256,352,152674,1,0,
352,352,153102,5,0,
352,288,153317,1,0,
352,224,153531,1,0,
352,160,153745,1,0,
288,160,153960,5,0,
288,96,154174,1,0,
224,96,154388,1,0,
128,96,154817,5,0,
64,96,155031,1,0,
0,96,155245,1,0,
0,160,155460,1,0,
0,224,155674,5,2,
96,224,156102,1,2,
192,224,156531,1,2,
288,224,156960,1,2,
384,224,157388,5,0,
448,224,157602,1,0,
448,160,157817,1,0,
448,64,158245,5,0,
384,64,158460,1,0,
320,64,158674,1,0,
256,64,158888,1,0,
256,128,159102,5,0,
192,128,159317,1,0,
192,64,159531,1,0,
128,64,159745,1,0,
32,96,160174,5,0,
32,160,160388,1,0,
96,160,160602,1,0,
96,224,160817,1,0,
160,224,161031,5,0,
224,224,161245,1,0,
320,224,161674,1,0,
320,288,161888,1,0,
320,352,162102,1,0,
224,352,162531,5,2,
128,352,162960,1,2,
32,352,163388,1,2,
32,256,163817,1,2,
128,96,165102,5,4,
192,96,165317,1,4,
320,96,165960,1,4,
480,96,166817,5,4,
480,160,167031,1,4,
480,288,167674,1,4,
352,288,168531,5,4,
288,288,168745,1,4,
160,288,169388,1,4,
160,160,170245,5,4,
160,96,170460,1,4,
288,96,171102,1,4,
288,224,171960,5,4,
288,288,172174,1,4,
160,288,172817,1,4,
160,160,173674,5,4,
160,96,173888,1,4,
320,96,174531,5,0,
384,96,174745,1,0,
384,160,174960,1,0,
384,256,175388,5,0,
384,320,175602,1,0,
320,320,175817,1,0,
224,320,176245,5,0,
224,224,176674,1,0,
224,128,177102,1,0,
320,128,177531,1,0,
