osu file format v14

[General]
AudioFilename: 2moro-.mp3
AudioLeadIn: 0
PreviewTime: 50350
Countdown: 0
SampleSet: Soft
StackLeniency: 0.7
Mode: 0
LetterboxInBreaks: 0
WidescreenStoryboard: 0

[Editor]
Bookmarks: 54338
DistanceSpacing: 1
BeatDivisor: 4
GridSize: 4
TimelineZoom: 1

[Metadata]
Title:Peng You Chu Qu Zou Zou
TitleUnicode:朋友出去走走
Artist:2moro
ArtistUnicode:2moro
Creator:Peachtrees
Version:Normal
Source:
Tags:2 more loves Guo Antony Angus 郭彥均 郭彥甫
BeatmapID:697129
BeatmapSetID:312278

[Difficulty]
HPDrainRate:4
CircleSize:3.5
OverallDifficulty:4
ApproachRate:4
SliderMultiplier:1.1
SliderTickRate:2

[Events]
//Background and Video events
0,0,"ghghgh.jpg",0,0
//Break Periods
2,82550,89030
2,170550,176350
//Storyboard Layer 0 (Background)
//Storyboard Layer 1 (Fail)
//Storyboard Layer 2 (Pass)
//Storyboard Layer 3 (Foreground)
//Storyboard Sound Samples

[TimingPoints]
2350,500,4,2,1,50,1,0
2725,-100,4,2,1,80,0,0
2975,-100,4,2,1,50,0,0
3725,-100,4,2,1,80,0,0
3975,-100,4,2,1,50,0,0
4725,-100,4,2,1,80,0,0
4975,-100,4,2,1,50,0,0
5725,-100,4,2,1,80,0,0
5975,-100,4,2,1,50,0,0
6725,-100,4,2,1,80,0,0
6975,-100,4,2,1,50,0,0
7725,-100,4,2,1,80,0,0
7975,-100,4,2,1,50,0,0
8725,-100,4,2,1,80,0,0
8975,-100,4,2,1,50,0,0
9725,-100,4,2,1,80,0,0
9975,-100,4,2,1,50,0,0
10725,-100,4,2,1,80,0,0
10975,-100,4,2,1,50,0,0
11725,-100,4,2,1,80,0,0
11975,-100,4,2,1,50,0,0
12725,-100,4,2,1,80,0,0
12975,-100,4,2,1,50,0,0
13725,-100,4,2,1,80,0,0
13975,-100,4,2,1,50,0,0
14725,-100,4,2,1,80,0,0
14975,-100,4,2,1,50,0,0
15725,-100,4,2,1,80,0,0
15975,-100,4,2,1,50,0,0
16725,-100,4,2,1,80,0,0
16975,-100,4,2,1,50,0,0
17725,-100,4,2,1,80,0,0
17975,-100,4,2,1,50,0,0
18725,-100,4,2,1,80,0,0
18975,-100,4,2,1,50,0,0
19725,-100,4,2,1,80,0,0
19975,-100,4,2,1,50,0,0
20725,-100,4,2,1,80,0,0
20975,-100,4,2,1,50,0,0
21725,-100,4,2,1,80,0,0
21975,-100,4,2,1,50,0,0
22725,-100,4,2,1,80,0,0
22975,-100,4,2,1,50,0,0
23725,-100,4,2,1,80,0,0
23975,-100,4,2,1,50,0,0
24725,-100,4,2,1,80,0,0
24975,-100,4,2,1,50,0,0
25725,-100,4,2,1,80,0,0
25975,-100,4,2,1,50,0,0
26725,-100,4,2,1,80,0,0
26975,-100,4,2,1,50,0,0
27725,-100,4,2,1,80,0,0
27975,-100,4,2,1,50,0,0
28725,-100,4,2,1,80,0,0
28975,-100,4,2,1,50,0,0
29725,-100,4,2,1,80,0,0
29975,-100,4,2,1,50,0,0
30725,-100,4,2,1,80,0,0
30975,-100,4,2,1,50,0,0
31725,-100,4,2,1,80,0,0
31975,-100,4,2,1,50,0,0
32725,-100,4,2,1,80,0,0
32975,-100,4,2,1,50,0,0
33725,-100,4,2,1,80,0,0
33975,-100,4,2,1,60,0,0
34725,-100,4,2,1,90,0,0
34975,-100,4,2,1,60,0,0
35725,-100,4,2,1,90,0,0
35975,-100,4,2,1,60,0,0
36725,-100,4,2,1,90,0,0
36975,-100,4,2,1,60,0,0
37725,-100,4,2,1,90,0,0
37975,-100,4,2,1,60,0,0
38725,-100,4,2,1,90,0,0
38975,-100,4,2,1,60,0,0
39725,-100,4,2,1,90,0,0
39975,-100,4,2,1,60,0,0
40725,-100,4,2,1,90,0,0
40975,-100,4,2,1,60,0,0
41725,-100,4,2,1,90,0,0
41975,-100,4,2,1,60,0,0
42725,-100,4,2,1,90,0,0
42975,-100,4,2,1,60,0,0
43725,-100,4,2,1,90,0,0
43975,-100,4,2,1,60,0,0
44725,-100,4,2,1,90,0,0
44975,-100,4,2,1,60,0,0
45725,-100,4,2,1,90,0,0
45975,-100,4,2,1,60,0,0
46725,-100,4,2,1,90,0,0
46975,-100,4,2,1,60,0,0
47725,-100,4,2,1,90,0,0
47975,-100,4,2,1,60,0,0
48725,-100,4,2,1,90,0,0
48975,-100,4,2,1,60,0,0
49725,-100,4,2,1,90,0,0
49975,-100,4,2,1,60,0,0
50350,-100,4,2,1,70,0,1
50725,-100,4,2,1,100,0,1
50975,-100,4,2,1,70,0,1
51725,-100,4,2,1,100,0,1
51975,-100,4,2,1,70,0,1
52725,-100,4,2,1,100,0,1
52975,-100,4,2,1,70,0,1
53725,-100,4,2,1,100,0,1
53975,-100,4,2,1,70,0,1
54725,-100,4,2,1,100,0,1
54975,-100,4,2,1,70,0,1
55725,-100,4,2,1,100,0,1
55975,-100,4,2,1,70,0,1
56725,-100,4,2,1,100,0,1
56975,-100,4,2,1,70,0,1
57725,-100,4,2,1,100,0,1
57975,-100,4,2,1,70,0,1
58725,-100,4,2,1,70,0,1
58975,-100,4,2,1,70,0,1
59725,-100,4,2,1,100,0,1
59975,-100,4,2,1,70,0,1
60725,-100,4,2,1,100,0,1
60975,-100,4,2,1,70,0,1
61725,-100,4,2,1,100,0,1
61975,-100,4,2,1,70,0,1
62725,-100,4,2,1,100,0,1
62975,-100,4,2,1,70,0,1
63725,-100,4,2,1,100,0,1
63975,-100,4,2,1,70,0,1
64725,-100,4,2,1,100,0,1
64975,-100,4,2,1,70,0,1
65725,-100,4,2,1,100,0,1
65975,-100,4,2,1,70,0,1
66725,-100,4,2,1,100,0,1
66975,-100,4,2,1,70,0,1
67725,-100,4,2,1,100,0,1
67975,-100,4,2,1,70,0,1
68725,-100,4,2,1,100,0,1
68975,-100,4,2,1,70,0,1
69725,-100,4,2,1,100,0,1
69975,-100,4,2,1,70,0,1
70725,-100,4,2,1,100,0,1
70975,-100,4,2,1,70,0,1
71725,-100,4,2,1,100,0,1
71975,-100,4,2,1,70,0,1
72725,-100,4,2,1,100,0,1
72975,-100,4,2,1,70,0,1
73725,-100,4,2,1,100,0,1
73975,-100,4,2,1,70,0,1
74725,-100,4,2,1,100,0,1
74975,-100,4,2,1,70,0,1
75725,-100,4,2,1,100,0,1
75975,-100,4,2,1,70,0,1
76725,-100,4,2,1,100,0,1
76975,-100,4,2,1,70,0,1
77725,-100,4,2,1,100,0,1
77975,-100,4,2,1,70,0,1
78725,-100,4,2,1,100,0,1
78975,-100,4,2,1,70,0,1
79725,-100,4,2,2,80,0,1
79975,-100,4,2,1,70,0,1
80350,-100,4,2,1,50,0,0
90725,-100,4,2,1,80,0,0
90975,-100,4,2,1,50,0,0
91725,-100,4,2,1,80,0,0
91975,-100,4,2,1,50,0,0
92725,-100,4,2,1,80,0,0
92975,-100,4,2,1,50,0,0
93725,-100,4,2,1,80,0,0
93975,-100,4,2,1,50,0,0
94725,-100,4,2,1,80,0,0
94975,-100,4,2,1,50,0,0
95725,-100,4,2,1,80,0,0
95975,-100,4,2,1,50,0,0
96725,-100,4,2,1,80,0,0
96975,-100,4,2,1,50,0,0
97725,-100,4,2,1,80,0,0
97975,-100,4,2,1,50,0,0
98725,-100,4,2,1,80,0,0
98975,-100,4,2,1,50,0,0
99725,-100,4,2,1,80,0,0
99975,-100,4,2,1,50,0,0
100725,-100,4,2,1,80,0,0
100975,-100,4,2,1,50,0,0
101725,-100,4,2,1,80,0,0
101975,-100,4,2,1,50,0,0
102725,-100,4,2,1,80,0,0
102975,-100,4,2,1,50,0,0
103725,-100,4,2,1,80,0,0
103975,-100,4,2,1,50,0,0
104725,-100,4,2,1,80,0,0
104975,-100,4,2,1,50,0,0
105725,-100,4,2,1,80,0,0
105975,-100,4,2,1,50,0,0
106725,-100,4,2,1,80,0,0
106975,-100,4,2,1,50,0,0
107725,-100,4,2,1,80,0,0
107975,-100,4,2,1,50,0,0
108725,-100,4,2,1,80,0,0
108975,-100,4,2,1,50,0,0
109725,-100,4,2,1,80,0,0
109975,-100,4,2,1,50,0,0
110725,-100,4,2,1,80,0,0
110975,-100,4,2,1,50,0,0
111725,-100,4,2,1,80,0,0
111975,-100,4,2,1,50,0,0
112725,-100,4,2,1,80,0,0
112975,-100,4,2,1,50,0,0
113725,-100,4,2,1,80,0,0
113975,-100,4,2,1,50,0,0
114725,-100,4,2,1,80,0,0
114975,-100,4,2,1,50,0,0
115725,-100,4,2,1,80,0,0
115975,-100,4,2,1,50,0,0
116725,-100,4,2,1,80,0,0
116975,-100,4,2,1,50,0,0
117725,-100,4,2,1,80,0,0
117975,-100,4,2,1,50,0,0
118725,-100,4,2,1,80,0,0
118975,-100,4,2,1,50,0,0
119725,-100,4,2,1,80,0,0
119975,-100,4,2,1,50,0,0
120725,-100,4,2,1,80,0,0
120975,-100,4,2,1,50,0,0
121725,-100,4,2,1,80,0,0
121975,-100,4,2,1,60,0,0
122725,-100,4,2,1,90,0,0
122975,-100,4,2,1,60,0,0
123725,-100,4,2,1,90,0,0
123975,-100,4,2,1,60,0,0
124725,-100,4,2,1,90,0,0
124975,-100,4,2,1,60,0,0
125725,-100,4,2,1,90,0,0
125975,-100,4,2,1,60,0,0
126725,-100,4,2,1,90,0,0
126975,-100,4,2,1,60,0,0
127725,-100,4,2,1,60,0,0
127975,-100,4,2,1,60,0,0
128725,-100,4,2,1,90,0,0
128975,-100,4,2,1,60,0,0
129725,-100,4,2,1,90,0,0
129975,-100,4,2,1,60,0,0
130725,-100,4,2,1,90,0,0
130975,-100,4,2,1,60,0,0
131725,-100,4,2,1,90,0,0
131975,-100,4,2,1,60,0,0
132725,-100,4,2,1,90,0,0
132975,-100,4,2,1,60,0,0
133725,-100,4,2,1,90,0,0
133975,-100,4,2,1,60,0,0
134725,-100,4,2,1,90,0,0
134975,-100,4,2,1,60,0,0
135725,-100,4,2,1,90,0,0
135975,-100,4,2,1,60,0,0
136725,-100,4,2,1,90,0,0
136975,-100,4,2,1,60,0,0
137725,-100,4,2,1,90,0,0
137975,-100,4,2,1,60,0,0
138350,-100,4,2,1,70,0,1
138725,-100,4,2,1,100,0,1
138975,-100,4,2,1,70,0,1
139725,-100,4,2,1,100,0,1
139975,-100,4,2,1,70,0,1
140725,-100,4,2,1,100,0,1
140975,-100,4,2,1,70,0,1
141725,-100,4,2,1,100,0,1
141975,-100,4,2,1,70,0,1
142725,-100,4,2,1,100,0,1
142975,-100,4,2,1,70,0,1
143725,-100,4,2,1,100,0,1
143975,-100,4,2,1,70,0,1
144725,-100,4,2,1,100,0,1
144975,-100,4,2,1,70,0,1
145725,-100,4,2,1,100,0,1
145975,-100,4,2,1,70,0,1
146725,-100,4,2,1,100,0,1
146975,-100,4,2,1,70,0,1
147725,-100,4,2,1,100,0,1
147975,-100,4,2,1,70,0,1
148725,-100,4,2,1,100,0,1
148975,-100,4,2,1,70,0,1
149725,-100,4,2,1,100,0,1
149975,-100,4,2,1,70,0,1
150725,-100,4,2,1,100,0,1
150975,-100,4,2,1,70,0,1
151725,-100,4,2,1,100,0,1
151975,-100,4,2,1,70,0,1
152725,-100,4,2,1,100,0,1
152975,-100,4,2,1,70,0,1
153725,-100,4,2,1,100,0,1
153975,-100,4,2,1,70,0,1
154725,-100,4,2,1,100,0,1
154975,-100,4,2,1,70,0,1
155725,-100,4,2,1,100,0,1
155975,-100,4,2,1,70,0,1
156725,-100,4,2,1,100,0,1
156975,-100,4,2,1,70,0,1
157725,-100,4,2,1,100,0,1
157975,-100,4,2,1,70,0,1
158725,-100,4,2,1,100,0,1
158975,-100,4,2,1,70,0,1
159725,-100,4,2,1,100,0,1
159975,-100,4,2,1,70,0,1
160725,-100,4,2,1,100,0,1
160975,-100,4,2,1,70,0,1
161725,-100,4,2,1,100,0,1
161975,-100,4,2,1,70,0,1
162725,-100,4,2,1,100,0,1
162975,-100,4,2,1,70,0,1
163725,-100,4,2,1,100,0,1
163975,-100,4,2,1,70,0,1
164725,-100,4,2,1,100,0,1
164975,-100,4,2,1,70,0,1
165725,-100,4,2,1,100,0,1
165975,-100,4,2,1,70,0,1
166725,-100,4,2,1,100,0,1
166975,-100,4,2,1,70,0,1
167725,-100,4,2,2,80,0,1
167975,-100,4,2,1,70,0,1
168350,-100,4,2,1,70,0,0
178350,-100,4,2,1,70,0,1
178725,-100,4,2,1,100,0,1
178975,-100,4,2,1,70,0,1
179725,-100,4,2,1,100,0,1
179975,-100,4,2,1,70,0,1
180725,-100,4,2,1,100,0,1
180975,-100,4,2,1,70,0,1
181725,-100,4,2,1,100,0,1
181975,-100,4,2,1,70,0,1
182725,-100,4,2,1,100,0,1
182975,-100,4,2,1,70,0,1
183725,-100,4,2,1,100,0,1
183975,-100,4,2,1,70,0,1
184725,-100,4,2,1,100,0,1
184975,-100,4,2,1,70,0,1
185725,-100,4,2,1,100,0,1
185975,-100,4,2,1,70,0,1
186725,-100,4,2,1,100,0,1
186975,-100,4,2,1,70,0,1
187725,-100,4,2,1,100,0,1
187975,-100,4,2,1,70,0,1
188725,-100,4,2,1,100,0,1
188975,-100,4,2,1,70,0,1
189725,-100,4,2,1,100,0,1
189975,-100,4,2,1,70,0,1
190725,-100,4,2,1,100,0,1
190975,-100,4,2,1,70,0,1
191725,-100,4,2,1,100,0,1
191975,-100,4,2,1,70,0,1
192725,-100,4,2,1,100,0,1
192975,-100,4,2,1,70,0,1
193725,-100,4,2,1,100,0,1
193975,-100,4,2,1,70,0,1
194725,-100,4,2,1,100,0,1
194975,-100,4,2,1,70,0,1
195725,-100,4,2,1,100,0,1
195975,-100,4,2,1,70,0,1
196725,-100,4,2,1,100,0,1
196975,-100,4,2,1,70,0,1
197725,-100,4,2,1,100,0,1
197975,-100,4,2,1,70,0,1
198725,-100,4,2,1,100,0,1
198975,-100,4,2,1,70,0,1
199725,-100,4,2,2,80,0,1
199975,-100,4,2,1,70,0,1
200350,-100,4,2,1,50,0,0

[Colours]
Combo1 : 210,218,78
Combo2 : 128,128,255
Combo3 : 29,172,188
Combo4 : 255,128,128

[HitObjects]
320,265,2350,6,0,P|260:263|221:233,1,110,4|8,0:0|0:0,0:0:0:0:
168,137,3350,2,0,P|139:156|127:176,2,55,2|0|8,0:0|0:0|0:0,0:0:0:0:
219,117,4100,1,0,0:0:0:0:
219,117,4350,2,0,L|336:118,1,110,2|8,0:0|0:0,0:0:0:0:
429,73,5350,2,0,P|438:108|409:195,1,110,2|8,0:0|0:0,0:0:0:0:
386,220,6100,1,8,0:0:0:0:
332,232,6350,6,0,L|206:231,1,110,2|8,0:0|0:0,0:0:0:0:
123,281,7350,2,0,P|161:323|182:329,2,55,2|0|8,0:0|0:0|0:0,0:0:0:0:
103,230,8100,1,0,0:0:0:0:
103,230,8350,2,0,L|109:118,1,110,2|8,0:0|0:0,0:0:0:0:
130,69,9100,2,0,P|186:66|248:97,1,110,2|2,0:0|0:0,0:0:0:0:
276,123,9850,1,8,0:0:0:0:
384,105,10350,6,0,P|357:48|313:19,2,110,4|8|2,0:0|0:0|0:0,0:0:0:0:
378,160,11600,1,0,0:0:0:0:
343,203,11850,1,8,0:0:0:0:
235,226,12350,2,0,P|261:278|305:307,2,110,2|8|2,0:0|0:0|0:0,0:0:0:0:
225,171,13600,1,0,0:0:0:0:
242,118,13850,1,8,0:0:0:0:
161,43,14350,6,0,B|106:32|106:32|53:43,1,110,2|8,0:0|0:0,0:0:0:0:
9,144,15350,2,0,L|29:262,1,110,2|8,0:0|0:0,0:0:0:0:
124,303,16350,2,0,P|99:338|59:357,2,82.5,2|2|2,0:0|0:0|0:0,0:0:0:0:
232,327,17600,2,0,L|222:265,1,55,2|8,0:0|0:0,0:0:0:0:
240,221,18100,1,8,0:0:0:0:
240,221,18350,6,0,P|291:198|359:212,1,110,4|8,0:0|0:0,0:0:0:0:
392,228,19100,2,0,L|403:118,1,110,2|2,0:0|0:0,0:0:0:0:
409,63,19850,1,8,0:0:0:0:
306,103,20350,2,0,P|254:109|201:88,1,110,2|8,0:0|0:0,0:0:0:0:
169,42,21100,2,0,P|117:36|64:57,1,110,2|2,0:0|0:0,0:0:0:0:
23,93,21850,1,8,0:0:0:0:
46,200,22350,6,0,L|49:315,2,110,2|8|2,0:0|0:0|0:0,0:0:0:0:
137,139,23850,2,0,L|140:201,1,55,8|0,0:0|0:0,0:0:0:0:
141,249,24350,2,0,P|201:277|252:271,1,110,2|8,0:0|0:0,0:0:0:0:
293,251,25100,2,0,P|347:250|395:275,1,110,2|2,0:0|0:0,0:0:0:0:
435,313,25850,1,8,0:0:0:0:
480,212,26350,6,0,P|436:171|381:150,1,110,2|8,0:0|0:0,0:0:0:0:
345,51,27350,2,0,P|308:74|292:98,1,55,2|0,0:0|0:0,0:0:0:0:
288,136,27850,2,0,L|234:123,1,55,8|0,0:0|0:0,0:0:0:0:
181,138,28350,2,0,B|168:193|168:193|179:260,1,110,2|8,0:0|0:0,0:0:0:0:
194,297,29100,1,2,0:0:0:0:
275,372,29600,2,0,L|333:363,1,55,2|8,0:0|0:0,0:0:0:0:
382,350,30100,1,0,0:0:0:0:
382,350,30350,6,0,P|424:369|503:345,2,110,2|8|2,0:0|0:0|0:0,0:0:0:0:
337,249,31850,2,0,L|347:171,1,55,8|0,0:0|0:0,0:0:0:0:
353,140,32350,2,0,P|311:159|232:135,1,110,2|8,0:0|0:0,0:0:0:0:
208,111,33100,1,2,0:0:0:0:
98,121,33600,2,0,L|104:175,1,55,2|8,0:0|0:0,0:0:0:0:
129,225,34100,1,8,0:0:0:0:
129,225,34350,6,0,L|121:334,1,110,2|8,0:0|0:0,0:0:0:0:
225,303,35350,2,0,L|229:236,2,55,2|0|8,0:0|0:0|0:0,0:0:0:0:
244,354,36100,1,0,0:0:0:0:
244,354,36350,2,0,P|303:351|343:319,1,110,2|8,0:0|0:0,0:0:0:0:
367,272,37100,2,0,L|346:162,1,110,2|2,0:0|0:0,0:0:0:0:
335,109,37850,1,8,0:0:0:0:
225,97,38350,6,0,P|229:68|244:45,2,55,2|0|8,0:0|0:0|0:0,0:0:0:0:
234,151,39100,1,0,0:0:0:0:
234,151,39350,2,0,L|116:148,1,110,2|8,0:0|0:0,0:0:0:0:
69,150,40100,1,0,0:0:0:0:
25,183,40350,2,0,P|16:235|40:297,1,110,2|8,0:0|0:0,0:0:0:0:
66,332,41100,1,2,0:0:0:0:
174,316,41600,2,0,L|234:307,1,55,8|8,0:0|0:0,0:0:0:0:
279,328,42100,1,8,0:0:0:0:
279,328,42350,6,0,L|396:333,1,110,2|8,0:0|0:0,0:0:0:0:
443,323,43100,2,0,P|449:255|426:209,1,110,2|0,0:0|0:0,0:0:0:0:
392,180,43850,1,8,0:0:0:0:
406,70,44350,2,0,P|350:77|300:120,1,110,2|8,0:0|0:0,0:0:0:0:
281,156,45100,1,0,0:0:0:0:
281,156,45350,2,0,L|290:278,1,110,2|8,0:0|0:0,0:0:0:0:
179,276,46350,6,0,L|171:209,2,55,2|0|8,0:0|0:0|0:0,0:0:0:0:
276,327,47350,2,0,L|282:381,2,55,2|0|8,0:0|0:0|0:0,0:0:0:0:
328,230,48350,2,0,P|368:237|411:273,2,82.5,2|2|2,0:0|0:0|0:0,0:0:0:0:
223,195,49600,2,0,P|218:169|226:131,1,55,2|8,0:0|0:0,0:0:0:0:
258,99,50100,1,8,0:0:0:0:
258,99,50350,6,0,L|376:98,1,110,4|8,0:0|0:0,0:0:0:0:
469,139,51350,2,0,P|467:175|447:207,1,55,2|0,0:0|0:0,0:0:0:0:
427,236,51850,2,0,P|429:272|449:304,1,55,8|0,0:0|0:0,0:0:0:0:
461,337,52350,2,0,P|409:325|349:336,1,110,2|8,0:0|0:0,0:0:0:0:
307,364,53100,2,0,P|255:376|195:365,1,110,2|2,0:0|0:0,0:0:0:0:
151,339,53850,1,8,0:0:0:0:
99,241,54350,6,0,L|110:181,1,55,2|0,0:0|0:0,0:0:0:0:
118,132,54850,1,8,0:0:0:0:
118,132,55100,2,0,P|173:141|236:107,1,110,2|2,0:0|0:0,0:0:0:0:
233,66,55850,2,0,L|287:73,1,55,8|0,0:0|0:0,0:0:0:0:
323,115,56350,2,0,L|304:237,2,110,2|8|2,0:0|0:0|0:0,0:0:0:0:
370,14,57850,2,0,P|410:43|419:62,1,55,8|0,0:0|0:0,0:0:0:0:
440,94,58350,6,0,L|422:211,1,110,4|8,0:0|0:0,0:0:0:0:
416,257,59100,1,2,0:0:0:0:
391,364,59600,2,0,P|347:345|332:321,1,55,2|8,0:0|0:0,0:0:0:0:
326,288,60100,1,0,0:0:0:0:
326,288,60350,2,0,L|212:279,1,110,2|8,0:0|0:0,0:0:0:0:
162,274,61100,1,2,0:0:0:0:
68,215,61600,2,0,P|54:241|54:288,2,55,2|8|0,0:0|0:0|0:0,0:0:0:0:
105,175,62350,6,0,L|159:166,1,55,2|0,0:0|0:0,0:0:0:0:
214,167,62850,2,0,L|268:175,1,55,8|0,0:0|0:0,0:0:0:0:
322,182,63350,2,0,P|335:158|339:131,2,55,2|0|8,0:0|0:0|0:0,0:0:0:0:
314,236,64100,1,2,0:0:0:0:
314,236,64350,2,0,P|319:295|361:345,1,110,2|8,0:0|0:0,0:0:0:0:
242,368,65350,2,0,P|218:322|212:261,1,110,2|8,0:0|0:0,0:0:0:0:
220,211,66100,1,8,0:0:0:0:
248,163,66350,6,0,L|131:160,1,110,4|8,0:0|0:0,0:0:0:0:
43,103,67350,2,0,P|62:80|91:61,2,55,2|0|8,0:0|0:0|0:0,0:0:0:0:
37,157,68100,1,0,0:0:0:0:
37,157,68350,2,0,B|47:213|47:213|85:268,1,110,2|8,0:0|0:0,0:0:0:0:
119,291,69100,2,0,P|172:278|213:230,1,110,2|2,0:0|0:0,0:0:0:0:
208,183,69850,1,8,0:0:0:0:
204,73,70350,6,0,P|237:76|264:89,1,55,2|0,0:0|0:0,0:0:0:0:
296,122,70850,1,8,0:0:0:0:
296,122,71100,2,0,L|419:114,1,110,2|2,0:0|0:0,0:0:0:0:
460,110,71850,1,8,0:0:0:0:
488,216,72350,2,0,P|485:267|445:322,1,110,2|8,0:0|0:0,0:0:0:0:
402,336,73100,2,0,L|283:318,1,110,2|2,0:0|0:0,0:0:0:0:
239,309,73850,1,8,0:0:0:0:
129,323,74350,6,0,P|132:345|148:373,2,55,4|0|8,0:0|0:0|0:0,0:0:0:0:
141,269,75100,2,0,P|161:215|154:158,1,110,2|2,0:0|0:0,0:0:0:0:
167,109,75850,2,0,L|231:118,1,55,8|0,0:0|0:0,0:0:0:0:
270,141,76350,2,0,L|378:124,1,110,2|8,0:0|0:0,0:0:0:0:
433,114,77100,1,2,0:0:0:0:
504,201,77600,2,0,P|478:218|439:224,1,55,0|8,0:0|0:0,0:0:0:0:
401,214,78100,1,0,0:0:0:0:
401,214,78350,6,0,P|360:209|287:241,1,110,2|8,0:0|0:0,0:0:0:0:
260,269,79100,1,0,0:0:0:0:
242,321,79350,2,0,P|200:317|166:297,2,82.5,2|2|2,0:0|0:0|0:0,0:0:0:0:
256,192,80350,12,4,82350,0:0:0:0:
88,197,90350,6,0,P|51:127|54:92,2,110,4|8|2,0:0|0:0|0:0,0:0:0:0:
135,222,91600,1,0,0:0:0:0:
188,208,91850,1,8,0:0:0:0:
272,137,92350,2,0,P|306:127|383:139,1,110,2|8,0:0|0:0,0:0:0:0:
419,174,93100,2,0,L|389:283,1,110,2|2,0:0|0:0,0:0:0:0:
373,332,93850,1,8,0:0:0:0:
264,323,94350,6,0,L|234:216,1,110,2|8,0:0|0:0,0:0:0:0:
206,110,95350,2,0,P|175:121|149:147,2,55,2|0|8,0:0|0:0|0:0,0:0:0:0:
261,110,96100,1,0,0:0:0:0:
261,110,96350,2,0,P|324:137|375:125,1,110,2|8,0:0|0:0,0:0:0:0:
412,107,97100,2,0,L|406:222,1,110,2|2,0:0|0:0,0:0:0:0:
370,258,97850,1,8,0:0:0:0:
262,238,98350,6,0,L|127:230,1,110,4|8,0:0|0:0,0:0:0:0:
44,254,99350,2,0,P|54:288|83:314,2,55,2|0|8,0:0|0:0|0:0,0:0:0:0:
57,201,100100,1,0,0:0:0:0:
57,201,100350,2,0,P|69:144|53:87,1,110,2|8,0:0|0:0,0:0:0:0:
141,23,101350,2,0,L|202:33,1,55,2|0,0:0|0:0,0:0:0:0:
243,59,101850,2,0,L|297:51,1,55,8|0,0:0|0:0,0:0:0:0:
344,23,102350,6,0,L|453:38,1,110,2|8,0:0|0:0,0:0:0:0:
465,147,103350,2,0,L|356:132,1,110,2|8,0:0|0:0,0:0:0:0:
249,160,104350,2,0,P|268:200|309:231,2,82.5,2|2|8,0:0|0:0|0:0,0:0:0:0:
174,79,105600,2,0,L|114:83,1,55,2|8,0:0|0:0,0:0:0:0:
64,92,106100,1,8,0:0:0:0:
64,92,106350,6,0,P|70:147|27:200,1,110,4|8,0:0|0:0,0:0:0:0:
10,236,107100,2,0,L|123:243,1,110,2|0,0:0|0:0,0:0:0:0:
174,245,107850,1,8,0:0:0:0:
198,352,108350,2,0,P|247:330|275:283,1,110,2|8,0:0|0:0,0:0:0:0:
283,229,109100,2,0,P|341:227|401:256,1,110,2|2,0:0|0:0,0:0:0:0:
418,292,109850,1,8,0:0:0:0:
493,211,110350,6,0,L|483:88,1,110,2|8,0:0|0:0,0:0:0:0:
445,62,111100,1,0,0:0:0:0:
445,62,111350,2,0,P|406:61|327:99,1,110,2|8,0:0|0:0,0:0:0:0:
310,133,112100,1,0,0:0:0:0:
310,133,112350,2,0,L|318:242,2,110,2|8|2,0:0|0:0|0:0,0:0:0:0:
261,34,113850,1,8,0:0:0:0:
206,34,114100,1,8,0:0:0:0:
160,64,114350,6,0,P|144:117|155:181,1,110,4|8,0:0|0:0,0:0:0:0:
156,280,115350,2,0,P|183:276|207:264,2,55,2|0|8,0:0|0:0|0:0,0:0:0:0:
101,277,116100,1,0,0:0:0:0:
57,243,116350,2,0,P|35:187|35:132,1,110,2|8,0:0|0:0,0:0:0:0:
52,85,117100,1,2,0:0:0:0:
157,115,117600,2,0,P|188:111|218:92,1,55,2|8,0:0|0:0,0:0:0:0:
258,76,118100,1,0,0:0:0:0:
258,76,118350,6,0,L|248:207,2,110,2|8|2,0:0|0:0|0:0,0:0:0:0:
353,21,119850,2,0,L|407:24,1,55,8|0,0:0|0:0,0:0:0:0:
461,37,120350,2,0,P|467:87|424:150,1,110,2|8,0:0|0:0,0:0:0:0:
337,179,121350,2,0,P|351:207|376:229,2,55,2|0|8,0:0|0:0|0:0,0:0:0:0:
342,124,122100,1,0,0:0:0:0:
342,124,122350,6,0,L|233:118,1,110,2|8,0:0|0:0,0:0:0:0:
122,111,123350,2,0,P|128:157|142:179,1,55,2|0,0:0|0:0,0:0:0:0:
165,206,123850,2,0,P|159:252|145:274,1,55,8|0,0:0|0:0,0:0:0:0:
129,307,124350,2,0,L|238:313,1,110,2|8,0:0|0:0,0:0:0:0:
293,317,125100,1,2,0:0:0:0:
402,315,125600,2,0,P|399:283|376:250,1,55,2|8,0:0|0:0,0:0:0:0:
352,223,126100,1,0,0:0:0:0:
302,199,126350,6,0,P|310:141|344:89,2,110,2|8|2,0:0|0:0|0:0,0:0:0:0:
257,299,127850,2,0,L|187:300,1,55,8|0,0:0|0:0,0:0:0:0:
146,302,128350,2,0,P|121:330|41:337,1,110,2|8,0:0|0:0,0:0:0:0:
7,307,129100,2,0,L|2:181,1,110,2|2,0:0|0:0,0:0:0:0:
1,142,129850,1,8,0:0:0:0:
76,61,130350,6,0,P|118:77|162:141,1,110,2|8,0:0|0:0,0:0:0:0:
160,181,131100,2,0,L|285:182,1,110,2|0,0:0|0:0,0:0:0:0:
321,203,131850,2,0,P|357:198|382:185,1,55,8|0,0:0|0:0,0:0:0:0:
423,164,132350,2,0,P|413:214|441:273,1,110,2|8,0:0|0:0,0:0:0:0:
347,334,133350,2,0,L|285:332,1,55,2|0,0:0|0:0,0:0:0:0:
240,349,133850,2,0,L|178:347,1,55,8|0,0:0|0:0,0:0:0:0:
133,327,134350,6,0,P|79:350|24:341,2,110,2|0|0,0:0|0:0|0:0,0:0:0:0:
203,242,135850,2,0,L|206:175,1,55,8|0,0:0|0:0,0:0:0:0:
234,139,136350,2,0,P|268:149|310:200,2,82.5,2|2|2,0:0|0:0|0:0,0:0:0:0:
124,139,137600,2,0,P|93:128|64:99,1,55,2|8,0:0|0:0,0:0:0:0:
30,82,138100,1,8,0:0:0:0:
30,82,138350,6,0,B|7:133|7:133|15:196,1,110,4|8,0:0|0:0,0:0:0:0:
107,243,139350,2,0,L|174:236,2,55,2|0|8,0:0|0:0|0:0,0:0:0:0:
59,269,140100,1,0,0:0:0:0:
59,269,140350,2,0,P|70:322|111:356,1,110,2|8,0:0|0:0,0:0:0:0:
166,361,141100,2,0,L|281:348,1,110,2|2,0:0|0:0,0:0:0:0:
329,341,141850,1,8,0:0:0:0:
432,303,142350,6,0,P|413:267|390:251,1,55,2|0,0:0|0:0,0:0:0:0:
349,242,142850,1,8,0:0:0:0:
349,242,143100,2,0,L|360:132,1,110,2|2,0:0|0:0,0:0:0:0:
315,100,143850,2,0,P|293:112|250:113,1,55,8|0,0:0|0:0,0:0:0:0:
208,111,144350,2,0,P|162:82|136:32,2,110,2|8|2,0:0|0:0|0:0,0:0:0:0:
203,220,145850,2,0,P|172:215|142:198,1,55,8|0,0:0|0:0,0:0:0:0:
104,174,146350,6,0,L|101:300,1,110,4|8,0:0|0:0,0:0:0:0:
109,338,147100,1,2,0:0:0:0:
201,274,147600,2,0,L|203:214,2,55,2|8|0,0:0|0:0|0:0,0:0:0:0:
212,327,148350,2,0,P|266:328|318:293,1,110,2|8,0:0|0:0,0:0:0:0:
335,249,149100,1,2,0:0:0:0:
424,184,149600,2,0,P|440:211|443:249,2,55,2|8|0,0:0|0:0|0:0,0:0:0:0:
381,148,150350,6,0,L|302:144,1,55,2|0,0:0|0:0,0:0:0:0:
271,155,150850,2,0,L|216:153,1,55,8|0,0:0|0:0,0:0:0:0:
160,149,151350,2,0,P|144:122|141:84,2,55,2|0|8,0:0|0:0|0:0,0:0:0:0:
159,203,152100,1,2,0:0:0:0:
159,203,152350,2,0,P|159:249|128:305,1,110,2|8,0:0|0:0,0:0:0:0:
217,369,153350,2,0,L|335:366,1,110,2|8,0:0|0:0,0:0:0:0:
381,355,154100,1,8,0:0:0:0:
422,319,154350,6,0,P|429:265|406:209,1,110,4|8,0:0|0:0,0:0:0:0:
302,187,155350,2,0,P|307:169|334:135,2,55,2|0|8,0:0|0:0|0:0,0:0:0:0:
306,241,156100,1,0,0:0:0:0:
306,241,156350,2,0,L|195:234,1,110,2|8,0:0|0:0,0:0:0:0:
141,227,157100,2,0,P|120:180|134:116,1,110,2|2,0:0|0:0,0:0:0:0:
159,77,157850,1,8,0:0:0:0:
255,24,158350,6,0,P|268:56|268:78,1,55,2|0,0:0|0:0,0:0:0:0:
255,129,158850,1,8,0:0:0:0:
255,129,159100,2,0,L|380:133,1,110,2|2,0:0|0:0,0:0:0:0:
419,134,159850,1,8,0:0:0:0:
475,228,160350,2,0,P|437:266|380:273,1,110,2|8,0:0|0:0,0:0:0:0:
334,246,161100,2,0,P|281:254|243:292,1,110,2|2,0:0|0:0,0:0:0:0:
222,343,161850,1,8,0:0:0:0:
155,255,162350,6,0,L|162:198,2,55,4|0|8,0:0|0:0|0:0,0:0:0:0:
112,290,163100,2,0,P|53:269|27:216,1,110,2|2,0:0|0:0,0:0:0:0:
35,175,163850,2,0,P|62:169|88:153,1,55,8|0,0:0|0:0,0:0:0:0:
116,109,164350,2,0,L|228:115,1,110,2|8,0:0|0:0,0:0:0:0:
280,115,165100,1,2,0:0:0:0:
361,40,165600,2,0,P|378:60|386:86,1,55,0|8,0:0|0:0,0:0:0:0:
389,141,166100,1,0,0:0:0:0:
389,141,166350,6,0,L|359:262,1,110,2|8,0:0|0:0,0:0:0:0:
321,283,167100,1,0,0:0:0:0:
266,285,167350,2,0,P|230:264|207:221,2,82.5,2|2|2,0:0|0:0|0:0,0:0:0:0:
256,192,168350,12,0,170350,0:0:0:0:
69,125,178350,6,0,P|122:128|196:100,1,110,4|8,0:0|0:0,0:0:0:0:
220,79,179100,2,0,L|224:192,1,110,2|0,0:0|0:0,0:0:0:0:
225,243,179850,1,8,0:0:0:0:
306,316,180350,2,0,P|293:331|256:348,2,55,2|0|8,0:0|0:0|0:0,0:0:0:0:
319,262,181100,2,0,P|372:256|428:284,1,110,2|0,0:0|0:0,0:0:0:0:
454,324,181850,1,8,0:0:0:0:
498,223,182350,6,0,L|490:168,1,55,2|0,0:0|0:0,0:0:0:0:
442,141,182850,2,0,L|434:86,1,55,8|0,0:0|0:0,0:0:0:0:
384,63,183350,2,0,L|376:-1,2,55,2|0|8,0:0|0:0|0:0,0:0:0:0:
360,112,184100,1,2,0:0:0:0:
360,112,184350,2,0,P|304:115|246:79,1,110,2|0,0:0|0:0,0:0:0:0:
147,94,185350,2,0,P|148:68|164:33,2,55,2|2|8,0:0|0:0|0:0,0:0:0:0:
170,143,186100,1,2,0:0:0:0:
170,143,186350,6,0,P|167:208|130:248,1,110,4|8,0:0|0:0,0:0:0:0:
136,351,187350,2,0,L|205:355,1,55,2|0,0:0|0:0,0:0:0:0:
245,343,187850,2,0,L|314:347,1,55,8|0,0:0|0:0,0:0:0:0:
349,370,188350,2,0,P|406:365|441:329,1,110,2|8,0:0|0:0,0:0:0:0:
454,276,189100,2,0,L|434:155,1,110,2|0,0:0|0:0,0:0:0:0:
425,113,189850,1,8,0:0:0:0:
330,56,190350,6,0,P|350:30|378:13,2,55,2|0|8,0:0|0:0|0:0,0:0:0:0:
332,110,191100,2,0,L|210:106,1,110,2|0,0:0|0:0,0:0:0:0:
166,106,191850,1,8,0:0:0:0:
65,149,192350,2,0,P|57:91|79:38,2,110,2|8|2,0:0|0:0|0:0,0:0:0:0:
124,241,193850,2,0,L|182:236,1,55,8|0,0:0|0:0,0:0:0:0:
233,230,194350,6,0,P|260:277|328:298,1,110,4|8,0:0|0:0,0:0:0:0:
364,294,195100,1,2,0:0:0:0:
473,307,195600,2,0,P|466:337|441:372,2,55,2|8|0,0:0|0:0|0:0,0:0:0:0:
458,254,196350,2,0,P|442:210|451:148,1,110,2|8,0:0|0:0,0:0:0:0:
472,98,197100,1,2,0:0:0:0:
369,58,197600,2,0,L|302:39,1,55,0|8,0:0|0:0,0:0:0:0:
264,63,198100,1,0,0:0:0:0:
264,63,198350,6,0,L|146:58,1,110,2|8,0:0|0:0,0:0:0:0:
99,66,199100,1,0,0:0:0:0:
58,102,199350,2,0,P|65:141|103:179,2,82.5,2|2|2,0:0|0:0|0:0,0:0:0:0:
256,192,200350,12,2,202350,0:0:0:0:
