osu file format v14

[General]
AudioFilename: 2moro-.mp3
AudioLeadIn: 0
PreviewTime: 50350
Countdown: 0
SampleSet: Soft
StackLeniency: 0.7
Mode: 0
LetterboxInBreaks: 0
WidescreenStoryboard: 0

[Editor]
Bookmarks: 6213,14213,18213,34213,42213,50213,54338,58213,74213,94213,102213,114213,122213,130213,138213,146213,162213,185213,186213,194213
DistanceSpacing: 1.3
BeatDivisor: 4
GridSize: 4
TimelineZoom: 1.1

[Metadata]
Title:Peng You Chu Qu Zou Zou
TitleUnicode:朋友出去走走
Artist:2moro
ArtistUnicode:2moro
Creator:Peachtrees
Version:Hard
Source:
Tags:2 more loves Guo Antony Angus 郭彥均 郭彥甫
BeatmapID:697128
BeatmapSetID:312278

[Difficulty]
HPDrainRate:6
CircleSize:4
OverallDifficulty:6
ApproachRate:7
SliderMultiplier:1.4
SliderTickRate:2

[Events]
//Background and Video events
0,0,"ghghgh.jpg",0,0
//Break Periods
2,82550,89450
2,170550,176350
//Storyboard Layer 0 (Background)
//Storyboard Layer 1 (Fail)
//Storyboard Layer 2 (Pass)
//Storyboard Layer 3 (Foreground)
//Storyboard Sound Samples

[TimingPoints]
2350,500,4,2,1,50,1,0
2725,-100,4,2,1,80,0,0
2975,-100,4,2,1,50,0,0
3725,-100,4,2,1,80,0,0
3975,-100,4,2,1,50,0,0
4725,-100,4,2,1,80,0,0
4975,-100,4,2,1,50,0,0
5725,-100,4,2,1,80,0,0
5975,-100,4,2,1,50,0,0
6725,-100,4,2,1,80,0,0
6975,-100,4,2,1,50,0,0
7725,-100,4,2,1,80,0,0
7975,-100,4,2,1,50,0,0
8725,-100,4,2,1,80,0,0
8975,-100,4,2,1,50,0,0
9725,-100,4,2,1,80,0,0
9975,-100,4,2,1,50,0,0
10725,-100,4,2,1,80,0,0
10975,-100,4,2,1,50,0,0
11725,-100,4,2,1,80,0,0
11975,-100,4,2,1,50,0,0
12725,-100,4,2,1,80,0,0
12975,-100,4,2,1,50,0,0
13725,-100,4,2,1,80,0,0
13975,-100,4,2,1,50,0,0
14725,-100,4,2,1,80,0,0
14975,-100,4,2,1,50,0,0
15725,-100,4,2,1,80,0,0
15975,-100,4,2,1,50,0,0
16725,-100,4,2,2,60,0,0
16975,-100,4,2,1,50,0,0
17725,-100,4,2,1,80,0,0
17975,-100,4,2,1,50,0,0
18725,-100,4,2,1,80,0,0
18975,-100,4,2,1,50,0,0
19725,-100,4,2,1,80,0,0
19975,-100,4,2,1,50,0,0
20725,-100,4,2,1,80,0,0
20975,-100,4,2,1,50,0,0
21725,-100,4,2,1,80,0,0
21975,-100,4,2,1,50,0,0
22725,-100,4,2,1,80,0,0
22975,-100,4,2,1,50,0,0
23725,-100,4,2,1,80,0,0
23975,-100,4,2,1,50,0,0
24725,-100,4,2,1,80,0,0
24975,-100,4,2,1,50,0,0
25725,-100,4,2,1,80,0,0
25975,-100,4,2,1,50,0,0
26725,-100,4,2,1,80,0,0
26975,-100,4,2,1,50,0,0
27725,-100,4,2,1,80,0,0
27975,-100,4,2,1,50,0,0
28725,-100,4,2,1,80,0,0
28975,-100,4,2,1,50,0,0
29725,-100,4,2,1,80,0,0
29975,-100,4,2,1,50,0,0
30725,-100,4,2,1,80,0,0
30975,-100,4,2,1,50,0,0
31725,-100,4,2,1,80,0,0
31975,-100,4,2,1,50,0,0
32725,-100,4,2,1,80,0,0
32975,-100,4,2,1,50,0,0
33725,-100,4,2,1,80,0,0
33975,-100,4,2,1,50,0,0
34725,-100,4,2,1,90,0,0
34975,-100,4,2,1,60,0,0
35725,-100,4,2,1,90,0,0
35975,-100,4,2,1,60,0,0
36725,-100,4,2,1,90,0,0
36975,-100,4,2,1,60,0,0
37725,-100,4,2,1,90,0,0
37975,-100,4,2,1,60,0,0
38725,-100,4,2,1,90,0,0
38975,-100,4,2,1,60,0,0
39725,-100,4,2,1,90,0,0
39975,-100,4,2,1,60,0,0
40725,-100,4,2,1,90,0,0
40975,-100,4,2,1,60,0,0
41725,-100,4,2,1,90,0,0
41975,-100,4,2,1,60,0,0
42725,-100,4,2,1,90,0,0
42975,-100,4,2,1,60,0,0
43725,-100,4,2,1,90,0,0
43975,-100,4,2,1,60,0,0
44725,-100,4,2,1,90,0,0
44975,-100,4,2,1,60,0,0
45725,-100,4,2,1,90,0,0
45975,-100,4,2,1,60,0,0
46725,-100,4,2,1,90,0,0
46975,-100,4,2,1,60,0,0
47725,-100,4,2,1,90,0,0
47975,-100,4,2,1,60,0,0
48725,-100,4,2,2,70,0,0
48975,-100,4,2,1,60,0,0
49725,-100,4,2,1,90,0,0
49975,-100,4,2,1,60,0,0
50350,-100,4,2,1,70,0,1
50725,-100,4,2,1,100,0,1
50975,-100,4,2,1,70,0,1
51725,-100,4,2,1,100,0,1
51975,-100,4,2,1,70,0,1
52725,-100,4,2,1,100,0,1
52975,-100,4,2,1,70,0,1
53725,-100,4,2,1,100,0,1
53975,-100,4,2,1,70,0,1
54725,-100,4,2,1,100,0,1
54975,-100,4,2,1,70,0,1
55725,-100,4,2,1,100,0,1
55975,-100,4,2,1,70,0,1
56725,-100,4,2,1,100,0,1
56975,-100,4,2,1,70,0,1
57725,-100,4,2,1,100,0,1
57975,-100,4,2,1,70,0,1
58725,-100,4,2,1,70,0,1
58975,-100,4,2,1,70,0,1
59725,-100,4,2,1,100,0,1
59975,-100,4,2,1,70,0,1
60725,-100,4,2,1,100,0,1
60975,-100,4,2,1,70,0,1
61725,-100,4,2,1,100,0,1
61975,-100,4,2,1,70,0,1
62725,-100,4,2,1,100,0,1
62975,-100,4,2,1,70,0,1
63725,-100,4,2,1,100,0,1
63975,-100,4,2,1,70,0,1
64725,-100,4,2,1,100,0,1
64975,-100,4,2,1,70,0,1
65725,-100,4,2,1,100,0,1
65975,-100,4,2,1,70,0,1
66725,-100,4,2,1,100,0,1
66975,-100,4,2,1,70,0,1
67725,-100,4,2,1,100,0,1
67975,-100,4,2,1,70,0,1
68725,-100,4,2,1,100,0,1
68975,-100,4,2,1,70,0,1
69725,-100,4,2,1,100,0,1
69975,-100,4,2,1,70,0,1
70725,-100,4,2,1,100,0,1
70975,-100,4,2,1,70,0,1
71725,-100,4,2,1,100,0,1
71975,-100,4,2,1,70,0,1
72725,-100,4,2,1,100,0,1
72975,-100,4,2,1,70,0,1
73725,-100,4,2,1,100,0,1
73975,-100,4,2,1,70,0,1
74725,-100,4,2,1,100,0,1
74975,-100,4,2,1,70,0,1
75725,-100,4,2,1,100,0,1
75975,-100,4,2,1,70,0,1
76725,-100,4,2,1,100,0,1
76975,-100,4,2,1,70,0,1
77725,-100,4,2,1,100,0,1
77975,-100,4,2,1,70,0,1
78725,-100,4,2,1,100,0,1
78975,-100,4,2,1,70,0,1
79725,-100,4,2,2,80,0,1
79975,-100,4,2,1,70,0,1
80350,-100,4,2,1,50,0,0
90725,-100,4,2,1,80,0,0
90975,-100,4,2,1,50,0,0
91725,-100,4,2,1,80,0,0
91975,-100,4,2,1,50,0,0
92725,-100,4,2,1,80,0,0
92975,-100,4,2,1,50,0,0
93725,-100,4,2,1,80,0,0
93975,-100,4,2,1,50,0,0
94725,-100,4,2,1,80,0,0
94975,-100,4,2,1,50,0,0
95725,-100,4,2,1,80,0,0
95975,-100,4,2,1,50,0,0
96725,-100,4,2,1,80,0,0
96975,-100,4,2,1,50,0,0
97725,-100,4,2,1,80,0,0
97975,-100,4,2,1,50,0,0
98725,-100,4,2,1,80,0,0
98975,-100,4,2,1,50,0,0
99725,-100,4,2,1,80,0,0
99975,-100,4,2,1,50,0,0
100725,-100,4,2,1,80,0,0
100975,-100,4,2,1,50,0,0
101725,-100,4,2,1,80,0,0
101975,-100,4,2,1,50,0,0
102725,-100,4,2,1,80,0,0
102975,-100,4,2,1,50,0,0
103725,-100,4,2,1,80,0,0
103975,-100,4,2,1,50,0,0
104725,-100,4,2,2,60,0,0
104975,-100,4,2,1,50,0,0
105725,-100,4,2,1,80,0,0
105975,-100,4,2,1,50,0,0
106725,-100,4,2,1,80,0,0
106975,-100,4,2,1,50,0,0
107725,-100,4,2,1,80,0,0
107975,-100,4,2,1,50,0,0
108725,-100,4,2,1,80,0,0
108975,-100,4,2,1,50,0,0
109725,-100,4,2,1,80,0,0
109975,-100,4,2,1,50,0,0
110725,-100,4,2,1,80,0,0
110975,-100,4,2,1,50,0,0
111725,-100,4,2,1,80,0,0
111975,-100,4,2,1,50,0,0
112725,-100,4,2,1,80,0,0
112975,-100,4,2,1,50,0,0
113725,-100,4,2,1,80,0,0
113975,-100,4,2,1,50,0,0
114725,-100,4,2,1,80,0,0
114975,-100,4,2,1,50,0,0
115725,-100,4,2,1,80,0,0
115975,-100,4,2,1,50,0,0
116725,-100,4,2,1,80,0,0
116975,-100,4,2,1,50,0,0
117725,-100,4,2,1,80,0,0
117975,-100,4,2,1,50,0,0
118725,-100,4,2,1,80,0,0
118975,-100,4,2,1,50,0,0
119725,-100,4,2,1,80,0,0
119975,-100,4,2,1,50,0,0
120725,-100,4,2,1,80,0,0
120975,-100,4,2,1,50,0,0
121725,-100,4,2,1,80,0,0
121975,-100,4,2,1,50,0,0
122725,-100,4,2,1,90,0,0
122975,-100,4,2,1,60,0,0
123725,-100,4,2,1,90,0,0
123975,-100,4,2,1,60,0,0
124725,-100,4,2,1,90,0,0
124975,-100,4,2,1,60,0,0
125725,-100,4,2,1,90,0,0
125975,-100,4,2,1,60,0,0
126725,-100,4,2,1,90,0,0
126975,-100,4,2,1,60,0,0
127725,-100,4,2,1,60,0,0
127975,-100,4,2,1,60,0,0
128725,-100,4,2,1,90,0,0
128975,-100,4,2,1,60,0,0
129725,-100,4,2,1,90,0,0
129975,-100,4,2,1,60,0,0
130725,-100,4,2,1,90,0,0
130975,-100,4,2,1,60,0,0
131725,-100,4,2,1,90,0,0
131975,-100,4,2,1,60,0,0
132725,-100,4,2,2,70,0,0
132975,-100,4,2,1,60,0,0
133725,-100,4,2,1,90,0,0
133975,-100,4,2,1,60,0,0
134725,-100,4,2,1,90,0,0
134975,-100,4,2,1,60,0,0
135725,-100,4,2,1,90,0,0
135975,-100,4,2,1,60,0,0
136725,-100,4,2,2,70,0,0
136975,-100,4,2,1,60,0,0
137725,-100,4,2,1,90,0,0
137975,-100,4,2,1,60,0,0
138350,-100,4,2,1,70,0,1
138725,-100,4,2,1,100,0,1
138975,-100,4,2,1,70,0,1
139725,-100,4,2,1,100,0,1
139975,-100,4,2,1,70,0,1
140725,-100,4,2,1,100,0,1
140975,-100,4,2,1,70,0,1
141725,-100,4,2,1,100,0,1
141975,-100,4,2,1,70,0,1
142725,-100,4,2,1,100,0,1
142975,-100,4,2,1,70,0,1
143725,-100,4,2,1,100,0,1
143975,-100,4,2,1,70,0,1
144725,-100,4,2,1,100,0,1
144975,-100,4,2,1,70,0,1
145725,-100,4,2,1,100,0,1
145975,-100,4,2,1,70,0,1
146725,-100,4,2,1,100,0,1
146975,-100,4,2,1,70,0,1
147725,-100,4,2,1,100,0,1
147975,-100,4,2,1,70,0,1
148725,-100,4,2,1,100,0,1
148975,-100,4,2,1,70,0,1
149725,-100,4,2,1,100,0,1
149975,-100,4,2,1,70,0,1
150725,-100,4,2,1,100,0,1
150975,-100,4,2,1,70,0,1
151725,-100,4,2,1,100,0,1
151975,-100,4,2,1,70,0,1
152725,-100,4,2,1,100,0,1
152975,-100,4,2,1,70,0,1
153725,-100,4,2,1,100,0,1
153975,-100,4,2,1,70,0,1
154725,-100,4,2,1,100,0,1
154975,-100,4,2,1,70,0,1
155725,-100,4,2,1,100,0,1
155975,-100,4,2,1,70,0,1
156725,-100,4,2,1,100,0,1
156975,-100,4,2,1,70,0,1
157725,-100,4,2,1,100,0,1
157975,-100,4,2,1,70,0,1
158725,-100,4,2,1,100,0,1
158975,-100,4,2,1,70,0,1
159725,-100,4,2,1,100,0,1
159975,-100,4,2,1,70,0,1
160725,-100,4,2,1,100,0,1
160975,-100,4,2,1,70,0,1
161725,-100,4,2,1,100,0,1
161975,-100,4,2,1,70,0,1
162725,-100,4,2,1,100,0,1
162975,-100,4,2,1,70,0,1
163725,-100,4,2,1,100,0,1
163975,-100,4,2,1,70,0,1
164725,-100,4,2,1,100,0,1
164975,-100,4,2,1,70,0,1
165725,-100,4,2,1,100,0,1
165975,-100,4,2,1,70,0,1
166725,-100,4,2,1,100,0,1
166975,-100,4,2,1,70,0,1
167725,-100,4,2,2,80,0,1
167975,-100,4,2,1,70,0,1
168350,-100,4,2,1,70,0,0
178350,-100,4,2,1,70,0,1
178725,-100,4,2,1,100,0,1
178975,-100,4,2,1,70,0,1
179725,-100,4,2,1,100,0,1
179975,-100,4,2,1,70,0,1
180725,-100,4,2,1,100,0,1
180975,-100,4,2,1,70,0,1
181725,-100,4,2,1,100,0,1
181975,-100,4,2,1,70,0,1
182725,-100,4,2,1,100,0,1
182975,-100,4,2,1,70,0,1
183725,-100,4,2,1,100,0,1
183975,-100,4,2,1,70,0,1
184725,-100,4,2,1,100,0,1
184975,-100,4,2,1,70,0,1
185725,-100,4,2,1,100,0,1
185975,-100,4,2,1,70,0,1
186725,-100,4,2,1,100,0,1
186975,-100,4,2,1,70,0,1
187725,-100,4,2,1,100,0,1
187975,-100,4,2,1,70,0,1
188725,-100,4,2,1,100,0,1
188975,-100,4,2,1,70,0,1
189725,-100,4,2,1,100,0,1
189975,-100,4,2,1,70,0,1
190725,-100,4,2,1,100,0,1
190975,-100,4,2,1,70,0,1
191725,-100,4,2,1,100,0,1
191975,-100,4,2,1,70,0,1
192725,-100,4,2,1,100,0,1
192975,-100,4,2,1,70,0,1
193725,-100,4,2,1,100,0,1
193975,-100,4,2,1,70,0,1
194725,-100,4,2,1,100,0,1
194975,-100,4,2,1,70,0,1
195725,-100,4,2,1,100,0,1
195975,-100,4,2,1,70,0,1
196725,-100,4,2,1,100,0,1
196975,-100,4,2,1,70,0,1
197725,-100,4,2,1,100,0,1
197975,-100,4,2,1,70,0,1
198725,-100,4,2,1,100,0,1
198975,-100,4,2,1,70,0,1
199725,-100,4,2,2,80,0,1
199975,-100,4,2,1,70,0,1
200350,-100,4,2,1,40,0,0

[Colours]
Combo1 : 210,218,78
Combo2 : 128,128,255
Combo3 : 29,172,188
Combo4 : 255,128,128

[HitObjects]
47,110,2350,6,0,P|111:74|182:77,1,140,4|8,0:0|0:0,0:0:0:0:
253,122,3100,1,0,0:0:0:0:
221,207,3350,2,0,P|177:231|143:229,2,70,2|0|8,0:0|0:0|0:0,0:0:0:0:
253,122,4100,1,0,0:0:0:0:
253,122,4350,2,0,P|294:152|295:261,1,140,2|8,0:0|0:0,0:0:0:0:
225,273,5100,2,0,P|184:243|183:134,1,140,2|2,0:0|0:0,0:0:0:0:
253,122,5850,2,0,L|323:104,1,70,8|8,0:0|0:0,0:0:0:0:
329,59,6225,1,8,0:0:0:0:
333,14,6350,6,0,L|186:51,1,140,2|8,0:0|0:0,0:0:0:0:
132,112,7100,1,0,0:0:0:0:
42,129,7350,2,0,P|42:91|58:57,2,70,2|0|8,0:0|0:0|0:0,0:0:0:0:
96,201,8100,1,0,0:0:0:0:
182,230,8350,2,0,L|265:211,2,70,2|0|8,0:0|0:0|0:0,0:0:0:0:
229,308,9100,2,0,B|292:293|292:293|334:267|334:224,1,140,2|2,0:0|0:0,0:0:0:0:
424,245,9850,2,0,P|421:210|406:179,1,70,8|8,0:0|0:0,0:0:0:0:
323,140,10350,6,0,L|180:129,1,140,4|8,0:0|0:0,0:0:0:0:
99,92,11100,1,0,0:0:0:0:
178,48,11350,2,0,L|255:53,2,70,2|0|8,0:0|0:0|0:0,0:0:0:0:
99,92,12100,1,0,0:0:0:0:
95,182,12350,2,0,P|116:234|206:273,1,140,2|8,0:0|0:0,0:0:0:0:
275,252,13100,1,0,0:0:0:0:
323,175,13350,2,0,P|274:161|240:168,2,70,2|0|8,0:0|0:0|0:0,0:0:0:0:
391,235,14100,1,8,0:0:0:0:
410,193,14225,1,8,0:0:0:0:
408,147,14350,6,0,P|381:113|288:78,1,140,2|8,0:0|0:0,0:0:0:0:
202,85,15100,1,0,0:0:0:0:
145,156,15350,2,0,P|148:199|135:239,2,70,2|0|8,0:0|0:0|0:0,0:0:0:0:
113,70,16100,1,0,0:0:0:0:
53,138,16350,2,0,P|45:177|70:271,2,105,2|0|2,0:0|0:0|0:0,0:0:0:0:
209,44,17600,1,2,0:0:0:0:
209,44,17850,2,0,L|284:44,1,70,8|8,0:0|0:0,0:0:0:0:
322,58,18225,1,8,0:0:0:0:
350,94,18350,6,0,P|349:145|286:215,1,140,4|8,0:0|0:0,0:0:0:0:
229,147,19100,2,0,P|180:195|173:264,1,140,2|0,0:0|0:0,0:0:0:0:
259,294,19850,2,0,L|336:293,1,70,8|0,0:0|0:0,0:0:0:0:
416,317,20350,2,0,P|395:356|364:376,2,70,2|0|8,0:0|0:0|0:0,0:0:0:0:
413,226,21100,2,0,P|354:189|286:194,1,140,2|0,0:0|0:0,0:0:0:0:
204,234,21850,1,8,0:0:0:0:
113,239,22100,1,0,0:0:0:0:
30,201,22350,6,0,L|37:120,1,70,2|0,0:0|0:0,0:0:0:0:
120,169,22850,2,0,L|113:238,1,70,8|0,0:0|0:0,0:0:0:0:
137,326,23350,2,0,P|211:328|259:282,1,140,2|8,0:0|0:0,0:0:0:0:
256,194,24100,1,0,0:0:0:0:
257,285,24350,2,0,P|308:329|377:325,1,140,2|8,0:0|0:0,0:0:0:0:
455,278,25100,1,2,0:0:0:0:
354,128,25600,1,2,0:0:0:0:
264,141,25850,1,8,0:0:0:0:
206,210,26100,1,8,0:0:0:0:
206,210,26225,1,8,0:0:0:0:
206,210,26350,6,0,P|198:265|183:289,2,70,2|0|8,0:0|0:0|0:0,0:0:0:0:
146,141,27100,1,0,0:0:0:0:
86,210,27350,2,0,P|94:265|109:289,1,70,2|0,0:0|0:0,0:0:0:0:
191,277,27850,2,0,P|204:244|205:209,1,70,8|0,0:0|0:0,0:0:0:0:
146,141,28350,2,0,P|223:121|277:152,1,140,2|8,0:0|0:0,0:0:0:0:
364,139,29100,2,0,L|337:291,1,140,2|2,0:0|0:0,0:0:0:0:
267,332,29850,1,8,0:0:0:0:
176,339,30100,1,0,0:0:0:0:
91,304,30350,6,0,P|81:251|84:226,1,70,2|0,0:0|0:0,0:0:0:0:
165,198,30850,2,0,P|175:145|172:120,1,70,8|0,0:0|0:0,0:0:0:0:
122,54,31350,2,0,P|201:42|253:86,1,140,2|8,0:0|0:0,0:0:0:0:
309,141,32100,1,0,0:0:0:0:
309,141,32350,2,0,P|368:130|413:55,2,140,2|8|2,0:0|0:0|0:0,0:0:0:0:
137,81,33850,2,0,L|91:157,1,70,8|8,0:0|0:0,0:0:0:0:
77,179,34225,1,8,0:0:0:0:
52,217,34350,6,0,P|89:246|185:232,1,140,2|8,0:0|0:0,0:0:0:0:
252,186,35100,1,0,0:0:0:0:
253,276,35350,2,0,P|223:313|192:324,2,70,2|0|8,0:0|0:0|0:0,0:0:0:0:
252,186,36100,1,0,0:0:0:0:
177,133,36350,2,0,P|116:145|67:232,1,140,2|8,0:0|0:0,0:0:0:0:
113,284,37100,2,0,L|260:275,1,140,2|2,0:0|0:0,0:0:0:0:
322,217,37850,1,8,0:0:0:0:
334,126,38100,1,0,0:0:0:0:
286,55,38350,6,0,L|205:60,2,70,2|0|8,0:0|0:0|0:0,0:0:0:0:
334,126,39100,1,0,0:0:0:0:
250,161,39350,2,0,L|169:166,2,70,2|0|8,0:0|0:0|0:0,0:0:0:0:
322,217,40100,1,0,0:0:0:0:
249,272,40350,2,0,B|197:275|197:275|139:280|110:246,1,140,2|8,0:0|0:0,0:0:0:0:
95,162,41100,2,0,B|147:159|147:159|205:154|234:188,1,140,2|2,0:0|0:0,0:0:0:0:
249,272,41850,1,8,0:0:0:0:
331,309,42100,1,8,0:0:0:0:
376,311,42225,1,8,0:0:0:0:
418,293,42350,6,0,P|441:246|416:155,1,140,2|8,0:0|0:0,0:0:0:0:
333,179,43100,2,0,P|309:243|331:309,1,140,2|0,0:0|0:0,0:0:0:0:
416,339,43850,1,8,0:0:0:0:
492,289,44100,1,0,0:0:0:0:
495,198,44350,2,0,L|486:118,1,70,2|0,0:0|0:0,0:0:0:0:
401,95,44850,2,0,L|408:164,1,70,8|0,0:0|0:0,0:0:0:0:
329,209,45350,2,0,L|320:129,1,70,2|0,0:0|0:0,0:0:0:0:
235,108,45850,2,0,L|242:177,1,70,8|0,0:0|0:0,0:0:0:0:
178,242,46350,6,0,P|152:246|97:227,2,70,2|0|8,0:0|0:0|0:0,0:0:0:0:
242,177,47100,1,0,0:0:0:0:
178,111,47350,2,0,P|144:100|110:104,2,70,2|0|8,0:0|0:0|0:0,0:0:0:0:
242,177,48100,1,0,0:0:0:0:
304,111,48350,2,0,P|365:105|416:135,2,105,2|2|2,0:0|0:0|0:0,0:0:0:0:
222,273,49600,2,0,L|267:325,1,70,2|8,0:0|0:0,0:0:0:0:
358,337,50100,1,8,0:0:0:0:
400,321,50225,1,8,0:0:0:0:
438,296,50350,6,0,P|470:232|446:154,2,140,4|8|2,0:0|0:0|0:0,0:0:0:0:
358,337,51600,1,0,0:0:0:0:
267,342,51850,1,8,0:0:0:0:
189,293,52100,1,0,0:0:0:0:
176,202,52350,2,0,P|190:158|214:130,1,70,2|0,0:0|0:0,0:0:0:0:
295,139,52850,1,8,0:0:0:0:
295,139,53100,2,0,P|291:206|228:276,1,140,2|2,0:0|0:0,0:0:0:0:
174,316,53850,2,0,L|105:303,1,70,8|0,0:0|0:0,0:0:0:0:
28,254,54350,6,0,P|15:281|27:348,2,70,2|0|8,0:0|0:0|0:0,0:0:0:0:
111,217,55100,2,0,L|252:242,1,140,2|2,0:0|0:0,0:0:0:0:
338,224,55850,1,8,0:0:0:0:
391,150,56100,1,0,0:0:0:0:
376,60,56350,2,0,P|345:46|290:51,2,70,2|2|8,0:0|0:0|0:0,0:0:0:0:
391,150,57100,2,0,L|364:305,1,140,2|2,0:0|0:0,0:0:0:0:
282,323,57850,2,0,L|268:242,1,70,8|8,0:0|0:0,0:0:0:0:
228,234,58225,1,8,0:0:0:0:
183,243,58350,6,0,L|196:325,2,70,4|0|8,0:0|0:0|0:0,0:0:0:0:
208,155,59100,2,0,P|273:167|309:237,1,140,2|2,0:0|0:0,0:0:0:0:
299,317,59850,1,8,0:0:0:0:
226,371,60100,1,0,0:0:0:0:
135,359,60350,2,0,L|48:350,2,70,2|0|8,0:0|0:0|0:0,0:0:0:0:
179,279,61100,2,0,L|24:261,1,140,2|2,0:0|0:0,0:0:0:0:
17,174,61850,2,0,P|43:141|86:124,1,70,8|0,0:0|0:0,0:0:0:0:
157,139,62350,5,2,0:0:0:0:
211,211,62600,1,0,0:0:0:0:
296,241,62850,1,8,0:0:0:0:
382,211,63100,1,0,0:0:0:0:
438,139,63350,2,0,P|444:103|436:70,2,70,2|2|8,0:0|0:0|0:0,0:0:0:0:
382,211,64100,1,0,0:0:0:0:
382,211,64350,2,0,P|374:260|415:343,1,140,2|8,0:0|0:0,0:0:0:0:
501,354,65100,1,2,0:0:0:0:
411,339,65350,2,0,B|376:331|376:331|307:342|307:342|265:332,1,140,2|8,0:0|0:0,0:0:0:0:
94,341,66350,6,0,P|88:292|150:209,2,140,4|8|2,0:0|0:0|0:0,0:0:0:0:
180,372,67600,1,0,0:0:0:0:
266,344,67850,1,8,0:0:0:0:
297,258,68100,1,0,0:0:0:0:
264,173,68350,2,0,L|192:160,2,70,2|0|8,0:0|0:0|0:0,0:0:0:0:
318,99,69100,2,0,L|172:71,1,140,2|2,0:0|0:0,0:0:0:0:
92,95,69850,1,8,0:0:0:0:
48,174,70100,1,0,0:0:0:0:
69,262,70350,6,0,P|99:280|151:283,2,70,2|0|8,0:0|0:0|0:0,0:0:0:0:
48,174,71100,2,0,L|13:318,1,140,2|2,0:0|0:0,0:0:0:0:
89,361,71850,1,8,0:0:0:0:
179,362,72100,1,0,0:0:0:0:
256,314,72350,2,0,L|238:238,2,70,2|2|8,0:0|0:0|0:0,0:0:0:0:
344,335,73100,2,0,L|314:198,1,140,2|2,0:0|0:0,0:0:0:0:
279,114,73850,1,8,0:0:0:0:
188,119,74100,1,8,0:0:0:0:
158,153,74225,1,8,0:0:0:0:
149,197,74350,6,0,P|167:226|197:245,2,70,4|0|8,0:0|0:0|0:0,0:0:0:0:
72,147,75100,2,0,P|66:193|119:285,1,140,2|2,0:0|0:0,0:0:0:0:
193,302,75850,1,8,0:0:0:0:
282,288,76100,1,0,0:0:0:0:
343,220,76350,2,0,P|345:182|329:143,2,70,2|0|8,0:0|0:0|0:0,0:0:0:0:
282,288,77100,2,0,P|242:230|244:152,1,140,2|2,0:0|0:0,0:0:0:0:
299,92,77850,1,8,0:0:0:0:
388,80,78100,1,0,0:0:0:0:
471,117,78350,6,0,L|486:184,2,70,2|0|8,0:0|0:0|0:0,0:0:0:0:
388,80,79100,1,0,0:0:0:0:
299,92,79350,2,0,P|258:111|228:183,2,105,2|2|2,0:0|0:0|0:0,0:0:0:0:
256,192,80350,12,4,82350,0:0:0:0:
179,336,90350,6,0,P|194:270|164:204,1,140,4|8,0:0|0:0,0:0:0:0:
79,174,91100,1,0,0:0:0:0:
79,174,91350,2,0,P|74:220|95:264,2,70,2|0|8,0:0|0:0|0:0,0:0:0:0:
109,89,92100,1,0,0:0:0:0:
182,142,92350,2,0,P|233:147|311:84,1,140,2|8,0:0|0:0,0:0:0:0:
389,67,93100,2,0,P|386:124|326:195,1,140,2|2,0:0|0:0,0:0:0:0:
288,265,93850,2,0,P|308:303|334:319,1,70,8|8,0:0|0:0,0:0:0:0:
373,331,94225,1,8,0:0:0:0:
416,317,94350,6,0,P|463:259|461:186,1,140,2|8,0:0|0:0,0:0:0:0:
403,129,95100,1,0,0:0:0:0:
316,101,95350,2,0,P|348:55|365:46,2,70,2|0|8,0:0|0:0|0:0,0:0:0:0:
334,190,96100,1,0,0:0:0:0:
334,190,96350,2,0,L|192:179,1,140,2|8,0:0|0:0,0:0:0:0:
111,140,97100,2,0,P|104:192|155:263,1,140,2|0,0:0|0:0,0:0:0:0:
242,272,97850,2,0,L|340:280,1,70,8|8,0:0|0:0,0:0:0:0:
334,190,98350,6,0,L|194:179,1,140,4|8,0:0|0:0,0:0:0:0:
111,140,99100,1,0,0:0:0:0:
66,60,99350,2,0,P|117:48|150:57,2,70,2|0|8,0:0|0:0|0:0,0:0:0:0:
6,129,100100,1,0,0:0:0:0:
6,129,100350,2,0,L|24:271,1,140,2|8,0:0|0:0,0:0:0:0:
93,325,101100,2,0,P|164:306|210:247,1,140,2|2,0:0|0:0,0:0:0:0:
205,166,101850,1,8,0:0:0:0:
129,115,102100,1,8,0:0:0:0:
129,115,102225,1,8,0:0:0:0:
129,115,102350,6,0,P|58:134|12:193,2,140,2|8|2,0:0|0:0|0:0,0:0:0:0:
205,166,103600,1,0,0:0:0:0:
291,139,103850,2,0,P|323:112|334:79,1,70,8|0,0:0|0:0,0:0:0:0:
261,29,104350,2,0,L|143:24,2,105,2|2|2,0:0|0:0|0:0,0:0:0:0:
426,106,105600,1,2,0:0:0:0:
396,192,105850,2,8,L|393:269,1,70,8|8,0:0|0:0,0:0:0:0:
371,302,106225,1,8,0:0:0:0:
332,326,106350,6,0,P|270:321|214:256,1,140,4|8,0:0|0:0,0:0:0:0:
245,180,107100,2,0,P|183:185|127:250,1,140,2|0,0:0|0:0,0:0:0:0:
39,237,107850,2,0,P|59:182|81:159,1,70,8|0,0:0|0:0,0:0:0:0:
133,112,108350,2,0,P|124:78|106:48,2,70,2|0|8,0:0|0:0|0:0,0:0:0:0:
221,90,109100,2,0,L|372:95,1,140,2|2,0:0|0:0,0:0:0:0:
442,136,109850,2,0,P|437:172|401:211,1,70,8|0,0:0|0:0,0:0:0:0:
345,254,110350,6,0,P|328:217|328:180,2,70,2|0|8,0:0|0:0|0:0,0:0:0:0:
421,303,111100,1,0,0:0:0:0:
484,238,111350,2,0,P|488:192|444:90,1,140,2|8,0:0|0:0,0:0:0:0:
379,56,112100,1,0,0:0:0:0:
379,56,112350,2,0,P|317:88|276:144,1,140,2|8,0:0|0:0,0:0:0:0:
268,235,113100,1,0,0:0:0:0:
316,311,113350,2,0,P|276:326|232:316,1,70,2|0,0:0|0:0,0:0:0:0:
180,263,113850,2,0,P|140:248|96:258,1,70,8|8,0:0|0:0,0:0:0:0:
84,285,114225,1,8,0:0:0:0:
56,321,114350,6,0,L|56:171,1,140,2|8,0:0|0:0,0:0:0:0:
106,105,115100,1,0,0:0:0:0:
187,145,115350,2,0,P|224:160|266:156,1,70,2|0,0:0|0:0,0:0:0:0:
321,98,115850,2,0,P|355:98|387:112,1,70,8|0,0:0|0:0,0:0:0:0:
447,181,116350,2,0,L|413:323,1,140,2|8,0:0|0:0,0:0:0:0:
326,341,117100,2,0,L|293:204,1,140,2|2,0:0|0:0,0:0:0:0:
222,147,117850,1,8,0:0:0:0:
131,138,118100,1,0,0:0:0:0:
48,175,118350,6,0,P|56:221|74:249,1,70,2|0,0:0|0:0,0:0:0:0:
148,283,118850,1,8,0:0:0:0:
238,276,119100,1,0,0:0:0:0:
300,210,119350,2,0,P|321:143|300:77,1,140,2|8,0:0|0:0,0:0:0:0:
209,78,120100,1,0,0:0:0:0:
209,78,120350,2,0,P|190:144|209:210,2,140,2|8|2,0:0|0:0|0:0,0:0:0:0:
388,106,121850,2,0,L|424:192,1,70,8|8,0:0|0:0,0:0:0:0:
432,212,122225,1,8,0:0:0:0:
449,254,122350,6,0,P|392:293|325:280,1,140,2|8,0:0|0:0,0:0:0:0:
250,228,123100,1,0,0:0:0:0:
259,137,123350,2,0,L|268:54,2,70,2|0|8,0:0|0:0|0:0,0:0:0:0:
250,228,124100,1,0,0:0:0:0:
239,318,124350,2,0,P|171:333|105:301,1,140,2|8,0:0|0:0,0:0:0:0:
48,237,125100,2,0,P|99:191|167:186,1,140,2|2,0:0|0:0,0:0:0:0:
250,228,125850,1,8,0:0:0:0:
332,189,126100,1,0,0:0:0:0:
346,99,126350,6,0,L|335:28,2,70,2|0|8,0:0|0:0|0:0,0:0:0:0:
332,189,127100,1,0,0:0:0:0:
250,228,127350,2,0,P|208:224|167:197,2,70,2|0|8,0:0|0:0|0:0,0:0:0:0:
332,189,128100,1,0,0:0:0:0:
332,189,128350,2,0,P|339:242|268:319,1,140,2|8,0:0|0:0,0:0:0:0:
205,340,129100,2,0,L|64:321,1,140,2|0,0:0|0:0,0:0:0:0:
9,249,129850,1,8,0:0:0:0:
28,160,130100,1,8,0:0:0:0:
63,131,130225,1,8,0:0:0:0:
108,127,130350,6,0,P|149:132|230:72,1,140,2|8,0:0|0:0,0:0:0:0:
295,141,131100,2,0,P|248:191|246:259,1,140,2|2,0:0|0:0,0:0:0:0:
302,332,131850,1,8,0:0:0:0:
391,346,132100,1,0,0:0:0:0:
466,295,132350,1,2,0:0:0:0:
466,295,132600,2,0,L|482:142,1,140
436,76,133350,2,0,P|405:102|392:136,1,70,2|0,0:0|0:0,0:0:0:0:
350,209,133850,2,0,P|322:187|307:156,1,70,8|0,0:0|0:0,0:0:0:0:
234,101,134350,6,0,L|139:91,1,70,2|0,0:0|0:0,0:0:0:0:
121,173,134850,2,0,L|190:180,1,70,8|0,0:0|0:0,0:0:0:0:
230,262,135350,2,0,P|197:325|118:349,1,140,2|8,0:0|0:0,0:0:0:0:
56,304,136100,1,0,0:0:0:0:
56,304,136350,2,0,L|34:192,2,105,2|2|2,0:0|0:0|0:0,0:0:0:0:
233,341,137600,2,0,P|270:323|315:324,1,70,0|8,0:0|0:0,0:0:0:0:
388,335,138100,1,8,0:0:0:0:
433,334,138225,1,8,0:0:0:0:
473,313,138350,6,0,P|495:262|466:165,2,140,4|8|2,0:0|0:0|0:0,0:0:0:0:
388,335,139600,1,0,0:0:0:0:
298,317,139850,1,8,0:0:0:0:
248,240,140100,1,0,0:0:0:0:
254,149,140350,2,0,P|286:124|328:118,2,70,2|0|8,0:0|0:0|0:0,0:0:0:0:
248,240,141100,2,0,P|184:209|165:131,1,140,2|2,0:0|0:0,0:0:0:0:
188,59,141850,1,8,0:0:0:0:
272,24,142100,1,0,0:0:0:0:
360,43,142350,6,0,P|379:65|389:109,2,70,2|0|8,0:0|0:0|0:0,0:0:0:0:
272,24,143100,2,0,L|264:167,1,140,2|2,0:0|0:0,0:0:0:0:
207,235,143850,1,8,0:0:0:0:
118,254,144100,1,0,0:0:0:0:
40,206,144350,2,0,L|35:117,2,70,2|2|8,0:0|0:0|0:0,0:0:0:0:
118,254,145100,2,0,L|111:107,1,140,2|2,0:0|0:0,0:0:0:0:
181,55,145850,1,8,0:0:0:0:
271,61,146100,1,8,0:0:0:0:
310,83,146225,1,8,0:0:0:0:
330,123,146350,6,0,P|328:156|312:187,2,70,4|0|8,0:0|0:0|0:0,0:0:0:0:
390,55,147100,2,0,P|416:115|395:206,1,140,2|2,0:0|0:0,0:0:0:0:
357,264,147850,1,8,0:0:0:0:
267,279,148100,1,0,0:0:0:0:
188,233,148350,2,0,P|183:171|194:145,2,70,2|0|8,0:0|0:0|0:0,0:0:0:0:
267,279,149100,2,0,P|293:225|283:139,1,140,2|2,0:0|0:0,0:0:0:0:
231,74,149850,2,0,L|143:70,1,70,8|0,0:0|0:0,0:0:0:0:
76,104,150350,5,2,0:0:0:0:
42,188,150600,1,0,0:0:0:0:
81,270,150850,1,8,0:0:0:0:
168,293,151100,1,0,0:0:0:0:
241,240,151350,2,0,L|239:154,2,70,2|2|8,0:0|0:0|0:0,0:0:0:0:
315,292,152100,1,2,0:0:0:0:
315,292,152350,2,0,P|376:277|419:192,1,140,2|8,0:0|0:0,0:0:0:0:
406,125,153100,1,2,0:0:0:0:
327,79,153350,2,0,L|175:81,1,140,2|8,0:0|0:0,0:0:0:0:
60,213,154350,6,0,P|108:257|192:267,2,140,4|8|2,0:0|0:0|0:0,0:0:0:0:
39,124,155600,1,0,0:0:0:0:
76,40,155850,1,8,0:0:0:0:
165,22,156100,1,0,0:0:0:0:
246,63,156350,2,0,P|262:93|264:128,2,70,2|0|8,0:0|0:0|0:0,0:0:0:0:
176,121,157100,2,0,L|326:146,1,140,2|2,0:0|0:0,0:0:0:0:
400,114,157850,2,0,P|406:152|396:184,1,70,8|0,0:0|0:0,0:0:0:0:
322,233,158350,6,0,L|252:221,2,70,2|0|8,0:0|0:0|0:0,0:0:0:0:
342,321,159100,2,0,L|199:296,1,140,2|0,0:0|0:0,0:0:0:0:
151,222,159850,2,0,P|125:245|114:278,1,70,8|0,0:0|0:0,0:0:0:0:
24,296,160350,2,0,P|36:330|61:352,2,70,2|2|8,0:0|0:0|0:0,0:0:0:0:
76,221,161100,2,0,L|222:223,1,140,2|2,0:0|0:0,0:0:0:0:
300,187,161850,1,8,0:0:0:0:
336,103,162100,1,8,0:0:0:0:
317,61,162225,1,8,0:0:0:0:
291,23,162350,6,0,P|257:21|201:38,2,70,4|0|8,0:0|0:0|0:0,0:0:0:0:
336,103,163100,2,0,L|307:269,1,140,2|0,0:0|0:0,0:0:0:0:
379,302,163850,2,0,P|397:272|402:238,1,70,8|0,0:0|0:0,0:0:0:0:
471,178,164350,2,0,P|488:207|493:242,2,70,2|0|8,0:0|0:0|0:0,0:0:0:0:
473,87,165100,2,0,P|426:101|379:184,1,140,2|0,0:0|0:0,0:0:0:0:
338,256,165850,1,8,0:0:0:0:
252,285,166100,1,0,0:0:0:0:
167,251,166350,6,0,L|168:181,2,70,2|0|8,0:0|0:0|0:0,0:0:0:0:
252,285,167100,1,0,0:0:0:0:
338,256,167350,2,0,L|340:143,2,105,2|2|2,0:0|0:0|0:0,0:0:0:0:
256,192,168350,12,0,170350,0:0:0:0:
70,242,178350,6,0,L|73:172,2,70,4|0|8,0:0|0:0|0:0,0:0:0:0:
152,280,179100,2,0,L|160:140,1,140,2|2,0:0|0:0,0:0:0:0:
223,74,179850,1,8,0:0:0:0:
313,72,180100,1,0,0:0:0:0:
374,139,180350,2,0,P|380:171|371:212,2,70,2|0|8,0:0|0:0|0:0,0:0:0:0:
313,72,181100,2,0,P|371:50|447:83,1,140,2|0,0:0|0:0,0:0:0:0:
435,168,181850,2,0,P|399:158|368:131,1,70,8|0,0:0|0:0,0:0:0:0:
313,72,182350,5,2,0:0:0:0:
224,92,182600,1,0,0:0:0:0:
179,171,182850,1,8,0:0:0:0:
194,260,183100,1,0,0:0:0:0:
265,316,183350,2,0,P|283:273|281:239,2,70,2|2|8,0:0|0:0|0:0,0:0:0:0:
181,351,184100,1,0,0:0:0:0:
181,351,184350,6,0,P|138:332|116:306,2,70,2|2|8,0:0|0:0|0:0,0:0:0:0:
265,316,185100,1,8,0:0:0:0:
278,272,185225,1,8,0:0:0:0:
292,229,185350,2,0,L|312:153,2,70,2|2|8,0:0|0:0|0:0,0:0:0:0:
265,316,186100,1,8,0:0:0:0:
297,348,186225,1,8,0:0:0:0:
338,360,186350,6,0,P|385:361|458:301,2,140,4|8|2,0:0|0:0|0:0,0:0:0:0:
265,316,187600,1,0,0:0:0:0:
239,228,187850,1,8,0:0:0:0:
265,141,188100,1,0,0:0:0:0:
336,85,188350,2,0,P|355:141|343:177,2,70,2|0|8,0:0|0:0|0:0,0:0:0:0:
252,50,189100,2,0,L|105:57,1,140,2|2,0:0|0:0,0:0:0:0:
83,143,189850,2,0,L|171:141,1,70,8|0,0:0|0:0,0:0:0:0:
186,226,190350,6,0,L|116:227,2,70,2|0|8,0:0|0:0|0:0,0:0:0:0:
270,192,191100,2,0,P|270:265|214:312,1,140,2|0,0:0|0:0,0:0:0:0:
138,340,191850,1,8,0:0:0:0:
48,321,192100,1,0,0:0:0:0:
0,243,192350,2,0,P|-2:206|10:169,2,70,2|2|8,0:0|0:0|0:0,0:0:0:0:
48,321,193100,2,0,L|193:327,1,140,2|2,0:0|0:0,0:0:0:0:
268,284,193850,1,8,0:0:0:0:
287,195,194100,1,8,0:0:0:0:
275,150,194225,1,8,0:0:0:0:
253,108,194350,6,0,P|205:96|180:100,2,70,4|0|8,0:0|0:0|0:0,0:0:0:0:
287,195,195100,2,0,L|255:337,1,140,2|2,0:0|0:0,0:0:0:0:
175,373,195850,2,0,P|165:348|172:298,1,70,8|0,0:0|0:0,0:0:0:0:
92,256,196350,2,0,P|80:280|78:326,2,70,2|0|0,0:0|0:0|0:0,0:0:0:0:
175,220,197100,2,0,L|337:231,1,140,2|0,0:0|0:0,0:0:0:0:
394,186,197850,1,8,0:0:0:0:
420,98,198100,1,0,0:0:0:0:
366,24,198350,6,0,L|292:17,2,70,2|0|8,0:0|0:0|0:0,0:0:0:0:
420,98,199100,1,0,0:0:0:0:
329,109,199350,2,0,L|209:98,2,105,2|2|2,0:0|0:0|0:0,0:0:0:0:
256,192,200350,12,2,202350,0:0:0:0:
