osu file format v14

[General]
AudioFilename: 2moro-.mp3
AudioLeadIn: 0
PreviewTime: 50350
Countdown: 0
SampleSet: Soft
StackLeniency: 0.7
Mode: 0
LetterboxInBreaks: 0
WidescreenStoryboard: 0

[Editor]
Bookmarks: 54338
DistanceSpacing: 1.2
BeatDivisor: 4
GridSize: 4
TimelineZoom: 1

[Metadata]
Title:Peng You Chu Qu Zou Zou
TitleUnicode:朋友出去走走
Artist:2moro
ArtistUnicode:2moro
Creator:Peachtrees
Version:Easy
Source:
Tags:2 more loves Guo Antony Angus 郭彥均 郭彥甫
BeatmapID:697127
BeatmapSetID:312278

[Difficulty]
HPDrainRate:2
CircleSize:2.5
OverallDifficulty:2
ApproachRate:2
SliderMultiplier:0.8
SliderTickRate:1

[Events]
//Background and Video events
0,0,"ghghgh.jpg",0,0
//Break Periods
2,82550,88790
2,170550,176350
//Storyboard Layer 0 (Background)
//Storyboard Layer 1 (Fail)
//Storyboard Layer 2 (Pass)
//Storyboard Layer 3 (Foreground)
//Storyboard Sound Samples

[TimingPoints]
2350,500,4,2,1,50,1,0
2725,-100,4,2,2,80,0,0
2975,-100,4,2,1,50,0,0
3725,-100,4,2,1,80,0,0
3975,-100,4,2,1,50,0,0
4725,-100,4,2,2,80,0,0
4975,-100,4,2,1,50,0,0
5725,-100,4,2,1,80,0,0
5975,-100,4,2,1,50,0,0
6725,-100,4,2,2,80,0,0
6975,-100,4,2,1,50,0,0
7725,-100,4,2,1,80,0,0
7975,-100,4,2,1,50,0,0
8725,-100,4,2,2,80,0,0
8975,-100,4,2,1,50,0,0
9725,-100,4,2,1,80,0,0
9975,-100,4,2,1,50,0,0
10725,-100,4,2,2,80,0,0
10975,-100,4,2,1,50,0,0
11725,-100,4,2,1,80,0,0
11975,-100,4,2,1,50,0,0
12725,-100,4,2,2,80,0,0
12975,-100,4,2,1,50,0,0
13725,-100,4,2,1,80,0,0
13975,-100,4,2,1,50,0,0
14725,-100,4,2,1,80,0,0
14975,-100,4,2,1,50,0,0
15725,-100,4,2,1,80,0,0
15975,-100,4,2,1,50,0,0
16725,-100,4,2,2,80,0,0
16975,-100,4,2,1,50,0,0
17725,-100,4,2,1,80,0,0
17975,-100,4,2,1,50,0,0
18725,-100,4,2,1,80,0,0
18975,-100,4,2,1,50,0,0
19725,-100,4,2,1,80,0,0
19975,-100,4,2,1,50,0,0
20725,-100,4,2,2,80,0,0
20975,-100,4,2,1,50,0,0
21725,-100,4,2,1,80,0,0
21975,-100,4,2,1,50,0,0
22725,-100,4,2,2,80,0,0
22975,-100,4,2,1,50,0,0
23725,-100,4,2,1,80,0,0
23975,-100,4,2,1,50,0,0
24725,-100,4,2,2,80,0,0
24975,-100,4,2,1,50,0,0
25725,-100,4,2,1,80,0,0
25975,-100,4,2,1,50,0,0
26725,-100,4,2,1,80,0,0
26975,-100,4,2,1,50,0,0
27725,-100,4,2,1,80,0,0
27975,-100,4,2,1,50,0,0
28725,-100,4,2,2,80,0,0
28975,-100,4,2,1,50,0,0
29725,-100,4,2,1,80,0,0
29975,-100,4,2,1,50,0,0
30725,-100,4,2,2,80,0,0
30975,-100,4,2,1,50,0,0
31725,-100,4,2,1,80,0,0
31975,-100,4,2,1,50,0,0
32725,-100,4,2,2,80,0,0
32975,-100,4,2,1,50,0,0
33725,-100,4,2,1,80,0,0
33975,-100,4,2,1,50,0,0
34725,-100,4,2,1,90,0,0
34975,-100,4,2,1,60,0,0
35725,-100,4,2,1,90,0,0
35975,-100,4,2,1,60,0,0
36725,-100,4,2,2,90,0,0
36975,-100,4,2,1,60,0,0
37725,-100,4,2,1,90,0,0
37975,-100,4,2,1,60,0,0
38725,-100,4,2,2,90,0,0
38975,-100,4,2,1,60,0,0
39725,-100,4,2,2,90,0,0
39975,-100,4,2,1,60,0,0
40725,-100,4,2,1,90,0,0
40975,-100,4,2,1,60,0,0
41725,-100,4,2,1,90,0,0
41975,-100,4,2,1,60,0,0
42725,-100,4,2,2,90,0,0
42975,-100,4,2,1,60,0,0
43725,-100,4,2,1,90,0,0
43975,-100,4,2,1,60,0,0
44725,-100,4,2,2,90,0,0
44975,-100,4,2,1,60,0,0
45725,-100,4,2,1,90,0,0
45975,-100,4,2,1,60,0,0
46725,-100,4,2,1,90,0,0
46975,-100,4,2,1,60,0,0
47725,-100,4,2,1,90,0,0
47975,-100,4,2,1,60,0,0
48725,-100,4,2,2,90,0,0
48975,-100,4,2,1,60,0,0
49725,-100,4,2,1,90,0,0
49975,-100,4,2,1,60,0,0
50350,-100,4,2,1,70,0,1
50725,-100,4,2,1,100,0,1
50975,-100,4,2,1,70,0,1
51725,-100,4,2,1,100,0,1
51975,-100,4,2,1,70,0,1
52725,-100,4,2,2,100,0,1
52975,-100,4,2,1,70,0,1
53725,-100,4,2,1,100,0,1
53975,-100,4,2,1,70,0,1
54725,-100,4,2,2,100,0,1
54975,-100,4,2,1,70,0,1
55725,-100,4,2,1,100,0,1
55975,-100,4,2,1,70,0,1
56725,-100,4,2,2,100,0,1
56975,-100,4,2,1,70,0,1
57725,-100,4,2,1,100,0,1
57975,-100,4,2,1,70,0,1
58725,-100,4,2,1,100,0,1
58975,-100,4,2,1,70,0,1
59725,-100,4,2,1,100,0,1
59975,-100,4,2,1,70,0,1
60725,-100,4,2,2,100,0,1
60975,-100,4,2,1,70,0,1
61725,-100,4,2,1,100,0,1
61975,-100,4,2,1,70,0,1
62725,-100,4,2,2,100,0,1
62975,-100,4,2,1,70,0,1
63725,-100,4,2,2,100,0,1
63975,-100,4,2,1,70,0,1
64725,-100,4,2,1,100,0,1
64975,-100,4,2,1,70,0,1
65725,-100,4,2,1,100,0,1
65975,-100,4,2,1,70,0,1
66725,-100,4,2,1,100,0,1
66975,-100,4,2,1,70,0,1
67725,-100,4,2,1,100,0,1
67975,-100,4,2,1,70,0,1
68725,-100,4,2,2,100,0,1
68975,-100,4,2,1,70,0,1
69725,-100,4,2,1,100,0,1
69975,-100,4,2,1,70,0,1
70725,-100,4,2,2,100,0,1
70975,-100,4,2,1,70,0,1
71725,-100,4,2,1,100,0,1
71975,-100,4,2,1,70,0,1
72725,-100,4,2,2,100,0,1
72975,-100,4,2,1,70,0,1
73725,-100,4,2,1,100,0,1
73975,-100,4,2,1,70,0,1
74725,-100,4,2,1,100,0,1
74975,-100,4,2,1,70,0,1
75725,-100,4,2,1,100,0,1
75975,-100,4,2,1,70,0,1
76725,-100,4,2,2,100,0,1
76975,-100,4,2,1,70,0,1
77725,-100,4,2,1,100,0,1
77975,-100,4,2,1,70,0,1
78725,-100,4,2,2,100,0,1
78975,-100,4,2,1,70,0,1
79725,-100,4,2,2,100,0,1
79975,-100,4,2,1,70,0,1
80350,-100,4,2,1,50,0,0
90725,-100,4,2,2,80,0,0
90975,-100,4,2,1,50,0,0
91725,-100,4,2,1,80,0,0
91975,-100,4,2,1,50,0,0
92725,-100,4,2,2,80,0,0
92975,-100,4,2,1,50,0,0
93725,-100,4,2,1,80,0,0
93975,-100,4,2,1,50,0,0
94725,-100,4,2,2,80,0,0
94975,-100,4,2,1,50,0,0
95725,-100,4,2,1,80,0,0
95975,-100,4,2,1,50,0,0
96725,-100,4,2,2,80,0,0
96975,-100,4,2,1,50,0,0
97725,-100,4,2,1,80,0,0
97975,-100,4,2,1,50,0,0
98725,-100,4,2,2,80,0,0
98975,-100,4,2,1,50,0,0
99725,-100,4,2,1,80,0,0
99975,-100,4,2,1,50,0,0
100725,-100,4,2,2,80,0,0
100975,-100,4,2,1,50,0,0
101725,-100,4,2,1,80,0,0
101975,-100,4,2,1,50,0,0
102725,-100,4,2,1,80,0,0
102975,-100,4,2,1,50,0,0
103725,-100,4,2,1,80,0,0
103975,-100,4,2,1,50,0,0
104725,-100,4,2,2,80,0,0
104975,-100,4,2,1,50,0,0
105725,-100,4,2,1,80,0,0
105975,-100,4,2,1,50,0,0
106725,-100,4,2,1,80,0,0
106975,-100,4,2,1,50,0,0
107725,-100,4,2,1,80,0,0
107975,-100,4,2,1,50,0,0
108725,-100,4,2,2,80,0,0
108975,-100,4,2,1,50,0,0
109725,-100,4,2,1,80,0,0
109975,-100,4,2,1,50,0,0
110725,-100,4,2,2,80,0,0
110975,-100,4,2,1,50,0,0
111725,-100,4,2,1,80,0,0
111975,-100,4,2,1,50,0,0
112725,-100,4,2,2,80,0,0
112975,-100,4,2,1,50,0,0
113725,-100,4,2,1,80,0,0
113975,-100,4,2,1,50,0,0
114725,-100,4,2,1,80,0,0
114975,-100,4,2,1,50,0,0
115725,-100,4,2,1,80,0,0
115975,-100,4,2,1,50,0,0
116725,-100,4,2,2,80,0,0
116975,-100,4,2,1,50,0,0
117725,-100,4,2,1,80,0,0
117975,-100,4,2,1,50,0,0
118725,-100,4,2,2,80,0,0
118975,-100,4,2,1,50,0,0
119725,-100,4,2,1,80,0,0
119975,-100,4,2,1,50,0,0
120725,-100,4,2,2,80,0,0
120975,-100,4,2,1,50,0,0
121725,-100,4,2,1,80,0,0
121975,-100,4,2,1,50,0,0
122725,-100,4,2,1,90,0,0
122975,-100,4,2,1,60,0,0
123725,-100,4,2,1,90,0,0
123975,-100,4,2,1,60,0,0
124725,-100,4,2,2,90,0,0
124975,-100,4,2,1,60,0,0
125725,-100,4,2,1,90,0,0
125975,-100,4,2,1,60,0,0
126725,-100,4,2,2,90,0,0
126975,-100,4,2,1,60,0,0
127725,-100,4,2,2,60,0,0
127975,-100,4,2,1,60,0,0
128725,-100,4,2,1,90,0,0
128975,-100,4,2,1,60,0,0
129725,-100,4,2,1,90,0,0
129975,-100,4,2,1,60,0,0
130725,-100,4,2,2,90,0,0
130975,-100,4,2,1,60,0,0
131725,-100,4,2,1,90,0,0
131975,-100,4,2,1,60,0,0
132725,-100,4,2,1,90,0,0
132975,-100,4,2,1,60,0,0
133725,-100,4,2,1,90,0,0
133975,-100,4,2,1,60,0,0
134725,-100,4,2,1,90,0,0
134975,-100,4,2,1,60,0,0
135725,-100,4,2,1,90,0,0
135975,-100,4,2,1,60,0,0
136725,-100,4,2,2,90,0,0
136975,-100,4,2,1,60,0,0
137725,-100,4,2,1,90,0,0
137975,-100,4,2,1,60,0,0
138350,-100,4,2,1,70,0,1
138725,-100,4,2,1,100,0,1
138975,-100,4,2,1,70,0,1
139725,-100,4,2,1,100,0,1
139975,-100,4,2,1,70,0,1
140725,-100,4,2,2,100,0,1
140975,-100,4,2,1,70,0,1
141725,-100,4,2,1,100,0,1
141975,-100,4,2,1,70,0,1
142725,-100,4,2,2,100,0,1
142975,-100,4,2,1,70,0,1
143725,-100,4,2,1,100,0,1
143975,-100,4,2,1,70,0,1
144725,-100,4,2,2,100,0,1
144975,-100,4,2,1,70,0,1
145725,-100,4,2,1,100,0,1
145975,-100,4,2,1,70,0,1
146725,-100,4,2,1,100,0,1
146975,-100,4,2,1,70,0,1
147725,-100,4,2,1,100,0,1
147975,-100,4,2,1,70,0,1
148725,-100,4,2,2,100,0,1
148975,-100,4,2,1,70,0,1
149725,-100,4,2,1,100,0,1
149975,-100,4,2,1,70,0,1
150725,-100,4,2,2,100,0,1
150975,-100,4,2,1,70,0,1
151725,-100,4,2,2,100,0,1
151975,-100,4,2,1,70,0,1
152725,-100,4,2,1,100,0,1
152975,-100,4,2,1,70,0,1
153725,-100,4,2,1,100,0,1
153975,-100,4,2,1,70,0,1
154725,-100,4,2,1,100,0,1
154975,-100,4,2,1,70,0,1
155725,-100,4,2,1,100,0,1
155975,-100,4,2,1,70,0,1
156725,-100,4,2,2,100,0,1
156975,-100,4,2,1,70,0,1
157725,-100,4,2,1,100,0,1
157975,-100,4,2,1,70,0,1
158725,-100,4,2,2,100,0,1
158975,-100,4,2,1,70,0,1
159725,-100,4,2,1,100,0,1
159975,-100,4,2,1,70,0,1
160725,-100,4,2,2,100,0,1
160975,-100,4,2,1,70,0,1
161725,-100,4,2,1,100,0,1
161975,-100,4,2,1,70,0,1
162725,-100,4,2,1,100,0,1
162975,-100,4,2,1,70,0,1
163725,-100,4,2,1,100,0,1
163975,-100,4,2,1,70,0,1
164725,-100,4,2,2,100,0,1
164975,-100,4,2,1,70,0,1
165725,-100,4,2,1,100,0,1
165975,-100,4,2,1,70,0,1
166725,-100,4,2,2,100,0,1
166975,-100,4,2,1,70,0,1
167725,-100,4,2,2,100,0,1
167975,-100,4,2,1,70,0,1
168350,-100,4,2,1,70,0,0
178350,-100,4,2,1,70,0,1
178725,-100,4,2,2,100,0,1
178975,-100,4,2,1,70,0,1
179725,-100,4,2,1,100,0,1
179975,-100,4,2,1,70,0,1
180725,-100,4,2,2,100,0,1
180975,-100,4,2,1,70,0,1
181725,-100,4,2,1,100,0,1
181975,-100,4,2,1,70,0,1
182725,-100,4,2,1,100,0,1
182975,-100,4,2,1,70,0,1
183725,-100,4,2,1,100,0,1
183975,-100,4,2,1,70,0,1
184725,-100,4,2,1,100,0,1
184975,-100,4,2,1,70,0,1
185725,-100,4,2,1,100,0,1
185975,-100,4,2,1,70,0,1
186725,-100,4,2,1,100,0,1
186975,-100,4,2,1,70,0,1
187725,-100,4,2,1,100,0,1
187975,-100,4,2,1,70,0,1
188725,-100,4,2,2,100,0,1
188975,-100,4,2,1,70,0,1
189725,-100,4,2,1,100,0,1
189975,-100,4,2,1,70,0,1
190725,-100,4,2,2,100,0,1
190975,-100,4,2,1,70,0,1
191725,-100,4,2,1,100,0,1
191975,-100,4,2,1,70,0,1
192725,-100,4,2,2,100,0,1
192975,-100,4,2,1,70,0,1
193725,-100,4,2,1,100,0,1
193975,-100,4,2,1,70,0,1
194725,-100,4,2,1,100,0,1
194975,-100,4,2,1,70,0,1
195725,-100,4,2,1,100,0,1
195975,-100,4,2,1,70,0,1
196725,-100,4,2,2,100,0,1
196975,-100,4,2,1,70,0,1
197725,-100,4,2,1,100,0,1
197975,-100,4,2,1,70,0,1
198725,-100,4,2,2,100,0,1
198975,-100,4,2,1,70,0,1
199725,-100,4,2,2,100,0,1
199975,-100,4,2,1,70,0,1
200350,-100,4,2,1,50,0,0

[Colours]
Combo1 : 210,218,78
Combo2 : 128,128,255
Combo3 : 29,172,188
Combo4 : 255,128,128

[HitObjects]
39,216,2350,6,0,P|108:253|185:238,1,160,2|2,0:0|0:0,0:0:0:0:
259,177,3850,1,8,0:0:0:0:
333,238,4350,2,0,P|391:248|443:220,2,120,2|2|8,0:0|0:0|0:0,0:0:0:0:
258,177,6350,6,0,P|236:251|277:317,1,160,2|2,0:0|0:0,0:0:0:0:
371,337,7850,1,8,0:0:0:0:
465,317,8350,2,0,P|493:256|475:198,2,120,2|2|8,0:0|0:0|0:0,0:0:0:0:
371,337,10350,6,0,B|329:331|329:331|252:344|252:344|197:336,1,160,4|2,0:0|0:0,0:0:0:0:
118,318,11850,1,8,0:0:0:0:
62,238,12350,2,0,P|101:171|177:153,1,160,2|2,0:0|0:0,0:0:0:0:
265,192,13850,1,8,0:0:0:0:
354,157,14350,6,0,P|393:109|396:82,2,80,2|8|2,0:0|0:0|0:0,0:0:0:0:
265,192,15850,1,8,0:0:0:0:
169,178,16350,2,0,B|112:151|57:174|57:174|29:228,1,160,2|2,3:0|0:0,0:0:0:0:
49,308,17850,1,8,0:0:0:0:
126,365,18350,6,0,P|188:359|209:349,1,80,4|8,0:0|0:0,0:0:0:0:
285,301,19350,2,0,P|324:301|362:313,1,80,2|8,0:0|0:0,0:0:0:0:
451,349,20350,2,0,B|467:311|447:271|447:271|472:234|461:181,1,160,2|2,0:0|0:0,0:0:0:0:
399,123,21850,1,8,0:0:0:0:
370,215,22350,6,0,P|335:226|241:149,1,160,2|2,0:0|0:0,0:0:0:0:
183,85,23850,1,8,0:0:0:0:
149,175,24350,2,0,P|162:221|223:286,2,120,2|2|8,0:0|0:0|0:0,0:0:0:0:
183,85,26350,6,0,L|272:83,1,80,2|8,0:0|0:0,0:0:0:0:
337,144,27350,2,0,L|426:142,1,80,2|8,0:0|0:0,0:0:0:0:
442,235,28350,2,0,L|315:239,2,120,2|2|8,0:0|0:0|0:0,0:0:0:0:
501,159,30350,6,0,P|469:88|397:57,1,160,2|2,0:0|0:0,0:0:0:0:
305,83,31850,1,8,0:0:0:0:
212,58,32350,2,0,P|162:74|117:125,1,120,2|2,0:0|0:0,0:0:0:0:
56,253,33850,1,8,0:0:0:0:
89,343,34350,6,0,P|129:344|168:335,1,80,2|8,0:0|0:0,0:0:0:0:
199,244,35350,2,0,P|245:234|285:238,1,80,2|8,0:0|0:0,0:0:0:0:
351,298,36350,2,0,P|423:293|466:262,2,120,2|2|8,0:0|0:0|0:0,0:0:0:0:
301,215,38350,6,0,P|361:174|458:174,2,160,2|2|2,0:0|0:0|0:0,0:0:0:0:
233,283,40850,1,8,0:0:0:0:
137,281,41350,2,0,P|103:262|74:227,1,80,2|8,0:0|0:0,0:0:0:0:
51,138,42350,6,0,L|92:18,2,120,2|2|8,0:0|0:0|0:0,0:0:0:0:
121,202,44350,2,0,P|198:192|244:130,1,160,2|2,0:0|0:0,0:0:0:0:
321,73,45850,1,8,0:0:0:0:
397,130,46350,6,0,L|395:215,1,80,2|8,0:0|0:0,0:0:0:0:
311,258,47350,2,0,L|309:343,1,80,2|8,0:0|0:0,0:0:0:0:
216,364,48350,2,0,P|177:344|137:267,2,120,2|2|8,0:0|0:0|0:0,0:0:0:0:
311,377,50350,6,0,L|391:368,1,80,4|8,0:0|0:0,0:0:0:0:
466,308,51350,2,0,P|462:257|449:226,1,80,2|8,0:0|0:0,0:0:0:0:
392,154,52350,2,0,P|400:89|449:41,2,120,2|2|8,0:0|0:0|0:0,0:0:0:0:
331,228,54350,6,0,P|304:186|301:113,2,120,2|2|8,0:0|0:0|0:0,0:0:0:0:
348,322,56350,2,0,P|298:316|240:258,2,120,2|2|8,0:0|0:0|0:0,0:0:0:0:
438,288,58350,6,0,L|445:195,1,80,4|8,0:0|0:0,0:0:0:0:
381,135,59350,1,2,0:0:0:0:
286,147,59850,1,8,0:0:0:0:
246,234,60350,2,0,P|182:237|131:208,2,120,2|2|8,0:0|0:0|0:0,0:0:0:0:
286,147,62350,6,0,P|257:122|130:122,2,160,2|2|2,0:0|0:0|0:0,0:0:0:0:
310,239,64850,1,8,0:0:0:0:
269,326,65350,1,2,0:0:0:0:
177,352,65850,1,8,0:0:0:0:
85,323,66350,6,0,P|67:271|68:233,1,80,4|8,0:0|0:0,0:0:0:0:
121,167,67350,2,0,P|136:130|139:90,1,80,2|8,0:0|0:0,0:0:0:0:
53,48,68350,2,0,P|22:105|23:162,2,120,2|2|8,0:0|0:0|0:0,0:0:0:0:
114,121,70350,6,0,P|116:161|162:233,2,120,2|2|8,0:0|0:0|0:0,0:0:0:0:
207,143,72350,2,0,P|242:179|314:185,2,120,2|2|8,0:0|0:0|0:0,0:0:0:0:
113,123,74350,6,0,L|122:203,1,80,4|8,0:0|0:0,0:0:0:0:
173,283,75350,1,2,0:0:0:0:
267,299,75850,1,8,0:0:0:0:
346,244,76350,2,0,L|332:125,2,120,2|2|8,0:0|0:0|0:0,0:0:0:0:
267,299,78350,6,0,P|198:287|149:198,2,160,2|2|2,0:0|0:0|0:0,0:0:0:0:
256,192,80600,12,4,82350,0:0:0:0:
311,256,90350,6,0,P|320:195|281:91,1,160,4|2,0:0|0:0,0:0:0:0:
208,52,91850,1,8,0:0:0:0:
124,99,92350,2,0,P|70:109|9:91,2,120,2|2|8,0:0|0:0|0:0,0:0:0:0:
208,52,94350,6,0,P|211:137|156:193,1,160,2|2,0:0|0:0,0:0:0:0:
101,263,95850,1,8,0:0:0:0:
195,280,96350,2,0,P|261:233|288:190,2,120,2|2|8,0:0|0:0|0:0,0:0:0:0:
101,263,98350,6,0,L|74:104,1,160,4|2,0:0|0:0,0:0:0:0:
151,48,99850,1,8,0:0:0:0:
184,137,100350,2,0,P|237:147|327:84,1,160,2|2,0:0|0:0,0:0:0:0:
402,38,101850,1,8,0:0:0:0:
477,97,102350,6,0,P|469:143|446:187,1,80,2|8,0:0|0:0,0:0:0:0:
362,198,103350,2,0,P|367:237|383:274,1,80,2|8,0:0|0:0,0:0:0:0:
469,317,104350,2,0,P|396:370|326:352,1,160,2|2,0:0|0:0,0:0:0:0:
245,315,105850,1,8,0:0:0:0:
150,333,106350,6,0,P|123:290|118:248,1,80,4|8,0:0|0:0,0:0:0:0:
114,165,107350,2,0,L|210:170,1,80,2|8,0:0|0:0,0:0:0:0:
274,117,108350,2,0,B|300:149|289:193|289:193|357:250,1,160,2|2,0:0|0:0,0:0:0:0:
383,334,109850,1,8,0:0:0:0:
288,320,110350,6,0,B|228:267|228:267|186:285|150:264,1,160,2|2,0:0|0:0,0:0:0:0:
81,198,111850,1,8,0:0:0:0:
129,114,112350,2,0,P|198:98|252:120,2,120,2|2|8,0:0|0:0|0:0,0:0:0:0:
81,198,114350,6,0,L|83:278,1,80,2|8,0:0|0:0,0:0:0:0:
154,341,115350,1,2,0:0:0:0:
249,349,115850,1,8,0:0:0:0:
335,306,116350,2,0,L|338:183,2,120,2|2|8,0:0|0:0|0:0,0:0:0:0:
415,358,118350,6,0,P|457:330|477:217,1,160,2|2,0:0|0:0,0:0:0:0:
431,146,119850,1,8,0:0:0:0:
338,121,120350,2,0,B|297:118|297:118|222:145|222:145|174:143,1,160,2|2,0:0|0:0,0:0:0:0:
86,139,121850,1,8,0:0:0:0:
59,231,122350,6,0,P|84:256|137:272,1,80,2|8,0:0|0:0,0:0:0:0:
221,279,123350,2,0,L|311:285,1,80,2|8,0:0|0:0,0:0:0:0:
393,257,124350,2,0,P|393:316|352:367,2,120,2|2|8,0:0|0:0|0:0,0:0:0:0:
358,167,126350,6,0,P|354:114|420:22,2,160,2|2|2,0:0|0:0|0:0,0:0:0:0:
397,254,128850,1,8,0:0:0:0:
360,342,129350,2,0,P|305:342|276:326,1,80,2|8,0:0|0:0,0:0:0:0:
187,332,130350,6,0,P|144:313|67:313,2,120,2|2|8,0:0|0:0|0:0,0:0:0:0:
283,331,132350,2,0,L|272:249,1,80,2|8,0:0|0:0,0:0:0:0:
255,157,133350,1,2,0:0:0:0:
174,104,133850,1,8,0:0:0:0:
85,141,134350,6,0,P|71:183|73:220,2,80,2|8|2,0:0|0:0|0:0,0:0:0:0:
174,104,135850,1,8,0:0:0:0:
255,157,136350,2,0,P|301:136|339:60,2,120,2|2|8,0:0|0:0|0:0,0:0:0:0:
169,199,138350,6,0,P|143:233|137:282,1,80,4|8,0:0|0:0,0:0:0:0:
174,357,139350,2,0,L|255:355,1,80,2|8,0:0|0:0,0:0:0:0:
350,351,140350,2,0,L|346:226,2,120,2|2|8,0:0|0:0|0:0,0:0:0:0:
253,355,142350,6,0,P|200:328|177:268,2,120,2|2|8,0:0|0:0|0:0,0:0:0:0:
349,360,144350,2,0,L|471:364,2,120,2|2|8,0:0|0:0|0:0,0:0:0:0:
325,266,146350,6,0,L|327:186,1,80,4|8,0:0|0:0,0:0:0:0:
249,128,147350,1,2,0:0:0:0:
154,146,147850,1,8,0:0:0:0:
110,232,148350,2,0,P|122:301|160:333,2,120,2|2|8,0:0|0:0|0:0,0:0:0:0:
154,146,150350,6,0,P|91:137|15:212,2,160,2|2|2,0:0|0:0|0:0,0:0:0:0:
237,193,152850,1,8,0:0:0:0:
332,190,153350,1,2,0:0:0:0:
395,118,153850,1,8,0:0:0:0:
369,25,154350,6,0,P|318:31|283:49,1,80,4|8,0:0|0:0,0:0:0:0:
210,93,155350,2,0,P|159:87|124:69,1,80,2|8,0:0|0:0,0:0:0:0:
50,123,156350,2,0,L|57:260,2,120,2|2|8,0:0|0:0|0:0,0:0:0:0:
142,150,158350,6,0,L|149:287,2,120,2|2|8,0:0|0:0|0:0,0:0:0:0:
233,180,160350,2,0,L|240:317,2,120,2|2|8,0:0|0:0|0:0,0:0:0:0:
280,96,162350,6,0,P|324:97|370:119,1,80,4|8,0:0|0:0,0:0:0:0:
410,189,163350,1,2,0:0:0:0:
384,281,163850,1,8,0:0:0:0:
299,327,164350,2,0,P|237:322|179:289,2,120,2|2|8,0:0|0:0|0:0,0:0:0:0:
393,346,166350,6,0,B|403:307|376:269|376:269|404:182,2,160,2|2|2,0:0|0:0|0:0,0:0:0:0:
256,192,168600,12,2,170350,0:0:0:0:
257,221,178350,6,0,P|196:248|140:245,2,120,4|2|8,0:0|0:0|0:0,0:0:0:0:
239,126,180350,2,0,P|179:125|125:150,2,120,2|2|8,0:0|0:0|0:0,0:0:0:0:
330,154,182350,5,2,0:0:0:0:
370,241,182850,1,8,0:0:0:0:
325,325,183350,1,2,0:0:0:0:
231,347,183850,1,8,0:0:0:0:
138,320,184350,2,0,L|121:238,1,80,4|8,0:0|0:0,0:0:0:0:
54,172,185350,2,0,L|71:90,1,80,2|8,0:0|0:0,0:0:0:0:
149,38,186350,6,0,P|194:55|222:89,1,80,4|8,0:0|0:0,0:0:0:0:
226,173,187350,2,0,P|263:160|292:133,1,80,2|8,0:0|0:0,0:0:0:0:
351,57,188350,2,0,L|479:57,2,120,2|2|8,0:0|0:0|0:0,0:0:0:0:
280,122,190350,6,0,L|160:122,2,120,2|2|8,0:0|0:0|0:0,0:0:0:0:
346,191,192350,2,0,L|466:191,2,120,2|2|8,0:0|0:0|0:0,0:0:0:0:
329,285,194350,6,0,P|296:274|259:226,1,80,4|8,0:0|0:0,0:0:0:0:
240,149,195350,1,2,0:0:0:0:
285,64,195850,1,8,0:0:0:0:
380,53,196350,2,0,P|434:74|467:123,2,120,2|2|8,0:0|0:0|0:0,0:0:0:0:
285,64,198350,6,0,L|272:233,2,160,2|2|2,0:0|0:0|0:0,0:0:0:0:
256,192,200600,12,2,202350,0:0:0:0:
