osu file format v12

[General]
AudioFilename: 2PM - Hot.mp3
AudioLeadIn: 2000
PreviewTime: 59457
Countdown: 0
SampleSet: Soft
StackLeniency: 0.7
Mode: 0
LetterboxInBreaks: 0
WidescreenStoryboard: 0

[Editor]
DistanceSpacing: 1.1
BeatDivisor: 4
GridSize: 4

[Metadata]
Title:Hot
TitleUnicode:Hot
Artist:2PM
ArtistUnicode:2PM
Creator:Kazey
Version:Hard
Source:
Tags:kpop HANDS UP
BeatmapID:188109
BeatmapSetID:63750

[Difficulty]
HPDrainRate:6
CircleSize:4
OverallDifficulty:6
ApproachRate:7
SliderMultiplier:1.6
SliderTickRate:2

[Events]
//Background and Video events
0,0,"normal_1024x768.jpg",0,0
//Break Periods
2,8269,14788
2,93983,100502
2,156126,161454
//Storyboard Layer 0 (Background)
//Storyboard Layer 1 (Fail)
//Storyboard Layer 2 (Pass)
//Storyboard Layer 3 (Foreground)
//Storyboard Sound Samples
//Background Colour Transformations
3,100,163,162,255

[TimingPoints]
450,476.190476190476,4,2,1,50,1,0
17592,-100,4,2,1,60,0,0
32830,-100,4,2,1,40,0,0
39973,-100,4,2,1,50,0,0
44735,-100,4,2,2,40,0,0
44854,-100,4,2,1,50,0,0
48069,-100,4,2,1,60,0,0
49497,-100,4,2,2,50,0,0
49616,-100,4,2,1,60,0,0
59973,-100,4,2,2,50,0,0
60092,-100,4,2,1,60,0,0
63307,-100,4,2,1,70,0,1
89973,-100,4,2,1,70,0,0
93783,-100,4,2,1,50,0,0
102354,-100,4,2,3,40,0,0
102473,-100,4,2,1,50,0,0
107116,-100,4,2,1,30,0,0
107235,-100,4,2,1,50,0,0
108069,-100,4,2,1,30,0,0
108188,-100,4,2,1,50,0,0
109021,-100,4,2,1,60,0,0
110449,-100,4,2,2,50,0,0
110569,-100,4,2,1,60,0,0
116164,-100,4,2,2,50,0,0
116283,-100,4,2,1,60,0,0
118069,-100,4,2,2,50,0,0
118188,-100,4,2,1,60,0,0
119973,-100,4,2,2,50,0,0
120092,-100,4,2,1,60,0,0
124259,-100,4,2,1,70,0,1
154735,-100,4,2,1,50,0,0
155926,-100,4,2,1,10,0,0
162354,-133.333333333333,4,2,1,50,0,0
166640,-100,4,2,1,60,0,0
169021,-100,4,2,1,40,0,0
169973,-100,4,2,1,70,0,1
199973,-100,4,2,1,50,0,0
201402,-100,4,2,1,10,0,0

[Colours]
Combo1 : 192,192,192
Combo2 : 255,255,255
Combo3 : 166,0,0
Combo4 : 255,128,128

[HitObjects]
92,68,450,2,0,P|92:152|152:184,1,160,2|0,0:0|0:0,0:0:0:0:
360,184,1402,2,0,P|420:152|420:68,1,160,2|0,0:0|0:0,0:0:0:0:
288,160,2354,2,0,P|260:172|208:152,1,80,2|0,0:0|0:0,0:0:0:0:
328,224,2830,2,0,P|256:248|176:224,2,160,0|2|0,0:0|0:0|0:0,0:0:0:0:
412,50,4259,6,0,P|440:112|372:152,1,160,2|0,0:0|0:0,0:0:0:0:
296,132,4973,1,0,0:0:0:0:
316,216,5211,2,0,P|296:272|316:328,2,120,2|0|0,0:0|0:0|0:0,0:0:0:0:
228,208,6164,5,2,0:0:0:0:
216,296,6402,1,0,0:0:0:0:
140,248,6640,2,0,P|96:248|60:224,1,80
120,164,7116,2,0,L|160:84,1,80,2|0,0:0|0:0,0:0:0:0:
196,112,7473,1,0,0:0:0:0:
240,116,7592,2,0,L|324:80,1,80
352,104,7949,1,0,0:0:0:0:
372,148,8069,1,4,1:1:0:0:
120,80,15688,6,0,P|160:64|192:80,1,80,2|0,0:3|0:0,0:0:0:0:
204,120,16045,1,2,0:3:0:0:
216,164,16164,2,0,P|248:180|287:163,1,80,0|2,0:0|0:3,0:0:0:0:
440,84,16878,1,2,0:3:0:0:
364,64,17116,1,2,0:3:0:0:
380,144,17354,6,0,L|436:240,1,80,0|4,0:0|3:2,0:0:0:0:
340,244,17830,2,0,B|316:276|316:276|276:300,1,80,0|8,0:0|0:0,0:0:0:0:
244,216,18307,2,0,B|210:196|210:196|186:164,1,80,0|0,0:0|3:0,0:0:0:0:
264,124,18783,2,0,B|288:92|288:92|322:71,1,80,0|8,0:0|0:0,0:0:0:0:
264,124,19259,2,0,L|212:60,2,80,0|0|0,0:0|3:0|0:0,0:0:0:0:
184,160,19973,5,8,0:0:0:0:
96,160,20211,1,0,0:0:0:0:
136,236,20449,1,0,3:0:0:0:
224,236,20688,1,0,0:0:0:0:
224,236,20926,2,0,P|264:212|296:172,2,80,8|0|0,0:0|0:0|3:0,0:0:0:0:
292,292,21640,5,0,0:0:0:0:
292,292,21878,2,0,P|376:332|456:296,1,160,8|0,0:0|3:0,0:0:0:0:
372,252,22592,2,0,L|324:176,1,80,0|8,0:0|0:0,0:0:0:0:
296,212,22949,1,0,0:0:0:0:
252,220,23069,1,0,0:0:0:0:
280,136,23307,6,0,P|320:116|368:128,2,80,0|0|8,3:0|0:0|0:0,0:0:0:0:
228,68,24021,1,0,0:0:0:0:
144,96,24259,1,0,3:0:0:0:
116,132,24378,1,0,0:0:0:0:
108,176,24497,1,0,0:0:0:0:
156,248,24735,1,8,0:0:0:0:
156,248,24973,2,0,L|76:292,2,80,0|4|0,0:0|3:2|0:0,0:0:0:0:
232,204,25688,6,0,P|240:280|168:336,1,160,8|0,0:0|3:0,0:0:0:0:
156,248,26402,2,0,L|96:168,1,80,0|8,0:0|0:0,0:0:0:0:
84,148,26759,1,0,0:0:0:0:
104,108,26878,2,0,L|184:72,2,80,0|0|0,0:0|3:0|0:0,0:0:0:0:
160,176,27592,2,0,P|184:264|252:288,1,160,8|0,0:0|3:0,0:0:0:0:
244,200,28307,6,0,L|308:144,1,80,0|8,0:0|0:0,0:0:0:0:
224,108,28783,2,0,L|264:28,1,80,0|0,0:0|3:0,0:0:0:0:
304,36,29140,1,0,0:0:0:0:
348,36,29259,5,0,0:0:0:0:
368,120,29497,2,0,B|400:224,2,80,8|0|0,0:0|0:0|3:0,0:0:0:0:
452,144,30211,2,0,B|500:216,1,80,0|8,0:0|0:0,0:0:0:0:
432,272,30688,1,0,0:0:0:0:
344,280,30926,6,0,B|260:356,1,80,0|0,3:0|0:0,0:0:0:0:
196,332,31403,1,8,0:0:0:0:
196,332,31640,2,0,P|201:293|182:259,1,80,0|0,0:0|3:0,0:0:0:0:
164,172,32116,2,0,L|256:124,1,80,0|8,0:0|0:0,0:0:0:0:
320,160,32592,1,0,0:0:0:0:
320,160,32830,6,0,B|352:192|352:192|344:208|392:248,1,80,0|2,3:0|0:0,0:0:0:0:
192,160,33307,2,0,B|160:192|160:192|168:208|120:248,1,80,0|2,3:0|0:0,0:0:0:0:
256,192,33783,2,0,B|256:280,2,80,0|0|8,3:0|0:0|3:0,0:0:0:0:
376,88,34735,5,8,3:0:0:0:
440,148,34973,1,0,0:0:0:0:
440,236,35211,1,8,3:0:0:0:
384,304,35449,1,0,0:0:0:0:
312,352,35688,2,0,B|224:352,1,80,8|0,3:0|0:0,0:0:0:0:
180,280,36164,2,0,B|276:280,1,80,4|0,3:2|0:0,0:0:0:0:
204,204,36640,6,0,P|180:172|108:176,2,80,8|0|0,3:0|0:0|3:0,0:0:0:0:
256,144,37354,1,0,0:0:0:0:
308,204,37592,2,0,P|332:172|404:176,2,80,8|0|8,3:0|0:0|3:0,0:0:0:0:
308,44,38545,6,0,P|332:76|404:72,2,80,8|0|0,3:0|0:0|3:0,0:0:0:0:
256,104,39259,1,0,0:0:0:0:
204,44,39497,2,0,P|180:76|108:72,2,80,8|0|4,3:0|0:0|3:2,0:0:0:0:
256,212,40449,6,0,L|256:304,2,80,0|0|8,3:0|0:0|0:0,0:0:0:0:
328,164,41164,2,0,B|424:220,1,80,0|8,0:0|3:0,0:0:0:0:
372,288,41640,1,0,0:0:0:0:
372,288,41878,2,0,B|448:332,1,80,8|0,0:0|0:0,0:0:0:0:
472,244,42354,1,8,3:0:0:0:
424,172,42592,2,0,B|464:100,1,80,8|0,0:0|0:0,0:0:0:0:
376,100,43069,6,0,B|420:24,2,80,8|0|0,0:0|3:0|3:0,0:0:0:0:
300,144,43783,2,0,B|240:92,2,80,8|0|0,0:0|0:0|3:0,0:0:0:0:
328,228,44497,2,0,P|256:320|140:256,1,240,0|0,0:0|3:0,0:0:0:0:
232,224,45449,2,0,L|232:116,1,80,0|8,0:0|0:0,0:0:0:0:
232,56,45926,6,0,L|232:12,2,40,0|0|0,0:0|0:0|3:0,0:0:0:0:
308,100,46402,2,0,P|332:132|376:148,2,80,0|8|0,0:0|0:0|0:0,0:0:0:0:
388,60,47116,2,0,P|428:76|456:132,2,80,0|0|8,3:0|3:0|0:0,0:0:0:0:
356,292,48069,6,0,P|432:248|432:176,1,160,4|8,3:2|0:0,0:0:0:0:
360,212,48783,1,0,0:0:0:0:
304,156,49021,1,0,3:0:0:0:
308,76,49259,2,0,P|232:120|232:192,1,160
304,156,49973,2,0,L|228:108,1,80,0|0,3:0|0:0,0:0:0:0:
164,104,50449,5,8,0:0:0:0:
76,108,50688,2,0,P|88:56|112:32,1,80,0|0,0:0|3:0,0:0:0:0:
164,104,51164,1,0,0:0:0:0:
108,172,51402,2,0,P|156:192|200:180,2,80,8|0|0,0:0|0:0|3:0,0:0:0:0:
108,260,52116,1,0,0:0:0:0:
188,300,52354,6,0,P|256:332|328:296,2,160,8|0|8,0:0|3:0|0:0,0:0:0:0:
256,244,53545,1,0,0:0:0:0:
256,244,53783,2,0,L|256:164,1,80,0|0,3:0|0:0,0:0:0:0:
344,192,54259,5,8,0:0:0:0:
340,104,54497,1,0,0:0:0:0:
260,68,54735,1,0,3:0:0:0:
180,104,54973,1,0,0:0:0:0:
176,192,55211,1,8,0:0:0:0:
260,164,55449,1,0,0:0:0:0:
176,192,55688,6,0,B|96:192,2,80,4|0|8,3:2|0:0|0:0,0:0:0:0:
180,104,56402,2,0,B|208:76|208:76|252:76,1,80,0|0,0:0|3:0,0:0:0:0:
260,164,56878,2,0,B|288:192|288:192|332:192,1,80,0|8,0:0|0:0,0:0:0:0:
412,164,57354,1,0,0:0:0:0:
416,252,57592,6,0,P|348:292|260:276,1,160,0|8,3:0|0:0,0:0:0:0:
220,208,58307,2,0,P|192:232|180:288,1,80,0|0,0:0|3:0,0:0:0:0:
92,252,58783,1,0,0:0:0:0:
24,308,59021,2,0,P|60:336|96:340,2,80,8|0|0,0:0|0:0|3:0,0:0:0:0:
92,252,59736,6,0,P|86:173|132:104,1,160
196,148,60449,2,0,L|124:104,1,80,0|0,3:0|0:0,0:0:0:0:
196,148,60926,2,0,P|276:122|360:171,1,160,8|0,0:0|3:0,0:0:0:0:
368,324,61878,2,0,P|396:251|370:177,1,160,8|0,0:0|3:0,0:0:0:0:
424,144,62592,6,0,L|324:160,1,80,0|8,0:0|0:0,0:0:0:0:
304,156,62949,2,0,L|252:148,2,40
324,116,63307,5,4,3:2:0:0:
256,60,63545,1,0,0:0:0:0:
196,124,63783,2,0,P|164:196|64:204,1,160,8|0,0:0|3:0,0:0:0:0:
108,128,64497,1,0,0:0:0:0:
192,264,64735,1,8,0:0:0:0:
192,264,64973,2,0,B|224:232|272:232,2,80,0|0|0,0:0|3:0|0:0,0:0:0:0:
260,320,65688,1,8,0:0:0:0:
348,304,65926,6,0,B|341:250|368:216,2,80,0|0|0,0:0|3:0|0:0,0:0:0:0:
380,332,66521,1,0,0:0:0:0:
424,324,66640,2,0,B|484:256,1,80,8|0,0:0|0:0,0:0:0:0:
456,180,67116,2,0,B|412:108,1,80,0|0,3:0|0:0,0:0:0:0:
368,188,67592,2,0,B|300:132,2,80,8|0|0,0:0|0:0|3:0,0:0:0:0:
296,236,68307,5,0,0:0:0:0:
216,268,68545,2,0,P|164:320|84:312,1,160,8|0,0:0|3:0,0:0:0:0:
132,236,69259,2,0,L|104:160,2,80,0|8|0,0:0|0:0|0:0,0:0:0:0:
192,172,69973,2,0,L|220:96,1,80,0|0,3:0|0:0,0:0:0:0:
184,68,70330,1,0,0:0:0:0:
136,64,70449,6,0,B|56:40,2,80,8|0|0,0:0|0:0|3:0,0:0:0:0:
220,96,71164,1,0,0:0:0:0:
272,24,71402,2,0,B|312:52|308:108,1,80,8|0,0:0|0:0,0:0:0:0:
320,180,71878,1,0,3:0:0:0:
328,268,72116,1,0,0:0:0:0:
284,256,72235,1,0,0:0:0:0:
244,264,72354,1,8,0:0:0:0:
244,264,72592,6,0,B|164:288,2,80,0|0|0,0:0|3:0|0:0,0:0:0:0:
268,348,73307,1,8,0:0:0:0:
180,360,73545,2,0,B|140:332|144:276,1,80,0|0,0:0|3:0,0:0:0:0:
152,204,74021,1,0,0:0:0:0:
184,132,74259,1,8,0:0:0:0:
156,100,74378,1,0,0:0:0:0:
164,60,74497,1,0,0:0:0:0:
248,40,74735,6,0,P|292:44|328:80,2,80,0|0|8,3:0|0:0|0:0,0:0:0:0:
260,128,75449,1,0,0:0:0:0:
324,188,75688,2,0,P|292:211|252:216,2,80,0|0|8,3:0|0:0|0:0,0:0:0:0:
412,192,76402,1,0,0:0:0:0:
392,280,76640,6,0,P|348:324|304:328,1,80,0|0,3:0|0:0,0:0:0:0:
268,268,77116,1,8,0:0:0:0:
276,180,77354,1,0,0:0:0:0:
268,268,77592,2,0,P|228:256|200:224,2,80,0|0|8,3:0|0:0|0:0,0:0:0:0:
276,180,78307,1,0,0:0:0:0:
332,112,78545,6,0,L|260:76,2,80,4|0|8,3:2|0:0|0:0,0:0:0:0:
404,60,79259,2,0,L|472:120,1,80,0|0,0:0|3:0,0:0:0:0:
464,200,79735,1,0,0:0:0:0:
416,276,79973,1,8,0:0:0:0:
416,276,80092,1,0,0:0:0:0:
416,276,80211,2,0,L|352:336,1,80,0|0,0:0|3:0,0:0:0:0:
292,272,80688,6,0,L|216:320,1,80,0|8,0:0|0:0,0:0:0:0:
140,288,81164,2,0,L|56:316,2,80,0|0|0,0:0|3:0|0:0,0:0:0:0:
196,220,81878,1,8,0:0:0:0:
276,184,82116,1,0,0:0:0:0:
292,272,82354,6,0,B|364:224,1,80,0|0,3:0|0:0,0:0:0:0:
404,144,82830,2,0,B|492:144,2,80,8|0|0,0:0|0:0|3:0,0:0:0:0:
456,72,83545,1,0,0:0:0:0:
376,36,83783,1,8,0:0:0:0:
292,60,84021,1,0,0:0:0:0:
292,60,84259,6,0,B|228:60|196:108,1,80,0|0,3:0|0:0,0:0:0:0:
132,64,84735,1,8,0:0:0:0:
92,72,84854,1,0,0:0:0:0:
48,80,84973,5,0,0:0:0:0:
76,164,85211,2,0,B|20:188|20:188|-4:236,1,80,0|0,3:0|0:0,0:0:0:0:
80,264,85687,2,0,B|40:352,2,80,8|0|0,0:0|0:0|3:0,0:0:0:0:
168,276,86402,1,0,0:0:0:0:
196,360,86640,2,0,B|244:344|252:300,1,80,8|0,0:0|0:0,0:0:0:0:
252,220,87116,2,0,B|332:228,1,80,0|0,3:0|0:0,0:0:0:0:
408,272,87592,6,0,B|380:356,2,80,8|0|0,0:0|0:0|3:0,0:0:0:0:
412,184,88307,1,0,0:0:0:0:
412,184,88545,2,0,B|464:168|480:108,1,80,8|0,0:0|0:0,0:0:0:0:
396,96,89021,2,0,P|320:124|244:84,1,160,0|8,3:0|0:0,0:0:0:0:
168,64,89735,2,0,B|64:48,2,80,0|0|0,0:0|3:0|0:0,0:0:0:0:
112,136,90449,1,8,0:0:0:0:
72,156,90569,1,0,0:0:0:0:
40,188,90688,1,0,0:0:0:0:
68,272,90926,6,0,B|152:256,1,80,0|0,3:0|0:0,0:0:0:0:
236,260,91402,1,8,0:0:0:0:
208,344,91640,2,0,P|248:348|296:324,2,80,0|0|0,0:0|3:0|0:0,0:0:0:0:
216,300,92235,1,0,0:0:0:0:
236,260,92354,2,0,L|236:180,1,80,8|0,0:0|0:0,0:0:0:0:
256,192,92830,12,4,93783,0:0:0:0:
48,64,101402,6,0,L|152:64,1,80,2|8,0:0|0:0,0:0:0:0:
216,64,101878,1,4,0:0:0:0:
296,100,102116,2,0,P|384:116|412:184,1,160
324,184,102830,2,0,L|272:264,1,80,8|0,0:0|0:0,0:0:0:0:
276,296,103188,1,0,0:0:0:0:
312,320,103307,2,0,L|416:328,2,80,0|0|8,3:0|0:0|0:0,0:0:0:0:
352,244,104021,5,0,0:0:0:0:
352,244,104259,2,0,B|444:220,2,80,0|0|8,3:0|3:0|0:0,0:0:0:0:
364,156,104973,1,0,0:0:0:0:
364,116,105092,1,0,0:0:0:0:
388,84,105211,1,6,3:2:0:0:
300,84,105449,6,0,B|196:52,1,80,0|8,0:0|0:0,0:0:0:0:
136,56,105926,2,0,B|184:152,1,80,0|0,0:0|3:0,0:0:0:0:
132,208,106402,1,0,0:0:0:0:
124,248,106521,1,0,0:0:0:0:
148,280,106640,1,6,0:0:0:0:
232,300,106878,6,0,B|308:323,1,80,0|0,0:0|0:0,0:0:0:0:
396,324,107355,2,0,B|360:252,1,80,0|12,0:0|0:0,0:0:0:0:
424,208,107831,1,0,0:0:0:0:
432,168,107950,1,0,0:0:0:0:
408,136,108069,1,4,0:0:0:0:
256,80,108545,5,8,0:0:0:0:
96,64,109021,6,0,B|64:144,1,80,4|0,3:2|0:0,0:0:0:0:
144,176,109497,2,0,B|160:256,1,80,8|0,0:0|0:0,0:0:0:0:
76,228,109973,2,0,L|32:348,2,120,0|0|0,3:0|0:0|0:0,0:0:0:0:
160,256,110926,5,0,3:0:0:0:
224,320,111164,1,0,0:0:0:0:
292,264,111402,2,0,L|364:312,2,80,8|0|0,0:0|0:0|3:0,0:0:0:0:
268,228,111997,1,0,0:0:0:0:
300,204,112116,1,0,0:0:0:0:
376,176,112354,6,0,P|380:120|360:92,1,80,8|0,0:0|0:0,0:0:0:0:
296,52,112830,2,0,P|256:52|216:72,1,80,0|0,3:0|0:0,0:0:0:0:
152,124,113307,2,0,L|240:164,1,80,8|0,0:0|0:0,0:0:0:0:
156,216,113783,2,0,B|108:296,1,80,0|0,3:0|0:0,0:0:0:0:
192,324,114259,1,8,0:0:0:0:
256,264,114497,5,2,0:0:0:0:
320,324,114735,2,0,B|396:356,2,80,0|0|8,3:0|0:0|0:0,0:0:0:0:
384,256,115449,1,0,0:0:0:0:
384,256,115569,1,0,0:0:0:0:
384,256,115688,2,0,B|444:144,2,120,0|0|0,3:0|0:0|0:0,0:0:0:0:
332,188,116640,6,0,B|332:108,1,80,4|0,3:2|0:0,0:0:0:0:
244,116,117116,2,0,B|274:42,1,80,8|0,0:0|0:0,0:0:0:0:
244,116,117592,2,0,B|136:56,2,120,0|0|0,3:0|0:0|0:0,0:0:0:0:
180,176,118545,2,0,P|220:192|240:240,1,80,0|0,3:0|0:0,0:0:0:0:
196,300,119021,1,8,0:0:0:0:
160,276,119140,1,0,0:0:0:0:
132,244,119259,1,0,0:0:0:0:
152,144,119497,6,0,B|40:216,2,120,0|0|0,3:0|0:0|0:0,0:0:0:0:
216,96,120449,2,0,P|240:44|264:32,1,80,0|0,3:0|0:0,0:0:0:0:
328,100,120926,6,0,L|276:100,2,40,8|0|0,0:0|0:0|0:0,0:0:0:0:
304,184,121402,2,0,B|352:264,1,80,0|0,3:0|0:0,0:0:0:0:
256,336,121878,1,8,0:0:0:0:
166,252,122116,2,0,B|208:184,1,80,0|0,0:0|3:0,0:0:0:0:
256,120,122592,2,0,L|256:24,1,80,0|0,3:0|3:0,0:0:0:0:
256,192,123069,12,4,124259,0:0:0:0:
96,296,124735,6,0,B|128:216,1,80,8|0,0:0|0:0,0:0:0:0:
200,256,125211,2,0,B|280:256,1,80,0|0,3:0|0:0,0:0:0:0:
336,320,125688,1,8,0:0:0:0:
400,272,125926,1,0,0:0:0:0:
392,228,126045,1,0,0:0:0:0:
360,200,126164,1,0,3:0:0:0:
288,160,126402,2,0,B|200:160,1,80,0|8,0:0|0:0,0:0:0:0:
128,160,126878,6,0,B|48:128,1,80,0|0,0:0|3:0,0:0:0:0:
104,56,127354,2,0,B|200:32,1,80,0|8,0:0|0:0,0:0:0:0:
228,156,127830,2,0,L|248:72,1,80,0|0,0:0|3:0,0:0:0:0:
316,24,128307,2,0,B|348:56|332:116,1,80,0|8,0:0|0:0,0:0:0:0:
388,160,128783,6,0,B|476:160,2,80,0|0|0,0:0|3:0|0:0,0:0:0:0:
388,204,129378,1,0,0:0:0:0:
380,240,129497,2,0,B|336:248|336:248|320:284,1,80,8|0,0:0|0:0,0:0:0:0:
236,272,129973,1,0,3:0:0:0:
236,272,130211,1,0,0:0:0:0:
196,196,130449,1,8,0:0:0:0:
108,192,130688,6,0,B|28:192,2,80,0|0|0,0:0|3:0|0:0,0:0:0:0:
196,196,131402,1,8,0:0:0:0:
152,120,131640,1,0,0:0:0:0:
204,48,131878,2,0,P|288:60|336:128,1,160,0|8,3:0|0:0,0:0:0:0:
380,192,132592,1,0,0:0:0:0:
332,268,132830,2,0,P|281:327|204:336,1,160,0|8,3:0|0:0,0:0:0:0:
116,324,133545,2,0,P|96:280|60:236,2,80,0|0|0,0:0|3:0|0:0,0:0:0:0:
28,312,134259,6,0,P|84:232|152:212,1,160,8|0,0:0|3:0,0:0:0:0:
72,136,134973,1,0,0:0:0:0:
72,136,135211,2,0,L|172:164,1,80,8|0,0:0|0:0,0:0:0:0:
192,156,135569,1,0,0:0:0:0:
232,140,135687,2,0,B|232:28,2,80,0|0|8,3:0|0:0|0:0,0:0:0:0:
328,152,136402,6,0,B|432:116,1,80,0|0,0:0|3:0,0:0:0:0:
440,208,136878,1,0,0:0:0:0:
368,256,137116,2,0,B|368:336,1,80,8|0,0:0|0:0,0:0:0:0:
296,284,137592,2,0,B|248:380,1,80,0|0,3:0|0:0,0:0:0:0:
220,276,138069,2,0,B|132:344,1,80,8|0,0:0|0:0,0:0:0:0:
144,236,138545,2,0,B|48:276,1,80,0|0,3:0|0:0,0:0:0:0:
88,180,139021,2,0,B|4:172,1,80,8|0,0:0|0:0,0:0:0:0:
20,84,139497,6,0,B|100:84,1,80,4|0,3:2|0:0,0:0:0:0:
144,84,139854,1,0,0:0:0:0:
188,88,139973,2,0,L|256:144,1,80,8|0,0:0|0:0,0:0:0:0:
248,228,140449,1,0,3:0:0:0:
248,228,140688,2,0,L|180:172,1,80,0|8,0:0|0:0,0:0:0:0:
156,260,141164,1,0,0:0:0:0:
220,320,141402,2,0,B|328:320,2,80,0|0|8,3:0|0:0|0:0,0:0:0:0:
156,260,142116,6,0,B|56:240,1,80,0|0,0:0|3:0,0:0:0:0:
132,176,142592,1,0,0:0:0:0:
132,176,142830,1,8,0:0:0:0:
120,88,143069,2,0,B|32:104,2,80,0|0|0,0:0|3:0|0:0,0:0:0:0:
148,124,143664,1,0,0:0:0:0:
132,176,143783,5,8,0:0:0:0:
80,248,144021,2,0,B|32:312,2,80,0|0|0,0:0|3:0|0:0,0:0:0:0:
156,292,144735,2,0,P|156:340|196:372,1,80,8|0,0:0|0:0,0:0:0:0:
256,328,145211,1,0,3:0:0:0:
336,368,145449,2,0,P|356:344|356:296,2,80,0|8|0,0:0|0:0|0:0,0:0:0:0:
256,328,146164,1,0,3:0:0:0:
176,188,146402,5,0,0:0:0:0:
256,224,146640,1,8,0:0:0:0:
336,188,146878,1,0,0:0:0:0:
336,100,147116,1,0,3:0:0:0:
256,68,147354,1,0,0:0:0:0:
176,100,147592,1,8,0:0:0:0:
256,144,147830,2,0,B|256:224,2,80,0|0|0,0:0|3:0|0:0,0:0:0:0:
336,188,148545,1,8,0:0:0:0:
336,188,148783,6,0,B|400:240,1,80,0|0,0:0|3:0,0:0:0:0:
340,304,149259,2,0,P|376:328|432:316,1,80,0|8,0:0|0:0,0:0:0:0:
480,276,149735,2,0,P|488:224|464:176,1,80
436,124,150211,2,0,B|360:64,1,80,0|8,0:0|0:0,0:0:0:0:
284,80,150688,1,0,0:0:0:0:
284,80,150926,6,0,B|188:48,2,80,0|0|8,3:0|0:0|0:0,0:0:0:0:
256,164,151640,2,0,B|216:236,1,80,0|0,0:0|3:0,0:0:0:0:
176,312,152116,2,0,B|212:248,1,40
240,272,152354,2,0,P|284:296|320:292,1,80,8|0,0:0|0:0,0:0:0:0:
296,212,152830,5,0,0:0:0:0:
368,164,153068,1,8,0:0:0:0:
388,80,153306,1,0,0:0:0:0:
312,36,153545,1,0,3:0:0:0:
216,212,153783,5,0,0:0:0:0:
144,164,154021,1,8,0:0:0:0:
124,80,154259,1,0,0:0:0:0:
200,36,154498,1,0,3:0:0:0:
256,192,154735,12,0,155926,0:0:0:0:
152,132,162354,6,0,B|196:60|328:60|364:144,1,240.000009155274,0|0,3:0|0:0,0:0:0:0:
308,168,163545,2,0,P|256:144|200:172,1,120.000004577637
256,212,164259,1,0,3:0:0:0:
368,316,164973,2,0,P|420:340|476:312,1,120.000004577637
420,272,165687,1,0,0:0:0:0:
420,212,165925,1,0,3:0:0:0:
80,192,166640,5,0,3:0:0:0:
136,88,167116,1,0,3:0:0:0:
192,192,167592,1,0,3:0:0:0:
256,88,168069,1,0,3:0:0:0:
288,136,168307,1,0,3:0:0:0:
320,88,168545,1,0,3:0:0:0:
352,136,168783,1,0,3:0:0:0:
384,88,169021,2,0,P|432:136|416:200,1,120.000004577637
304,312,169735,1,0,0:0:0:0:
304,312,169973,6,0,B|208:312,1,80,4|0,3:2|0:0,0:0:0:0:
192,240,170449,2,0,B|144:304,2,80,8|0|0,0:0|0:0|3:0,0:0:0:0:
128,192,171164,1,0,0:0:0:0:
56,168,171402,1,8,0:0:0:0:
120,120,171640,1,0,0:0:0:0:
44,96,171878,1,0,3:0:0:0:
120,120,172116,2,0,B|220:112,1,80,0|8,0:0|0:0,0:0:0:0:
252,40,172592,6,0,B|164:16,2,80,0|0|0,0:0|3:0|0:0,0:0:0:0:
320,96,173307,1,8,0:0:0:0:
320,96,173545,1,0,0:0:0:0:
392,44,173783,2,0,B|424:80|404:132,1,80,0|0,3:0|0:0,0:0:0:0:
348,184,174259,2,0,B|268:240,1,80,8|0,0:0|0:0,0:0:0:0:
340,296,174735,1,0,3:0:0:0:
256,328,174973,2,0,B|176:336,1,80,0|8,0:0|0:0,0:0:0:0:
140,256,175449,6,0,B|68:200,1,80,0|0,0:0|3:0,0:0:0:0:
120,128,175926,2,0,B|200:124,2,80,0|8|0,0:0|0:0|0:0,0:0:0:0:
164,52,176640,1,0,3:0:0:0:
208,56,176759,1,0,0:0:0:0:
252,52,176878,1,0,0:0:0:0:
296,128,177116,1,8,0:0:0:0:
384,132,177354,1,0,0:0:0:0:
296,128,177592,6,0,B|328:224,2,80,0|0|8,3:0|0:0|0:0,0:0:0:0:
384,132,178307,1,0,0:0:0:0:
464,100,178545,2,0,P|472:144|444:192,1,80,0|0,3:0|0:0,0:0:0:0:
376,196,179021,1,8,0:0:0:0:
344,224,179140,1,0,0:0:0:0:
300,228,179259,1,0,0:0:0:0:
300,228,179497,6,0,B|328:268|320:308,2,80,0|0|8,3:0|0:0|0:0,0:0:0:0:
236,288,180211,2,0,B|164:328,1,80,0|0,0:0|3:0,0:0:0:0:
144,240,180688,2,0,B|64:216,1,80,0|8,0:0|0:0,0:0:0:0:
72,128,181164,2,0,B|142:89,1,80,0|0,0:0|3:0,0:0:0:0:
224,60,181640,2,0,B|304:68,2,80,0|8|0,0:0|0:0|0:0,0:0:0:0:
216,148,182354,5,0,3:0:0:0:
252,228,182592,1,0,0:0:0:0:
336,204,182830,1,8,0:0:0:0:
308,120,183069,1,0,0:0:0:0:
308,120,183307,6,0,B|404:132,1,80,0|0,3:0|0:0,0:0:0:0:
336,204,183783,2,0,B|344:292,1,80,8|0,0:0|0:0,0:0:0:0:
264,320,184259,2,0,B|188:292,1,80,0|0,3:0|0:0,0:0:0:0:
164,208,184735,2,0,B|72:264,1,80,8|0,0:0|0:0,0:0:0:0:
96,160,185211,5,4,3:2:0:0:
152,92,185449,1,0,0:0:0:0:
240,96,185688,1,8,0:0:0:0:
240,96,185807,1,0,0:0:0:0:
240,96,185926,2,0,B|332:128,1,80,0|0,0:0|3:0,0:0:0:0:
372,192,186402,2,0,B|460:192,2,80,0|8|0,0:0|0:0|0:0,0:0:0:0:
292,232,187116,2,0,P|300:284|272:336,2,80,0|0|8,3:0|0:0|0:0,0:0:0:0:
212,272,187830,5,0,0:0:0:0:
132,312,188069,1,0,3:0:0:0:
72,248,188307,1,0,0:0:0:0:
72,248,188426,1,0,0:0:0:0:
72,248,188545,2,0,B|32:224|48:160,1,80,8|0,0:0|0:0,0:0:0:0:
120,144,189021,2,0,B|200:144,1,80,0|0,3:0|0:0,0:0:0:0:
200,64,189497,6,0,B|112:64,2,80,8|0|0,0:0|0:0|3:0,0:0:0:0:
264,112,190211,2,0,B|320:168,1,80,0|8,0:0|0:0,0:0:0:0:
400,168,190688,1,0,0:0:0:0:
400,248,190926,1,0,3:0:0:0:
320,256,191164,1,0,0:0:0:0:
256,312,191402,1,8,0:0:0:0:
256,312,191640,6,0,P|220:336|152:340,1,80,0|0,0:0|3:0,0:0:0:0:
96,356,192116,1,0,0:0:0:0:
72,320,192235,1,0,0:0:0:0:
100,288,192354,2,0,B|148:208,1,80,8|0,0:0|0:0,0:0:0:0:
72,168,192830,2,0,B|120:96,1,80,0|0,3:0|0:0,0:0:0:0:
204,104,193307,2,0,B|249:171,1,80,8|0,0:0|0:0,0:0:0:0:
336,168,193783,2,0,L|336:264,1,80,0|0,3:0|0:0,0:0:0:0:
416,208,194259,5,8,0:0:0:0:
464,136,194497,1,0,0:0:0:0:
388,92,194735,2,0,P|375:55|338:43,2,80,0|0|8,3:0|0:0|0:0,0:0:0:0:
336,168,195449,2,0,B|288:240,1,80,0|0,0:0|3:0,0:0:0:0:
256,316,195926,2,0,B|212:250,1,80,0|8,0:0|0:0,0:0:0:0:
184,164,196402,2,0,P|224:140|240:112,2,80,0|0|0,0:0|3:0|0:0,0:0:0:0:
196,252,197116,5,8,0:0:0:0:
256,316,197354,1,0,0:0:0:0:
316,252,197592,1,0,3:0:0:0:
256,188,197830,1,0,0:0:0:0:
256,188,198069,2,0,L|256:108,1,80,8|8,0:0|0:0,0:0:0:0:
256,192,198545,12,0,201402,0:0:0:0:
