osu file format v9

[General]
AudioFilename: 2NE1 - Apa (Slow).mp3
AudioLeadIn: 2000
PreviewTime: 110551
Countdown: 0
SampleSet: Soft
StackLeniency: 0.7
Mode: 0
LetterboxInBreaks: 1

[Editor]
Bookmarks: 6767,19740,32713,45686,58659,84605,97578,110551,123524,136497,159199,172172,185145,188389,198118,211091,237037
DistanceSpacing: 1.1
BeatDivisor: 4
GridSize: 8

[Metadata]
Title:It Hurts
Artist:2NE1
Creator:Lizbeth
Version:Walking
Source:
Tags:Apa (Slow) To Anyone

[Difficulty]
HPDrainRate:3
CircleSize:3
OverallDifficulty:4
ApproachRate:4
SliderMultiplier:1.5
SliderTickRate:1

[Events]
//Background and Video events
0,0,"astomoe.jpg"
//Break Periods
2,97778,105988
//Storyboard Layer 0 (Background)
//Storyboard Layer 1 (Fail)
//Storyboard Layer 2 (Pass)
//Storyboard Layer 3 (Foreground)
//Storyboard Sound Samples
//Background Colour Transformations
3,100,163,162,255

[TimingPoints]
281,810.810810810811,4,2,1,30,1,0
483,-100,4,2,1,40,0,0
1294,-100,4,2,1,30,0,0
1699,-100,4,2,1,40,0,0
2105,-100,4,2,1,30,0,0
2510,-100,4,2,1,40,0,0
3422,-100,4,2,1,30,0,0
3625,-100,4,2,1,40,0,0
4639,-100,4,2,1,30,0,0
5652,-100,4,2,1,40,0,0
6564,-100,4,2,0,30,0,0
6970,-100,4,2,1,40,0,0
8591,-100,4,2,1,30,0,0
8997,-100,4,2,1,40,0,0
9301,-100,4,2,1,30,0,0
9605,-100,4,2,1,40,0,0
11835,-100,4,2,1,30,0,0
12240,-100,4,2,1,40,0,0
12544,-100,4,2,1,30,0,0
12848,-100,4,2,1,40,0,0
15078,-100,4,2,1,30,0,0
15483,-100,4,2,1,40,0,0
15787,-100,4,2,1,30,0,0
16091,-100,4,2,1,40,0,0
18321,-100,4,2,1,30,0,0
18726,-100,4,2,1,40,0,0
19031,-100,4,2,1,30,0,0
19335,-100,4,2,1,40,0,0
21564,-100,4,2,1,30,0,0
21970,-100,4,2,1,40,0,0
22274,-100,4,2,1,30,0,0
22578,-100,4,2,1,40,0,0
24808,-100,4,2,1,30,0,0
25213,-100,4,2,1,40,0,0
25517,-100,4,2,1,30,0,0
25821,-100,4,2,1,40,0,0
28051,-100,4,2,1,30,0,0
28456,-100,4,2,1,40,0,0
28760,-100,4,2,1,30,0,0
29064,-100,4,2,1,40,0,0
31294,-100,4,2,1,30,0,0
31699,-100,4,2,1,40,0,0
32003,-100,4,2,1,30,0,0
32308,-100,4,2,1,40,0,0
34537,-100,4,2,1,30,0,0
34943,-100,4,2,1,40,0,0
35247,-100,4,2,1,30,0,0
35551,-100,4,2,1,40,0,0
37781,-100,4,2,1,30,0,0
38186,-100,4,2,1,40,0,0
38490,-100,4,2,1,30,0,0
38794,-100,4,2,1,40,0,0
41024,-100,4,2,1,30,0,0
41429,-100,4,2,1,40,0,0
41733,-100,4,2,1,30,0,0
42037,-100,4,2,1,40,0,0
44267,-100,4,2,1,30,0,0
44672,-100,4,2,1,40,0,0
44976,-100,4,2,1,30,0,0
45281,-100,4,2,1,40,0,0
47510,-100,4,2,1,30,0,0
47916,-100,4,2,1,40,0,0
48220,-100,4,2,1,30,0,0
48524,-100,4,2,1,40,0,0
50753,-100,4,2,1,30,0,0
51159,-100,4,2,1,40,0,0
51463,-100,4,2,1,30,0,0
51767,-100,4,2,1,40,0,0
53997,-100,4,2,1,30,0,0
54402,-100,4,2,1,40,0,0
54706,-100,4,2,1,30,0,0
55010,-100,4,2,1,40,0,0
58456,-100,4,2,0,40,0,0
58862,-100,4,2,1,40,0,0
59672,-100,4,2,1,30,0,0
60078,-100,4,2,1,40,0,0
60585,-100,4,2,1,20,0,0
60889,-100,4,2,1,40,0,0
61699,-100,4,2,0,40,0,0
62105,-100,4,2,1,40,0,0
62916,-100,4,2,1,30,0,0
63321,-100,4,2,1,40,0,0
63828,-100,4,2,1,20,0,0
64132,-100,4,2,1,40,0,0
64943,-100,4,2,0,40,0,0
65348,-100,4,2,1,40,0,0
66159,-100,4,2,1,30,0,0
66564,-100,4,2,1,40,0,0
67071,-100,4,2,1,20,0,0
67375,-100,4,2,1,40,0,0
68186,-100,4,2,0,40,0,0
68591,-100,4,2,1,40,0,0
69402,-100,4,2,1,30,0,0
69808,-100,4,2,1,40,0,0
70213,-100,4,2,1,20,0,0
70618,-100,4,2,1,40,0,0
71429,-100,4,2,0,40,0,0
71835,-100,4,2,1,40,0,0
72645,-100,4,2,1,30,0,0
73051,-100,4,2,1,40,0,0
73659,-100,4,2,1,20,0,0
73760,-100,4,2,1,40,0,0
74672,-100,4,2,0,40,0,0
75078,-100,4,2,0,40,0,0
75889,-100,4,2,1,30,0,0
76294,-100,4,2,1,40,0,0
76801,-100,4,2,1,20,0,0
77105,-100,4,2,1,40,0,0
77916,-100,4,2,0,40,0,0
83997,-100,4,2,1,40,0,0
106902,-100,4,2,0,20,0,0
108017,-100,4,2,0,31,0,0
108828,-100,4,2,0,40,0,0
109132,-100,4,2,1,30,0,0
109537,-100,4,2,0,40,0,0
109841,-100,4,2,1,30,0,0
110145,-100,4,2,1,40,0,0
112375,-100,4,2,1,30,0,0
112781,-100,4,2,1,40,0,0
113085,-100,4,2,1,30,0,0
113389,-100,4,2,1,40,0,0
115618,-100,4,2,1,30,0,0
116024,-100,4,2,1,40,0,0
116328,-100,4,2,1,30,0,0
116632,-100,4,2,1,40,0,0
118862,-100,4,2,1,30,0,0
119267,-100,4,2,1,40,0,0
119571,-100,4,2,1,30,0,0
119875,-100,4,2,1,40,0,0
122105,-100,4,2,1,30,0,0
122510,-100,4,2,1,40,0,0
122814,-100,4,2,1,30,0,0
123118,-100,4,2,1,40,0,0
125348,-100,4,2,1,30,0,0
125753,-100,4,2,1,40,0,0
126058,-100,4,2,1,30,0,0
126362,-100,4,2,1,40,0,0
128591,-100,4,2,1,30,0,0
128997,-100,4,2,1,40,0,0
129301,-100,4,2,1,30,0,0
129605,-100,4,2,1,40,0,0
131835,-100,4,2,1,30,0,0
132240,-100,4,2,1,40,0,0
132544,-100,4,2,1,30,0,0
132747,-100,4,2,1,40,0,0
135483,-100,4,2,0,40,0,0
135889,-100,4,2,1,40,0,0
136294,-100,4,2,0,40,0,0
136699,-100,4,2,1,40,0,0
137510,-100,4,2,1,30,0,0
137916,-100,4,2,1,40,0,0
138422,-100,4,2,1,20,0,0
138726,-100,4,2,0,40,0,0
139943,-100,4,2,1,40,0,0
140753,-100,4,2,1,20,0,0
141159,-100,4,2,1,40,0,0
141666,-100,4,2,1,20,0,0
141970,-100,4,2,0,40,0,0
143389,-100,4,2,1,40,0,0
143997,-100,4,2,1,20,0,0
144402,-100,4,2,1,40,0,0
144909,-100,4,2,1,20,0,0
145213,-100,4,2,0,40,0,0
146632,-100,4,2,1,40,0,0
147240,-100,4,2,1,30,0,0
147645,-100,4,2,1,40,0,0
148152,-100,4,2,1,21,0,0
148456,-100,4,2,0,40,0,0
149672,-100,4,2,1,40,0,0
150483,-100,4,2,1,30,0,0
150889,-100,4,2,1,40,0,0
151497,-100,4,2,1,20,0,0
151598,-100,4,2,0,40,0,0
153118,-100,4,2,1,40,0,0
153726,-100,4,2,1,30,0,0
154132,-100,4,2,0,40,0,0
158997,-100,4,2,0,30,0,0
159402,-100,4,2,0,40,0,0
164064,-200,4,2,1,40,0,0
165382,-100,4,2,0,50,0,0
166902,-100,4,2,1,40,0,0
167206,-100,4,2,1,50,0,0
167510,-100,4,2,1,40,0,0
167916,-100,4,2,0,50,0,0
169132,-100,4,2,1,40,0,0
169537,-100,4,2,1,50,0,0
170145,-100,4,2,1,40,0,0
170449,-100,4,2,1,50,0,0
170753,-100,4,2,1,40,0,0
171159,-100,4,2,1,50,0,0
171564,-100,4,2,1,40,0,0
171970,-100,4,2,0,50,0,0
173186,-100,4,2,1,40,0,0
173591,-100,4,2,0,50,0,0
173997,-100,4,2,1,40,0,0
174402,-100,4,2,0,50,0,0
179875,-100,4,2,1,40,0,0
180179,-100,4,2,1,50,0,0
181801,-100,4,2,0,50,0,0
182105,-100,4,2,1,50,0,0
182916,-100,4,2,1,40,0,0
183321,-100,4,2,1,50,0,0
183828,-100,4,2,1,40,0,0
184132,-100,4,2,1,50,0,0
184436,-100,4,2,1,40,0,0
184639,-100,4,2,0,50,0,0

[Colours]
Combo1 : 255,189,89
Combo2 : 128,255,128
Combo3 : 91,173,255
Combo4 : 255,128,192

[HitObjects]
280,48,281,1,4
280,48,686,2,0,B|200:48,1,75
168,120,1497,1,4
168,120,1902,2,0,B|72:120,1,75,0|4
72,200,2713,5,0
72,200,3118,2,0,B|48:248|80:288,1,75,0|4
184,152,4335,2,0,B|208:200|176:240,1,75,0|4
312,80,5551,2,0,B|288:128|320:168,2,75,4|0|0
392,88,6767,5,4
448,152,7172,1,0
432,232,7578,1,8
360,272,7983,1,0
288,232,8389,2,0,B|200:232,1,75,0|4
176,160,9199,2,0,B|251:160,1,75,8|0
288,88,10010,5,0
224,32,10416,1,0
144,24,10821,1,8
72,64,11226,1,0
40,136,11632,2,0,B|24:176|48:224,1,75,0|4
120,224,12443,2,0,B|136:264|120:304,1,75,8|0
200,328,13253,5,0
280,328,13659,1,0
360,328,14064,1,8
440,328,14470,1,0
488,256,14875,2,0,B|504:208|472:168,1,75,0|4
408,224,15686,2,0,B|328:224,1,75,8|0
304,144,16497,6,0,B|272:64,1,75
192,128,17308,2,0,B|248:192,1,75,8|0
200,248,18118,2,0,B|120:216,1,75,0|4
117,328,18929,2,0,B|192:328,1,75,8|0
272,336,19740,5,0
272,336,20145,1,0
344,304,20551,1,8
344,304,20956,1,0
400,248,21362,2,0,B|400:168,1,75,0|4
320,144,22172,2,0,B|320:40,1,75,8|0
240,56,22983,5,0
160,56,23389,1,0
88,96,23794,1,8
8,96,24199,1,0
48,168,24605,2,0,B|88:208|72:264,1,75,0|4
8,280,25416,2,0,B|0:328|32:352,1,75,8|0
96,304,26226,6,0,B|184:304,1,75
200,224,27037,2,0,B|288:224,1,75,8|0
320,152,27848,2,0,B|400:152,1,75,0|4
424,72,28659,2,0,B|512:72,1,75,8|0
512,152,29470,5,0
456,216,29875,1,0
400,280,30281,1,8
336,336,30686,1,0
256,328,31091,2,0,B|272:272|224:232,1,75,0|4
168,288,31902,2,0,B|136:240|160:200,1,75,8|0
96,160,32713,5,0
96,160,33118,1,0
120,80,33524,1,8
120,80,33929,1,0
200,64,34335,2,0,B|280:64,1,75,0|4
320,128,35145,2,0,B|416:128,1,75,8|0
456,184,35956,5,0
456,184,36362,1,0
472,264,36767,1,8
472,264,37172,1,0
416,320,37578,2,0,B|384:352|336:328,1,75,0|4
328,256,38389,2,0,B|280:240|248:272,1,75,8|0
184,304,39199,5,0
104,288,39605,1,0
48,224,40010,1,8
72,144,40416,1,0
128,200,40821,2,0,B|224:200,1,75,0|4
216,120,41632,2,0,B|304:120,1,75,8|0
376,136,42443,6,0,B|448:168,1,75
373,253,43253,2,0,B|320:200,1,75,8|0
248,232,44064,2,0,B|272:304,1,75,0|4
152,312,44875,2,0,B|164:238,1,75,8|0
120,168,45686,5,0
56,120,46091,1,0
104,56,46497,1,8
168,104,46902,1,0
232,160,47308,2,0,B|328:160,1,75,0|4
344,232,48118,2,0,B|256:232,1,75,8|0
200,280,48929,5,0
128,320,49335,1,0
88,248,49740,1,8
160,200,50145,1,0
112,128,50551,2,0,B|112:48,1,75,0|4
184,16,51362,2,0,B|184:96,1,75,8|0
264,72,52172,6,0,B|304:48|352:80,1,75
376,144,52983,2,0,B|336:168|288:136,1,75,8|0
368,232,53794,2,0,B|408:208|456:240,1,75,0|4
480,304,54605,2,0,B|440:328|392:296,1,75,8|0
328,328,55416,6,0,B|144:328,1,150,0|8
178,328,56632,1,0
88,192,57443,2,0,B|13:192,2,75,0|8|0
152,136,58659,6,0,B|168:40|280:56,1,150,4|8
240,136,59875,2,0,B|408:136,1,150,4|4
390,136,61091,1,8
496,264,61902,6,0,B|328:264,1,150,4|8
360,344,63118,2,0,B|256:344|264:232,1,150,4|4
263,254,64335,1,8
120,336,65145,6,0,B|48:288|80:176,1,150,4|8
152,232,66362,2,0,B|152:80,1,150,4|4
152,82,67578,1,8
320,80,68389,6,0,B|400:48|496:88,1,150,4|8
448,160,69605,2,0,B|448:320,1,150,4|4
448,310,70821,1,8
312,208,71632,6,0,B|208:200|240:216|136:208,1,150,4|8
162,209,72848,1,4
80,208,73253,2,0,B|48:208,6,25,0|0|0|4|0|0|8
176,344,74875,6,0,B|248:368|304:320|296:256,1,150,4|8
216,264,76091,2,0,B|216:96,1,150,4|4
216,114,77308,1,8
368,40,78118,6,0,B|416:96|408:192,1,150,4|8
296,304,79740,2,0,B|240:240|264:144,1,150,4|8
392,48,81362,6,0,B|440:104|432:200,1,150,4|8
320,312,82984,2,0,B|264:248|288:152,1,150,4|8
283,171,84199,1,0
256,96,84605,6,0,B|208:40,1,75,2|0
168,112,85416,2,0,B|216:168,1,75,2|0
144,200,86226,2,0,B|96:144,1,75,2|0
56,216,87037,2,0,B|104:272,1,75,2|0
104,272,87848,5,2
104,272,88253,1,0
176,312,88659,1,2
176,312,89064,1,0
256,312,89470,1,2
256,312,89875,1,0
328,272,90281,1,2
328,272,90686,1,0
368,208,91091,6,0,B|400:176|376:112,1,75,2|0
320,88,91902,2,0,B|288:128|312:168,1,75,2|0
376,216,92713,2,0,B|408:184|384:120,1,75,2|0
328,96,93524,2,0,B|296:136|320:176,1,75,2|0
314,165,94335,6,0,B|224:168,1,75,2|0
264,248,95145,2,0,B|184:248,1,75,2|0
160,168,95956,2,0,B|64:168,1,75,2|0
88,248,96767,2,0,B|-8:248,1,75,2|0
13,248,97578,1,2
64,176,107308,6,0,B|48:72|168:64,2,150,4|4|4
144,152,109335,2,0,B|248:152,2,75,4|0|0
144,152,110551,5,0
88,208,110956,1,0
88,288,111362,1,8
152,344,111767,1,0
224,296,112172,2,0,B|304:296,1,75,0|4
320,216,112983,2,0,B|408:216,1,75,8|0
408,136,113794,5,0
352,80,114199,1,0
272,56,114605,1,8
192,72,115010,1,0
160,144,115416,2,0,B|176:200|152:240,1,75,0|4
80,200,116226,2,0,B|56:240|88:288,1,75,8|0
136,328,117037,5,0
136,328,117443,1,0
208,288,117848,1,8
208,288,118253,1,0
280,328,118659,2,0,B|360:328,1,75,0|4
424,280,119470,2,0,B|512:280,1,75,8|0
488,200,120281,6,0,B|488:112,1,75
408,96,121091,2,0,B|408:184,1,75,8|0
328,200,121902,2,0,B|328:112,1,75,0|4
248,96,122713,2,0,B|248:192,1,75,8|0
168,144,123524,5,0
128,216,123929,1,0
48,224,124335,1,8
0,296,124740,1,0
64,344,125145,2,0,B|96:376|168:360,1,75,0|4
192,312,125956,2,0,B|240:288|288:320,1,75,8|0
336,344,126767,5,0
392,280,127172,1,0
440,216,127578,1,8
488,152,127983,1,0
440,88,128389,2,0,B|416:40|352:56,1,75,0|4
336,120,129199,2,0,B|288:120|272:72,1,75,8|0
208,40,130010,5,0
128,40,130416,1,0
160,112,130821,1,8
80,112,131226,1,0
40,184,131632,2,0,B|144:184,1,75,0|4
80,264,132443,2,0,B|-16:264,1,75,8|0
32,344,133253,6,0,B|112:352|96:336|200:344,1,150
168,264,134470,2,0,B|248:272|232:256|336:264,1,150,0|0
312,344,135686,1,4
392,336,136091,1,0
472,352,136497,6,0,B|512:280|472:184,1,150,4|8
400,224,137713,2,0,B|368:152|400:64,1,150,4|4
395,77,138929,1,8
232,72,139740,6,0,B|152:48|80:96,1,150,4|8
136,160,140956,2,0,B|96:216|-24:200,1,150,4|4
0,202,142172,1,8
120,312,142983,6,0,B|152:240|248:232,1,150,4|8
248,312,144199,2,0,B|336:304|376:232,1,150,4|4
372,238,145416,1,8
312,88,146226,6,0,B|152:88,1,150,4|8
176,168,147443,2,0,B|24:168,1,150,4|4
26,168,148659,1,8
160,72,149470,6,0,B|224:24|312:48,1,150,4|8
302,45,150686,1,4
344,112,151091,2,0,B|368:144,6,25,0|0|0|4|0|0|8
288,184,152308,5,0
288,184,152713,2,0,B|120:184,1,150,4|8
168,264,153929,2,0,B|18:264,1,150,4|0
18,264,155145,1,8
48,184,155551,5,0
96,120,155956,2,0,B|152:56|240:72,1,150,4|8
240,232,157578,2,0,B|318:246|374:182,1,150,4|8
374,183,158794,1,0
374,183,159199,1,4
264,64,160010,5,8
264,64,160821,2,0,B|160:64,2,75,0|0|8
328,112,162037,1,0
328,112,162443,2,0,B|352:192|328:272,1,150,0|8
331,260,163659,1,0
192,304,164470,6,0,B|120:304,1,56.25,4|4
96,184,165686,6,0,B|64:80|160:48,1,150,4|8
168,136,166902,2,0,B|264:136,3,75,0|0|0|8
392,56,168929,6,0,B|392:216,1,150,4|8
472,216,170145,2,0,B|472:272|408:288,3,75,0|0|0|8
280,328,172172,6,0,B|280:168,1,150,0|8
192,304,173794,2,0,B|192:144,1,150,0|8
104,272,175416,2,0,B|104:120,1,150,0|8
24,224,177037,2,0,B|24:64,1,150,0|8
24,74,178253,1,0
184,40,179064,6,0,B|224:72|216:136,1,75,0|8
240,272,180281,2,0,B|200:232|216:184,1,75,0|8
328,96,181497,5,0
328,96,181902,2,0,B|448:96,1,112.5,4|0
384,208,183118,2,0,B|248:208,1,112.5,4|0
208,320,184335,2,0,B|304:320,2,75,0|0|4
256,192,185348,12,0,188389
