osu file format v9

[General]
AudioFilename: 2NE1 - Apa (Slow).mp3
AudioLeadIn: 2000
PreviewTime: 110551
Countdown: 0
SampleSet: Soft
StackLeniency: 0.7
Mode: 0
LetterboxInBreaks: 1

[Editor]
Bookmarks: 6767,19740,32713,45686,58659,84605,97578,110551,123524,136497,159199,172172,185145,188389,198118,211091,237037
DistanceSpacing: 1.1
BeatDivisor: 4
GridSize: 8

[Metadata]
Title:It Hurts
Artist:2NE1
Creator:Lizbeth
Version:Dancing
Source:
Tags:Apa (Slow) To Anyone

[Difficulty]
HPDrainRate:7
CircleSize:4
OverallDifficulty:6
ApproachRate:6
SliderMultiplier:1.6
SliderTickRate:1

[Events]
//Background and Video events
0,0,"astomoe.jpg"
//Break Periods
2,97778,106258
//Storyboard Layer 0 (Background)
//Storyboard Layer 1 (Fail)
//Storyboard Layer 2 (Pass)
//Storyboard Layer 3 (Foreground)
//Storyboard Sound Samples
//Background Colour Transformations
3,100,163,162,255

[TimingPoints]
281,810.810810810811,4,2,1,30,1,0
483,-100,4,2,1,40,0,0
1294,-100,4,2,1,30,0,0
1699,-100,4,2,1,40,0,0
2105,-100,4,2,1,30,0,0
2510,-100,4,2,1,40,0,0
2814,-100,4,2,1,30,0,0
3017,-100,4,2,1,40,0,0
3422,-100,4,2,1,30,0,0
3625,-100,4,2,1,40,0,0
4639,-100,4,2,1,30,0,0
4841,-100,4,2,1,40,0,0
5449,-100,4,2,1,30,0,0
5652,-100,4,2,1,40,0,0
6767,-100,4,2,0,30,0,0
6970,-100,4,2,1,40,0,0
8591,-100,4,2,1,30,0,0
8997,-100,4,2,1,40,0,0
9301,-100,4,2,1,30,0,0
9605,-100,4,2,1,40,0,0
11835,-100,4,2,1,30,0,0
12240,-100,4,2,1,40,0,0
12544,-100,4,2,1,30,0,0
12848,-100,4,2,1,40,0,0
15078,-100,4,2,1,30,0,0
15483,-100,4,2,1,40,0,0
15787,-100,4,2,1,30,0,0
16091,-100,4,2,1,40,0,0
18321,-100,4,2,1,30,0,0
18726,-100,4,2,1,40,0,0
19031,-100,4,2,1,30,0,0
19335,-100,4,2,1,40,0,0
21564,-100,4,2,1,30,0,0
21970,-100,4,2,1,40,0,0
22274,-100,4,2,1,30,0,0
22578,-100,4,2,1,40,0,0
24808,-100,4,2,1,30,0,0
25213,-100,4,2,1,40,0,0
25517,-100,4,2,1,30,0,0
25821,-100,4,2,1,40,0,0
28051,-100,4,2,1,30,0,0
28456,-100,4,2,1,40,0,0
28760,-100,4,2,1,30,0,0
29064,-100,4,2,1,40,0,0
31294,-100,4,2,1,30,0,0
31699,-100,4,2,1,40,0,0
32003,-100,4,2,1,30,0,0
32308,-100,4,2,1,40,0,0
34537,-100,4,2,1,30,0,0
34943,-100,4,2,1,40,0,0
35247,-100,4,2,1,30,0,0
35551,-100,4,2,1,40,0,0
37781,-100,4,2,1,30,0,0
38186,-100,4,2,1,40,0,0
38490,-100,4,2,1,30,0,0
38794,-100,4,2,1,40,0,0
41024,-100,4,2,1,30,0,0
41429,-100,4,2,1,40,0,0
41733,-100,4,2,1,30,0,0
42037,-100,4,2,1,40,0,0
44267,-100,4,2,1,30,0,0
44672,-100,4,2,1,40,0,0
44976,-100,4,2,1,30,0,0
45281,-100,4,2,1,40,0,0
47510,-100,4,2,1,30,0,0
47916,-100,4,2,1,40,0,0
48220,-100,4,2,1,30,0,0
48524,-100,4,2,1,40,0,0
50753,-100,4,2,1,30,0,0
51159,-100,4,2,1,40,0,0
51463,-100,4,2,1,30,0,0
51767,-100,4,2,1,40,0,0
53997,-100,4,2,1,30,0,0
54402,-100,4,2,1,40,0,0
54706,-100,4,2,1,30,0,0
55010,-100,4,2,1,40,0,0
58456,-100,4,2,0,40,0,0
58862,-100,4,2,1,40,0,0
59672,-100,4,2,1,30,0,0
60078,-100,4,2,1,40,0,0
60585,-100,4,2,1,20,0,0
60889,-100,4,2,1,40,0,0
61699,-100,4,2,0,40,0,0
62105,-100,4,2,1,40,0,0
62916,-100,4,2,1,30,0,0
63321,-100,4,2,1,40,0,0
63828,-100,4,2,1,20,0,0
64132,-100,4,2,1,40,0,0
64943,-100,4,2,0,40,0,0
65348,-100,4,2,1,40,0,0
66159,-100,4,2,1,30,0,0
66564,-100,4,2,1,40,0,0
67071,-100,4,2,1,20,0,0
67375,-100,4,2,1,40,0,0
68186,-100,4,2,0,40,0,0
68591,-100,4,2,1,40,0,0
69402,-100,4,2,1,30,0,0
69808,-100,4,2,1,40,0,0
70213,-100,4,2,1,20,0,0
70618,-100,4,2,1,40,0,0
71429,-100,4,2,0,40,0,0
71835,-100,4,2,1,40,0,0
72645,-100,4,2,1,30,0,0
73051,-100,4,2,1,40,0,0
73659,-100,4,2,1,20,0,0
73760,-100,4,2,1,40,0,0
74672,-100,4,2,0,40,0,0
75078,-100,4,2,0,40,0,0
75889,-100,4,2,1,30,0,0
76294,-100,4,2,1,40,0,0
76801,-100,4,2,1,20,0,0
77105,-100,4,2,1,40,0,0
77916,-100,4,2,0,40,0,0
83997,-100,4,2,1,40,0,0
106902,-100,4,2,0,20,0,0
108017,-100,4,2,0,31,0,0
108828,-100,4,2,0,40,0,0
109132,-100,4,2,1,30,0,0
109537,-100,4,2,0,40,0,0
109841,-100,4,2,1,30,0,0
110145,-100,4,2,1,40,0,0
112375,-100,4,2,1,30,0,0
112781,-100,4,2,1,40,0,0
113085,-100,4,2,1,30,0,0
113389,-100,4,2,1,40,0,0
115618,-100,4,2,1,30,0,0
116024,-100,4,2,1,40,0,0
116328,-100,4,2,1,30,0,0
116632,-100,4,2,1,40,0,0
118862,-100,4,2,1,30,0,0
119267,-100,4,2,1,40,0,0
119571,-100,4,2,1,30,0,0
119875,-100,4,2,1,40,0,0
122105,-100,4,2,1,30,0,0
122510,-100,4,2,1,40,0,0
122814,-100,4,2,1,30,0,0
123118,-100,4,2,1,40,0,0
125348,-100,4,2,1,30,0,0
125753,-100,4,2,1,40,0,0
126058,-100,4,2,1,30,0,0
126362,-100,4,2,1,40,0,0
128591,-100,4,2,1,30,0,0
128997,-100,4,2,1,40,0,0
129301,-100,4,2,1,30,0,0
129605,-100,4,2,1,40,0,0
131835,-100,4,2,1,30,0,0
132240,-100,4,2,1,40,0,0
132544,-100,4,2,1,30,0,0
132747,-100,4,2,1,40,0,0
135483,-100,4,2,0,40,0,0
135889,-100,4,2,1,40,0,0
136294,-100,4,2,0,40,0,0
136699,-100,4,2,1,40,0,0
137510,-100,4,2,1,30,0,0
137916,-100,4,2,1,40,0,0
138422,-100,4,2,1,20,0,0
138726,-100,4,2,0,40,0,0
139943,-100,4,2,1,40,0,0
140753,-100,4,2,1,20,0,0
141159,-100,4,2,1,40,0,0
141666,-100,4,2,1,20,0,0
141970,-100,4,2,0,40,0,0
143389,-100,4,2,1,40,0,0
143997,-100,4,2,1,20,0,0
144402,-100,4,2,1,40,0,0
144909,-100,4,2,1,20,0,0
145213,-100,4,2,0,40,0,0
146632,-100,4,2,1,40,0,0
147240,-100,4,2,1,30,0,0
147645,-100,4,2,1,40,0,0
148152,-100,4,2,1,21,0,0
148456,-100,4,2,0,40,0,0
149672,-100,4,2,1,40,0,0
150483,-100,4,2,1,30,0,0
150889,-100,4,2,1,40,0,0
151497,-100,4,2,1,20,0,0
151598,-100,4,2,0,40,0,0
153118,-100,4,2,1,40,0,0
153726,-100,4,2,1,30,0,0
154132,-100,4,2,0,40,0,0
159199,-100,4,2,0,30,0,0
159402,-100,4,2,0,40,0,0
164064,-200,4,2,1,40,0,0
165382,-100,4,2,0,50,0,0
166902,-100,4,2,1,40,0,0
167206,-100,4,2,1,50,0,0
167510,-100,4,2,1,40,0,0
167916,-100,4,2,0,50,0,0
169132,-100,4,2,1,40,0,0
169537,-100,4,2,1,50,0,0
170145,-100,4,2,1,40,0,0
170449,-100,4,2,1,50,0,0
170753,-100,4,2,1,40,0,0
171159,-100,4,2,1,50,0,0
171564,-100,4,2,1,40,0,0
171970,-100,4,2,0,50,0,0
173186,-100,4,2,1,40,0,0
173591,-100,4,2,0,50,0,0
173997,-100,4,2,1,40,0,0
174402,-100,4,2,0,50,0,0
179875,-100,4,2,1,40,0,0
180179,-100,4,2,1,50,0,0
181801,-100,4,2,0,50,0,0
182105,-100,4,2,1,50,0,0
182916,-100,4,2,1,40,0,0
183321,-100,4,2,1,50,0,0
183828,-100,4,2,1,40,0,0
184132,-100,4,2,1,50,0,0
184436,-100,4,2,1,40,0,0
184639,-100,4,2,0,50,0,0

[Colours]
Combo1 : 255,189,89
Combo2 : 128,255,128
Combo3 : 91,173,255
Combo4 : 255,128,192

[HitObjects]
88,72,281,1,4
88,72,686,2,0,B|88:168,1,80
168,208,1497,1,4
168,208,1902,2,0,B|168:296,1,80,0|4
256,304,2713,2,0,B|256:232,1,40,0|4
256,192,3118,5,0
256,192,3321,1,8
256,192,3524,2,0,B|288:152|272:96,1,80,4|0
184,152,4335,1,0
184,152,4537,1,8
184,152,4740,2,0,B|152:192|160:240,1,80,4|0
184,264,5348,1,8
208,304,5551,2,0,B|216:352|168:376,1,80,4|4
178,370,6159,2,0,B|50:370,1,120,8|4
56,272,7172,5,0
40,176,7578,1,8
72,88,7983,1,0
160,48,8389,1,0
208,128,8794,2,0,B|248:160|312:128,1,80,4|8
336,80,9402,2,0,B|280:56|232:80,1,80,4|0
257,70,10010,5,0
304,152,10416,1,0
288,248,10821,1,8
216,312,11226,1,0
120,312,11632,1,0
56,240,12037,2,0,B|16:208|40:152,1,80,4|8
80,112,12645,2,0,B|120:144|96:208,1,80,4|0
102,184,13253,5,0
200,184,13659,1,0
280,232,14064,2,0,B|376:232,1,80,8|0
440,176,14875,1,0
424,80,15281,2,0,B|408:32|360:32,1,80,4|8
352,104,15889,2,0,B|304:96|296:48,1,80,4|0
298,52,16497,6,0,B|210:52,1,80
88,128,17308,2,0,B|176:128,1,80,8|0
296,200,18118,1,0
296,200,18524,2,0,B|240:200|240:264,1,80,4|8
256,328,19132,2,0,B|304:320|312:272,1,80,4|0
310,277,19740,5,0
384,216,20145,1,0
424,128,20551,1,8
400,32,20956,1,0
424,128,21362,1,0
488,200,21767,2,0,B|488:288,1,80,4|0
416,328,22375,2,0,B|416:248,1,80,4|0
416,248,22983,5,0
416,248,23389,1,0
352,176,23794,1,8
352,176,24199,1,0
272,120,24605,1,0
272,120,25010,2,0,B|232:80|176:136,1,80,4|8
232,176,25618,2,0,B|192:200|144:168,1,80,4|0
160,176,26226,6,0,B|109:249,1,80
240,256,27037,2,0,B|224:344,1,80,8|0
360,240,27848,2,0,B|384:320,1,80,0|4
432,144,28659,1,8
432,144,28862,2,0,B|496:224,1,80,4|0
481,206,29470,5,0
496,112,29875,1,0
440,32,30281,1,8
344,48,30686,1,0
304,136,31091,1,0
384,288,31497,2,0,B|392:224|312:224,1,80,4|8
304,288,32105,2,0,B|256:272|272:216,1,80,4|0
269,225,32713,6,0,B|176:224,1,80
136,144,33524,2,0,B|232:144,1,80,8|0
176,56,34335,1,0
64,56,34740,2,0,B|24:96|56:144,1,80,4|8
112,184,35348,2,0,B|112:104,1,80,4|0
112,104,35956,6,0,B|152:72|200:120,1,80
224,192,36767,2,0,B|264:224|304:184,1,80,8|0
336,104,37578,1,0
392,200,37983,2,0,B|432:224|472:192,1,80,4|8
504,136,38591,2,0,B|456:104|416:152,1,80,4|0
430,137,39199,5,0
456,232,39605,1,0
392,144,40010,1,8
416,240,40416,1,0
360,152,40821,1,0
384,248,41226,2,0,B|352:336,1,80,4|8
272,344,41835,2,0,B|296:264,1,80,4|0
295,266,42443,6,0,B|297:207|233:207,1,80
305,87,43253,2,0,B|247:72|232:135,1,80,8|0
113,63,44064,2,0,B|87:116|146:142,1,80,0|4
73,255,44875,1,8
73,255,45078,2,0,B|126:280|152:221,1,80,4|0
142,237,45686,5,0
240,240,46091,1,0
336,264,46497,1,8
408,328,46902,1,0
336,264,47308,1,0
296,176,47713,2,0,B|264:128|296:80,1,80,4|8
320,160,48321,2,0,B|288:112|320:64,1,80,4|0
309,84,48929,5,0
400,104,49335,1,0
416,200,49740,1,8
344,264,50145,1,0
256,224,50551,1,0
232,136,50956,2,0,B|136:136,1,80,4|8
192,112,51564,2,0,B|104:112,1,80,4|0
112,112,52172,6,0,B|112:192,1,80
200,224,52983,2,0,B|200:312,1,80,8|0
296,288,53794,1,0
376,336,54199,2,0,B|424:360|472:320,1,80,4|8
496,272,54808,2,0,B|448:248|408:272,1,80,4|0
424,264,55416,6,0,B|440:224|400:152,1,80
304,120,56226,2,0,B|288:176|321:202,2,80,8|0|0
384,64,57443,5,0
232,64,57848,1,8
88,64,58253,1,0
145,300,58659,6,0,B|176:224|144:144,1,160,4|8
144,144,59875,1,4
64,216,60281,2,0,B|72:240|48:264,2,40,0|0|4
240,192,61091,2,0,B|232:168|256:144,2,40,8|0|0
464,264,61902,6,0,B|304:264,1,160,4|8
304,264,63118,1,4
416,184,63524,2,0,B|360:184,2,40,0|0|4
336,352,64335,2,0,B|392:352,2,40,8|0|0
256,132,65145,6,0,B|224:208|296:200|264:288,1,160,4|8
264,285,66362,1,4
328,168,66767,2,0,B|368:168,2,40,0|0|4
192,248,67578,2,0,B|152:248,2,40,8|0|0
384,160,68389,6,0,B|264:160|280:288,1,160,4|8
376,264,69605,1,4
288,344,70010,2,0,B|200:344,1,80,0|4
96,256,70821,2,0,B|192:256,1,80,8|0
360,168,71632,6,0,B|184:168,1,160,4|8
248,80,72848,1,4
160,80,73253,2,0,B|120:80,6,26.6666666666667,0|0|0|4|0|0|8
154,219,74470,5,0
288,288,74875,2,0,B|240:200|128:224,1,160,4|8
154,219,76091,1,4
144,312,76497,2,0,B|112:312|96:280,2,40,0|0|4
280,160,77308,2,0,B|312:160|328:192,2,40,8|0|0
144,48,78118,6,0,B|112:144|192:200,1,160,4|8
88,192,79335,1,0
318,334,79740,2,0,B|349:240|280:192,1,160,4|8
384,192,80956,1,0
181,192,81362,2,0,B|112:144|144:48,1,160,4|8
318,334,82983,2,0,B|349:240|280:192,1,160,4|8
208,192,84098,2,0,B|176:192,1,20,0|0
64,64,84605,5,2
152,40,85010,1,0
152,40,85416,1,2
224,88,85821,1,0
224,88,86226,1,2
200,176,86632,2,0,B|184:224|224:256,1,80,0|2
272,200,87240,2,0,B|304:232|288:280,1,80,2|0
289,273,87848,5,2
368,312,88253,1,0
368,312,88659,1,2
448,288,89064,1,0
448,288,89470,1,2
480,208,89875,2,0,B|480:128,1,80,0|2
408,96,90483,2,0,B|408:176,1,80,2|0
408,176,91091,5,2
344,240,91497,2,0,B|296:264|256:232,1,80,0|2
208,128,92308,2,0,B|248:104|304:136,1,80,0|2
176,240,93119,2,0,B|136:264|80:232,1,80,0|2
99,241,93726,1,2
96,128,94132,5,0
96,128,94335,2,0,B|56:48,1,80,2|0
200,104,95145,2,0,B|200:24,1,80,2|0
312,104,95956,2,0,B|328:16,1,80,2|0
416,144,96767,1,2
416,144,96970,2,0,B|448:72,1,80,2|0
448,70,97578,1,2
176,336,107308,6,0,B|96:360|48:272,1,120,4|0
136,264,108118,2,0,B|208:280|248:224,1,120,4|0
176,192,108929,2,0,B|128:200|104:160,2,80,4|4|4
160,120,109943,2,0,B|128:72|64:104,1,80,4|0
90,93,110551,5,0
40,168,110956,1,0
64,256,111362,1,8
144,280,111767,1,0
208,216,112172,1,0
184,136,112578,2,0,B|280:136,1,80,4|8
224,64,113186,2,0,B|144:64,1,80,4|0
144,64,113794,5,0
192,136,114199,1,0
240,208,114605,1,8
288,280,115010,1,0
344,352,115416,1,0
408,296,115821,2,0,B|472:296|472:216,1,80,4|8
400,224,116429,2,0,B|400:176|464:176,1,80,4|0
452,176,117037,5,0
456,88,117443,1,0
368,32,117848,1,8
368,120,118253,1,0
288,168,118659,1,0
288,80,119064,2,0,B|192:80,1,80,4|8
152,40,119672,2,0,B|112:80|168:136,1,80,4|0
148,112,120281,6,0,B|96:200,1,80
152,320,121091,2,0,B|192:248,1,80,8|0
160,128,121902,2,0,B|107:215,1,80,0|4
163,335,122713,1,8
163,335,122916,2,0,B|203:263,1,80,4|0
201,265,123524,6,0,B|240:232|288:256,1,80
160,336,124335,2,0,B|128:368|80:336,1,80,8|0
192,208,125145,2,0,B|224:176|272:192,1,80,0|4
144,264,125956,1,8
144,264,126159,2,0,B|112:304|56:272,1,80,4|0
72,279,126767,5,0
72,192,127172,1,0
176,88,127578,1,8
176,176,127983,1,0
272,272,128389,1,0
272,184,128794,1,4
368,80,129199,1,8
368,80,129402,2,0,B|368:168,1,80,4|0
368,160,130010,5,0
424,232,130416,1,0
504,264,130821,1,8
424,232,131226,1,0
336,248,131632,1,0
256,296,132037,2,0,B|224:328|224:368,1,80
224,367,132645,1,4
96,344,133253,6,0,B|80:256|176:192,1,160,0|8
157,205,134470,1,0
432,136,135281,5,0
272,136,135686,1,4
112,136,136091,1,0
80,328,136497,6,0,B|72:224|176:200,1,160,4|8
158,204,137713,1,4
248,296,138118,1,0
288,312,138321,1,0
328,296,138524,1,4
400,192,138929,1,8
360,176,139132,1,0
320,192,139335,1,0
64,192,139740,6,0,B|128:184|168:208|240:192,1,160,4|8
223,195,140956,1,4
208,96,141362,1,0
240,64,141564,1,0
272,32,141767,1,4
408,48,142172,1,8
384,80,142375,1,0
352,112,142578,1,0
464,280,142983,6,0,B|416:200|312:200,1,160,4|8
332,200,144199,1,4
280,312,144605,1,0
232,312,144808,1,0
192,312,145010,1,4
72,232,145416,1,8
112,232,145618,1,0
160,232,145821,1,0
248,40,146226,6,0,B|240:136|256:104|248:216,1,160,4|8
249,199,147443,1,4
368,256,147848,1,0
344,208,148051,1,0
368,168,148253,1,4
480,144,148659,1,8
496,104,148862,1,0
472,72,149064,1,0
230,67,149470,6,0,B|296:24|384:64,1,160,4|0
383,63,150686,1,4
304,128,151091,2,0,B|304:176,6,26.6666666666667,0|0|0|4|0|0|8
216,104,152308,5,0
216,104,152713,2,0,B|120:112|104:224,1,160,4|8
192,240,153929,2,0,B|172:342|74:339,1,160,4|0
272,344,155145,6,4,B|256:288|320:256,1,80,8|0
376,320,155956,2,0,B|448:256|408:152,1,160,4|8
320,176,157172,1,0
136,64,157578,2,0,B|64:128|104:232,1,160,4|0
256,192,158794,2,0,B|256:248,2,40,0|0|4
48,48,160010,5,8
48,48,160821,2,0,B|80:80|80:144,1,80
96,216,161632,1,8
104,312,162037,1,0
104,312,162443,2,0,B|192:296|272:328,1,160,0|8
261,324,163659,1,0
384,80,164470,6,4,B|448:80,1,60
288,184,165686,6,0,B|120:184,1,160,4|8
40,296,167105,1,4
40,296,167308,2,0,B|128:296,2,80,0|4|8
272,88,168929,6,0,B|319:93|304:80|351:85,2,80,0|4|8
280,232,170348,1,4
280,232,170551,2,0,B|232:224|248:240|176:232,2,80,0|4|8
128,328,171767,5,4
128,328,172172,2,0,B|48:272|72:160,1,160,0|8
400,88,173389,1,4
400,88,173794,2,0,B|448:122|434:190,2,80,0|4|0
144,320,175010,5,0
144,320,175415,2,0,B|64:264|88:152,1,160,0|8
368,64,176632,1,0
368,64,177037,2,0,B|448:120|424:232,2,160,0|8|0
368,64,179064,5,0
368,64,179470,2,0,B|232:64,1,120,8|4
248,64,180281,1,0
56,160,180686,2,0,B|240:160,1,160
248,192,181699,1,8
280,224,181902,6,0,B|400:224,1,120,4|4
400,224,182713,1,8
208,296,183118,2,0,B|88:296,1,120,4|8
88,296,183929,1,4
256,136,184335,2,0,B|256:80,4,40,0|4|0|0|4
256,192,185348,12,0,188389
