osu file format v14

[General]
AudioFilename: I AM THE BEST.mp3
AudioLeadIn: 0
PreviewTime: 142238
Countdown: 0
SampleSet: None
StackLeniency: 0.7
Mode: 2
LetterboxInBreaks: 1
WidescreenStoryboard: 0

[Editor]
DistanceSpacing: 0.8
BeatDivisor: 4
GridSize: 4
TimelineZoom: 1.9

[Metadata]
Title:I AM THE BEST
TitleUnicode:내가 제일 잘 나가
Artist:2NE1
ArtistUnicode:2NE1
Creator:119410501
Version:Bam Ratatata Tatatatata
Source:
Tags:
BeatmapID:721515
BeatmapSetID:324775

[Difficulty]
HPDrainRate:7
CircleSize:3.8
OverallDifficulty:5
ApproachRate:9.2
SliderMultiplier:2.49999990463257
SliderTickRate:2

[Events]
//Background and Video events
0,0,"2ne1-i-am-the-best-wallpaper.jpg",0,0
//Break Periods
2,157709,171438
//Storyboard Layer 0 (Background)
//Storyboard Layer 1 (Fail)
//Storyboard Layer 2 (Pass)
//Storyboard Layer 3 (Foreground)
//Storyboard Sound Samples

[TimingPoints]
7686,468.82325363338,4,1,0,100,1,0
15538,-100,4,1,0,5,0,0
15655,-100,4,1,0,100,0,0
16007,-100,4,1,0,5,0,0
16124,-100,4,1,0,100,0,0
16476,-100,4,1,0,5,0,0
16593,-100,4,1,0,100,0,0
16945,-100,4,1,0,5,0,0
17062,-100,4,1,0,100,0,0
17414,-100,4,1,0,5,0,0
17531,-100,4,1,0,100,0,0
21164,-100,4,1,0,5,0,0
21281,-100,4,1,0,100,0,0
22219,-100,4,1,0,5,0,0
22579,-100,4,1,0,100,0,0
70156,-100,4,1,0,5,0,0
70273,-100,4,1,0,100,0,0
71328,-100,4,1,0,5,0,0
71445,-100,4,1,0,100,0,0
72266,-100,4,1,0,5,0,0
72383,-100,4,1,0,100,0,0
73204,-100,4,1,0,5,0,0
73321,-100,4,1,0,100,0,0
74376,-100,4,1,0,5,0,0
74493,-100,4,1,0,100,0,0
81174,-100,4,1,0,5,0,0
81291,-100,4,1,0,100,0,0
82463,-100,4,1,0,5,0,0
82697,-66.6666666666667,4,1,0,100,0,1
95824,-66.6666666666667,4,1,0,5,0,1
96762,-100,4,1,0,5,0,0
97700,-100,4,1,0,100,0,0
133213,-100,4,1,0,5,0,0
133330,-100,4,1,0,100,0,0
140831,-200,4,1,0,5,0,0
142707,-66.6666666666667,4,1,0,100,0,1
156185,-100,4,1,0,5,0,1
157240,-100,4,1,0,5,0,0
172711,-100,4,1,0,100,0,0
179509,-50,4,1,0,100,0,0
180212,-100,4,1,0,100,0,0
187714,-100,4,1,0,5,0,0
191464,-50,4,1,0,100,0,1
202716,-133.333333333333,4,1,0,100,0,1
204005,-100,4,1,0,5,0,1
204122,-100,4,1,0,100,0,1
204357,-100,4,1,0,100,0,0
204591,-100,4,1,0,100,0,0
205060,-50,4,1,0,100,0,0
205295,-100,4,1,0,5,0,0

[HitObjects]
32,192,7686,5,0,0:0:0:0:
32,192,8154,1,0,0:0:0:0:
32,192,8623,1,0,0:0:0:0:
488,192,9092,1,0,0:0:0:0:
488,192,9561,1,0,0:0:0:0:
488,192,10030,1,0,0:0:0:0:
488,192,10498,1,0,0:0:0:0:
408,192,10967,6,0,L|320:192,1,62.4999976158143
72,192,11202,1,0,0:0:0:0:
256,192,11436,1,0,0:0:0:0:
256,192,11905,1,0,0:0:0:0:
256,192,12374,1,0,0:0:0:0:
32,192,12843,1,0,0:0:0:0:
256,192,13311,1,0,0:0:0:0:
480,192,13780,1,0,0:0:0:0:
256,192,14249,1,0,0:0:0:0:
184,192,14718,6,0,L|72:192,1,62.4999976158143
336,192,14952,2,0,L|416:192,1,62.4999976158143
64,336,15187,2,0,L|64:120,1,187.499992847443
448,328,15655,2,0,L|448:120,1,187.499992847443
168,328,16124,2,0,L|168:112,1,187.499992847443
464,192,16593,2,0,L|264:192,1,187.499992847443
32,192,17062,2,0,L|248:192,1,187.499992847443
512,192,17531,1,0,0:0:0:0:
256,192,18000,1,0,0:0:0:0:
32,112,18468,6,0,L|136:112,1,62.4999976158143
208,112,18703,2,0,L|120:112,1,62.4999976158143
472,296,18937,2,0,L|472:32,1,249.999990463257
24,192,19640,1,0,0:0:0:0:
256,192,19875,1,0,0:0:0:0:
488,192,20344,6,0,L|368:192,1,62.4999976158143
0,192,20578,1,0,0:0:0:0:
488,192,20813,6,0,L|248:192,1,187.499992847443
16,192,21281,1,0,0:0:0:0:
256,192,21516,1,0,0:0:0:0:
16,192,21750,1,0,0:0:0:0:
424,272,22219,6,0,P|488:192|392:192,1,187.499992847443
72,256,22688,6,0,L|16:88,1,124.999995231629,4|0,0:0|0:0,0:0:0:0:
168,200,23039,1,0,0:0:0:0:
376,200,23157,1,8,0:0:0:0:
480,168,23391,2,0,L|480:56,1,62.4999976158143
296,176,23625,2,0,L|296:72,1,62.4999976158143
24,120,23860,1,0,0:0:0:0:
328,96,24094,6,0,L|464:96,1,124.999995231629,8|0,0:0|0:0,0:0:0:0:
48,96,24563,1,0,0:0:0:0:
288,96,24798,2,0,L|464:96,1,124.999995231629,0|8,0:0|0:0,0:0:0:0:
432,152,25266,2,0,L|360:152,1,62.4999976158143
32,184,25501,1,0,0:0:0:0:
480,256,25735,6,0,L|392:256,1,62.4999976158143
56,264,25970,1,4,0:0:0:0:
504,272,26204,1,0,0:0:0:0:
8,192,26438,6,0,L|192:192,1,124.999995231629
256,192,26790,1,0,0:0:0:0:
496,192,26907,2,0,L|376:192,1,62.4999976158143,8|0,0:0|0:0,0:0:0:0:
304,192,27142,2,0,L|392:192,1,62.4999976158143
216,192,27376,2,0,L|96:192,1,62.4999976158143
24,192,27611,2,0,L|112:192,1,62.4999976158143
256,136,27845,5,8,0:0:0:0:
104,296,28079,2,0,L|224:272,1,62.4999976158143
488,280,28314,1,0,0:0:0:0:
112,80,28548,1,0,0:0:0:0:
432,80,28783,1,8,0:0:0:0:
424,192,29017,5,0,0:0:0:0:
256,192,29134,1,0,0:0:0:0:
104,192,29251,1,0,0:0:0:0:
8,112,29486,5,0,0:0:0:0:
504,120,29603,1,0,0:0:0:0:
464,184,29720,2,0,L|304:184,1,124.999995231629,4|0,0:0|0:0,0:0:0:0:
16,160,30189,6,0,L|16:368,1,187.499992847443
448,328,30658,2,0,L|448:176,1,124.999995231629,8|0,0:0|0:0,0:0:0:0:
104,328,31127,2,0,L|104:192,1,124.999995231629
480,192,31595,1,8,0:0:0:0:
384,192,31830,6,0,L|304:192,1,62.4999976158143
504,192,32064,2,0,L|432:192,1,62.4999976158143
256,192,32299,1,0,0:0:0:0:
32,192,32533,1,8,0:0:0:0:
136,192,32768,2,0,L|232:192,1,62.4999976158143
480,192,33002,1,0,0:0:0:0:
352,192,33236,6,0,L|232:192,1,62.4999976158143
24,312,33471,2,0,L|24:96,1,187.499992847443,4|0,0:0|0:0,0:0:0:0:
312,272,33940,6,0,P|384:224|296:152,1,187.499992847443
32,200,34408,2,0,L|32:128,1,62.4999976158143,8|0,0:0|0:0,0:0:0:0:
480,208,34643,2,0,L|480:128,1,62.4999976158143
32,200,34877,2,0,L|32:96,1,62.4999976158143
480,208,35112,2,0,L|480:112,1,62.4999976158143
32,112,35346,5,8,0:0:0:0:
240,112,35580,1,0,0:0:0:0:
32,112,35815,1,0,0:0:0:0:
480,112,36049,1,0,0:0:0:0:
176,192,36284,1,0,0:0:0:0:
256,192,36987,12,4,37690,0:0:0:0:
496,192,37807,5,0,0:0:0:0:
496,192,37925,2,0,L|408:192,1,62.4999976158143
304,192,38159,2,0,L|224:192,1,62.4999976158143,8|0,0:0|0:0,0:0:0:0:
480,120,38393,2,0,L|440:48,1,62.4999976158143
80,120,38628,2,0,L|152:56,1,62.4999976158143
496,80,38862,1,0,0:0:0:0:
272,88,39097,1,8,0:0:0:0:
16,184,39331,2,0,L|112:184,1,62.4999976158143
16,296,39565,6,0,P|120:184|120:176,1,124.999995231629
256,192,39917,1,0,0:0:0:0:
496,296,40034,2,0,P|392:184|392:176,1,124.999995231629,8|0,0:0|0:0,0:0:0:0:
0,192,40503,1,0,0:0:0:0:
512,192,40972,1,8,0:0:0:0:
80,192,41441,6,0,L|400:192,1,312.499988079071
472,88,42144,2,0,L|360:88,1,62.4999976158143
48,96,42378,2,0,L|416:96,1,312.499988079071
480,176,43082,1,0,0:0:0:0:
48,192,43316,2,0,L|376:192,1,312.499988079071
456,288,44019,2,0,L|376:288,1,62.4999976158143
80,336,44254,2,0,L|80:40,1,249.999990463257,0|8,0:0|0:0,0:0:0:0:
200,192,44957,6,0,P|232:112|272:152,1,124.999995231629,0|4,0:0|0:0,0:0:0:0:
40,168,45309,1,0,0:0:0:0:
448,208,45426,2,0,P|464:112|432:104,1,124.999995231629,0|8,0:0|0:0,0:0:0:0:
256,192,45777,1,0,0:0:0:0:
0,192,45895,1,0,0:0:0:0:
112,272,46129,6,0,L|144:64,1,187.499992847443
448,296,46598,2,0,L|472:104,1,187.499992847443,8|0,0:0|0:0,0:0:0:0:
32,288,47067,2,0,L|40:40,1,187.499992847443
512,192,47535,1,8,0:0:0:0:
80,192,47770,1,0,0:0:0:0:
8,192,48004,6,0,L|208:192,1,187.499992847443
512,192,48473,2,0,L|304:192,1,187.499992847443,8|0,0:0|0:0,0:0:0:0:
176,344,48942,2,0,L|160:72,1,249.999990463257,0|8,0:0|0:0,0:0:0:0:
488,192,49528,1,0,0:0:0:0:
264,256,49645,2,0,L|264:136,1,62.4999976158143
96,344,49880,2,0,L|376:344,2,249.999990463257,0|8|0,0:0|0:0|0:0,0:0:0:0:
368,280,51052,5,0,0:0:0:0:
480,280,51169,1,0,0:0:0:0:
208,288,51286,2,0,L|56:288,1,124.999995231629,8|0,0:0|0:0,0:0:0:0:
352,224,51755,2,0,L|512:224,1,124.999995231629
192,176,52224,2,0,L|48:176,1,124.999995231629,8|0,0:0|0:0,0:0:0:0:
36,148,52693,6,0,L|36:72,1,62.4999976158143
480,152,52927,2,0,L|480:68,1,62.4999976158143
132,124,53161,1,8,0:0:0:0:
360,124,53396,1,0,0:0:0:0:
476,148,53630,6,0,L|476:72,1,62.4999976158143
32,152,53864,2,0,L|32:68,1,62.4999976158143
380,124,54098,1,8,0:0:0:0:
152,124,54333,1,0,0:0:0:0:
144,248,54568,6,0,L|72:248,1,62.4999976158143
144,248,54802,2,0,L|236:248,1,62.4999976158143
272,248,55037,2,0,L|192:248,1,62.4999976158143,8|0,0:0|0:0,0:0:0:0:
336,248,55271,2,0,L|436:248,1,62.4999976158143
232,248,55505,2,0,L|132:248,1,62.4999976158143
32,256,55740,1,0,0:0:0:0:
416,272,55974,2,0,L|472:108,1,124.999995231629,8|0,0:0|0:0,0:0:0:0:
292,180,56443,6,0,L|196:184,1,62.4999976158143
352,128,56678,2,0,L|264:128,1,62.4999976158143
424,76,56912,2,0,L|336:72,1,62.4999976158143,8|0,0:0|0:0,0:0:0:0:
512,80,57146,1,0,0:0:0:0:
220,180,57381,6,0,L|316:184,1,62.4999976158143
160,128,57616,2,0,L|248:128,1,62.4999976158143
88,76,57850,2,0,L|176:72,1,62.4999976158143,8|0,0:0|0:0,0:0:0:0:
0,80,58084,1,0,0:0:0:0:
116,200,58318,5,0,0:0:0:0:
28,200,58553,1,0,0:0:0:0:
492,196,58787,1,8,0:0:0:0:
408,196,59022,1,0,0:0:0:0:
28,200,59256,1,0,0:0:0:0:
116,200,59490,1,0,0:0:0:0:
492,196,59725,1,8,0:0:0:0:
384,192,59959,6,0,L|304:192,1,62.4999976158143
24,128,60194,2,0,L|192:128,1,124.999995231629,4|0,0:0|0:0,0:0:0:0:
360,132,60545,2,0,L|504:132,1,124.999995231629
288,132,60897,1,0,0:0:0:0:
180,128,61131,2,0,L|48:128,1,124.999995231629
0,128,61600,1,8,0:0:0:0:
508,124,61835,1,0,0:0:0:0:
400,192,62069,6,0,L|300:192,1,62.4999976158143
112,192,62303,2,0,L|212:192,1,62.4999976158143
512,196,62538,2,0,L|424:196,1,62.4999976158143,8|0,0:0|0:0,0:0:0:0:
0,192,62772,2,0,L|96:192,1,62.4999976158143
336,292,63007,2,0,P|408:268|308:164,1,249.999990463257,0|8,0:0|0:0,0:0:0:0:
52,192,63710,5,0,0:0:0:0:
500,192,63944,2,0,L|368:192,1,124.999995231629
36,192,64296,2,0,L|152:192,1,62.4999976158143,0|8,0:0|0:0,0:0:0:0:
256,196,64648,1,0,0:0:0:0:
36,192,64882,2,0,L|144:192,1,62.4999976158143
256,52,65116,2,0,L|256:124,1,62.4999976158143
464,192,65351,2,0,L|380:192,1,62.4999976158143,8|0,0:0|0:0,0:0:0:0:
512,192,65585,2,0,L|448:192,1,62.4999976158143
104,192,65820,6,0,L|16:192,1,62.4999976158143
184,192,66054,1,0,0:0:0:0:
104,192,66288,2,0,L|16:192,1,62.4999976158143,8|0,0:0|0:0,0:0:0:0:
184,192,66522,1,0,0:0:0:0:
0,96,66757,1,0,0:0:0:0:
512,92,66992,1,0,0:0:0:0:
400,92,67109,1,0,0:0:0:0:
172,92,67226,1,8,0:0:0:0:
256,192,67460,5,0,0:0:0:0:
488,192,67695,1,4,0:0:0:0:
28,192,68633,1,0,0:0:0:0:
0,376,69570,2,0,L|0:8,1,312.499988079071
512,360,70273,2,0,L|68:-8,1,562.499978542328
496,16,71445,2,0,L|88:264,1,437.4999833107
504,344,72383,2,0,L|120:96,1,437.4999833107
480,188,73321,1,0,0:0:0:0:
36,196,73672,1,0,0:0:0:0:
504,192,74024,2,0,L|272:184,1,187.499992847443
88,196,74493,6,0,L|8:192,2,62.4999976158143
504,192,74962,1,0,0:0:0:0:
416,192,75196,6,0,L|300:192,1,62.4999976158143,4|0,0:0|0:0,0:0:0:0:
136,184,75430,2,0,L|228:188,1,62.4999976158143
440,104,75665,1,8,0:0:0:0:
128,92,75899,1,0,0:0:0:0:
496,196,76134,6,0,L|412:196,1,62.4999976158143
140,204,76368,2,0,L|56:204,1,62.4999976158143
4,120,76603,1,8,0:0:0:0:
252,124,76837,1,0,0:0:0:0:
508,124,77071,1,0,0:0:0:0:
252,124,77306,1,0,0:0:0:0:
4,120,77540,1,8,0:0:0:0:
432,128,77775,2,0,L|208:128,1,187.499992847443
512,192,78243,5,0,0:0:0:0:
208,192,78478,1,8,0:0:0:0:
4,192,78712,1,0,0:0:0:0:
84,304,78947,2,0,L|28:188,1,124.999995231629
504,312,79415,2,0,L|368:312,1,124.999995231629,8|0,0:0|0:0,0:0:0:0:
16,304,79884,2,0,L|168:308,1,124.999995231629
480,232,80353,2,0,L|400:232,1,62.4999976158143,8|0,0:0|0:0,0:0:0:0:
256,248,80588,2,0,L|256:148,1,62.4999976158143
104,240,80822,6,0,L|320:240,1,187.499992847443
16,240,81291,2,0,L|16:160,1,62.4999976158143
500,248,81525,2,0,L|500:152,1,62.4999976158143
392,248,81760,1,0,0:0:0:0:
76,240,81877,1,0,0:0:0:0:
256,192,81994,1,0,0:0:0:0:
256,192,82111,12,0,82463,0:0:0:0:
0,196,82697,6,0,L|256:192,1,187.5,4|0,0:0|0:0,0:0:0:0:
480,192,83049,1,0,0:0:0:0:
480,192,83166,2,0,L|240:192,1,187.5,8|0,0:0|0:0,0:0:0:0:
44,192,83518,1,0,0:0:0:0:
380,188,83635,1,0,0:0:0:0:
32,196,83869,5,0,0:0:0:0:
348,192,84104,1,8,0:0:0:0:
164,192,84338,1,0,0:0:0:0:
384,192,84573,1,0,0:0:0:0:
496,144,84807,1,0,0:0:0:0:
256,136,84924,1,0,0:0:0:0:
8,132,85041,6,0,L|252:132,1,187.5,8|0,0:0|0:0,0:0:0:0:
492,132,85393,1,0,0:0:0:0:
388,132,85510,2,0,L|148:136,1,187.5
32,200,85862,1,0,0:0:0:0:
256,196,85979,1,8,0:0:0:0:
480,200,86213,1,0,0:0:0:0:
408,196,86331,6,0,L|296:196,1,93.7500000000001
208,192,86565,1,0,0:0:0:0:
88,192,86682,1,0,0:0:0:0:
492,132,86799,1,0,0:0:0:0:
292,128,86917,2,0,L|44:128,1,187.5,8|0,0:0|0:0,0:0:0:0:
184,288,87385,5,0,0:0:0:0:
316,288,87503,1,0,0:0:0:0:
184,288,87620,1,0,0:0:0:0:
316,288,87737,1,0,0:0:0:0:
496,256,87854,2,0,L|280:256,1,187.5,8|0,0:0|0:0,0:0:0:0:
24,256,88206,1,0,0:0:0:0:
276,252,88323,2,0,L|72:252,1,187.5
276,252,88675,1,0,0:0:0:0:
512,256,88792,2,0,L|252:252,1,187.5,8|0,0:0|0:0,0:0:0:0:
136,192,89261,6,0,L|20:192,1,93.7500000000001
420,192,89495,2,0,L|316:192,1,93.7500000000001
0,192,89730,1,8,0:0:0:0:
512,192,89964,1,0,0:0:0:0:
360,196,90198,2,0,L|28:204,1,281.25
324,128,90667,2,0,L|584:124,1,187.5,8|0,0:0|0:0,0:0:0:0:
324,128,91019,1,0,0:0:0:0:
40,128,91136,2,0,L|296:128,1,187.5
504,124,91488,5,0,0:0:0:0:
240,124,91605,2,0,L|468:120,1,187.5,8|0,0:0|0:0,0:0:0:0:
504,124,91956,1,0,0:0:0:0:
156,128,92074,2,0,L|416:132,1,187.5
504,124,92425,1,0,0:0:0:0:
72,132,92543,2,0,L|368:128,1,281.25,8|0,0:0|0:0,0:0:0:0:
512,220,93011,2,0,L|280:224,1,187.5
56,228,93363,1,0,0:0:0:0:
256,232,93480,2,0,L|508:228,1,187.5,8|0,0:0|0:0,0:0:0:0:
256,232,93832,1,0,0:0:0:0:
472,332,93949,6,0,L|464:32,1,281.25
20,340,94418,2,0,L|20:72,1,187.5,8|0,0:0|0:0,0:0:0:0:
480,192,94887,1,0,0:0:0:0:
112,192,95355,6,0,L|12:192,1,93.7500000000001,8|0,0:0|0:0,0:0:0:0:
264,192,95590,2,0,L|152:192,1,93.7500000000001
384,192,95824,2,0,L|4:196,1,375
488,192,96528,1,0,0:0:0:0:
256,192,96762,1,0,0:0:0:0:
488,192,97700,5,4,0:0:0:0:
256,192,97934,1,0,0:0:0:0:
0,192,98168,1,8,0:0:0:0:
192,192,98286,1,0,0:0:0:0:
0,192,98403,1,0,0:0:0:0:
72,112,98637,2,0,L|240:112,1,124.999995231629
436,116,98989,1,0,0:0:0:0:
192,116,99106,2,0,L|316:192,1,124.999995231629,8|0,0:0|0:0,0:0:0:0:
12,192,99575,6,0,L|236:192,1,187.499992847443
496,196,100044,2,0,L|284:200,1,187.499992847443,8|0,0:0|0:0,0:0:0:0:
56,328,100513,2,0,L|52:84,1,187.499992847443
388,192,100981,1,8,0:0:0:0:
28,192,101450,2,0,L|368:192,1,312.499988079071
512,192,102153,6,0,L|432:192,1,62.4999976158143
200,328,102388,2,0,L|60:24,1,312.499988079071
0,192,103091,1,0,0:0:0:0:
492,316,103325,2,0,L|228:104,1,312.499988079071
16,192,104029,6,0,L|124:192,1,62.4999976158143
488,192,104263,2,0,L|412:192,1,62.4999976158143
64,272,104498,2,0,L|64:176,1,62.4999976158143
272,292,104732,2,0,L|272:208,1,62.4999976158143,8|0,0:0|0:0,0:0:0:0:
488,296,104966,2,0,L|488:216,1,62.4999976158143
32,116,105201,5,4,0:0:0:0:
484,112,105435,1,0,0:0:0:0:
32,116,105670,1,8,0:0:0:0:
256,124,105787,1,0,0:0:0:0:
484,112,105904,1,0,0:0:0:0:
344,184,106138,2,0,L|144:184,1,187.499992847443
488,280,106607,6,0,L|488:208,1,62.4999976158143,8|0,0:0|0:0,0:0:0:0:
32,280,106842,2,0,L|32:208,1,62.4999976158143
380,256,107076,2,0,L|224:260,1,124.999995231629
32,248,107428,1,0,0:0:0:0:
292,192,107545,2,0,L|464:192,1,124.999995231629,8|0,0:0|0:0,0:0:0:0:
512,192,107896,2,0,L|304:192,1,187.499992847443
64,192,108365,5,0,0:0:0:0:
64,192,108482,2,0,L|232:188,1,124.999995231629,8|0,0:0|0:0,0:0:0:0:
188,189,108834,1,0,0:0:0:0:
444,200,108951,2,0,L|284:200,2,124.999995231629,0|0|8,0:0|0:0|0:0,0:0:0:0:
36,192,109655,1,0,0:0:0:0:
36,192,109889,2,0,L|384:192,1,312.499988079071
512,192,110592,5,0,0:0:0:0:
256,192,110827,1,0,0:0:0:0:
512,192,111061,1,0,0:0:0:0:
256,192,111178,1,0,0:0:0:0:
32,192,111530,1,0,0:0:0:0:
0,192,111764,2,0,L|112:192,1,62.4999976158143
512,192,111999,2,0,L|424:192,1,62.4999976158143
152,192,112233,1,8,0:0:0:0:
324,192,112467,1,0,0:0:0:0:
64,88,112702,5,0,0:0:0:0:
388,88,112936,1,0,0:0:0:0:
156,88,113171,1,8,0:0:0:0:
492,88,113405,1,0,0:0:0:0:
448,88,113640,5,0,0:0:0:0:
124,88,113874,1,0,0:0:0:0:
356,88,114109,1,8,0:0:0:0:
20,88,114343,1,0,0:0:0:0:
64,88,114577,5,0,0:0:0:0:
388,88,114811,1,0,0:0:0:0:
156,88,115046,1,8,0:0:0:0:
492,88,115280,1,0,0:0:0:0:
0,196,115515,1,0,0:0:0:0:
512,192,115749,1,0,0:0:0:0:
0,196,115984,2,0,L|152:196,1,124.999995231629,8|0,0:0|0:0,0:0:0:0:
484,312,116452,5,0,0:0:0:0:
256,308,116687,1,0,0:0:0:0:
484,312,116921,1,8,0:0:0:0:
32,312,117156,1,0,0:0:0:0:
484,312,117390,1,0,0:0:0:0:
256,308,117625,1,0,0:0:0:0:
484,312,117859,1,8,0:0:0:0:
32,312,118093,1,0,0:0:0:0:
484,312,118328,5,0,0:0:0:0:
32,312,118562,1,0,0:0:0:0:
256,308,118797,1,8,0:0:0:0:
512,312,119031,1,0,0:0:0:0:
0,308,119265,1,0,0:0:0:0:
256,192,119500,1,0,0:0:0:0:
512,240,119734,2,0,L|504:128,1,62.4999976158143,8|0,0:0|0:0,0:0:0:0:
256,108,119969,5,0,0:0:0:0:
456,112,120086,1,0,0:0:0:0:
116,112,120203,2,0,L|292:112,1,124.999995231629,4|0,0:0|0:0,0:0:0:0:
500,112,120555,2,0,L|292:116,1,187.499992847443
32,112,121024,1,0,0:0:0:0:
32,112,121141,1,0,0:0:0:0:
256,120,121375,1,0,0:0:0:0:
32,112,121610,1,8,0:0:0:0:
408,120,121844,1,0,0:0:0:0:
332,192,122078,6,0,L|240:192,1,62.4999976158143
136,188,122313,2,0,L|136:112,1,62.4999976158143
416,196,122547,2,0,L|496:196,1,62.4999976158143,8|0,0:0|0:0,0:0:0:0:
96,192,122782,2,0,L|8:192,1,62.4999976158143
460,304,123016,2,0,L|456:124,1,124.999995231629
308,312,123368,2,0,L|304:204,1,62.4999976158143,0|8,0:0|0:0,0:0:0:0:
48,200,123719,6,0,L|8:144,1,62.4999976158143
352,208,123954,2,0,L|196:168,1,124.999995231629
20,96,124305,2,0,L|208:96,1,187.499992847443
492,100,124774,1,0,0:0:0:0:
20,96,124891,2,0,L|264:96,1,187.499992847443
20,192,125360,2,0,L|220:192,1,187.499992847443,8|0,0:0|0:0,0:0:0:0:
496,196,125829,5,0,0:0:0:0:
256,192,126063,1,0,0:0:0:0:
496,196,126298,1,8,0:0:0:0:
496,196,126532,1,0,0:0:0:0:
0,144,126767,2,0,L|144:144,1,124.999995231629
296,148,127118,1,0,0:0:0:0:
508,136,127235,1,8,0:0:0:0:
128,148,127470,5,0,0:0:0:0:
448,152,127704,1,4,0:0:0:0:
128,148,127939,1,0,0:0:0:0:
448,152,128173,1,0,0:0:0:0:
128,148,128407,1,0,0:0:0:0:
448,152,128642,1,0,0:0:0:0:
128,148,128876,1,0,0:0:0:0:
448,152,129111,1,0,0:0:0:0:
36,152,129345,1,0,0:0:0:0:
480,152,129580,5,0,0:0:0:0:
480,152,129814,1,0,0:0:0:0:
16,228,130048,1,0,0:0:0:0:
256,232,130283,1,4,0:0:0:0:
492,244,130517,1,0,0:0:0:0:
256,232,130752,1,0,0:0:0:0:
80,148,131220,6,0,L|172:152,1,62.4999976158143
336,152,131455,2,0,L|252:152,1,62.4999976158143,4|0,0:0|0:0,0:0:0:0:
416,160,131689,2,0,L|488:160,1,62.4999976158143
336,152,131924,2,0,L|256:152,1,62.4999976158143
412,164,132158,2,0,L|492:160,1,62.4999976158143
104,160,132392,2,0,L|20:160,1,62.4999976158143
180,160,132627,2,0,L|272:164,1,62.4999976158143
496,288,132861,2,0,L|496:48,1,187.499992847443
224,200,133330,6,0,L|56:200,1,124.999995231629
292,196,133799,2,0,L|472:200,1,124.999995231629
0,192,134268,2,0,L|80:192,1,62.4999976158143
192,192,134502,1,0,0:0:0:0:
444,196,134619,5,0,0:0:0:0:
444,196,134737,2,0,L|336:196,2,62.4999976158143
0,196,135205,1,4,0:0:0:0:
256,196,135440,2,0,L|436:200,1,124.999995231629,0|8,0:0|0:0,0:0:0:0:
80,188,135791,1,0,0:0:0:0:
248,192,135909,2,0,L|92:192,1,124.999995231629
492,192,136260,5,0,0:0:0:0:
492,192,136377,2,0,L|384:188,1,62.4999976158143
492,192,136612,2,0,L|280:192,1,187.499992847443,8|0,0:0|0:0,0:0:0:0:
124,192,137081,2,0,L|-40:196,1,124.999995231629
408,192,137550,1,8,0:0:0:0:
64,192,137784,1,0,0:0:0:0:
256,192,138018,6,0,L|124:144,1,124.999995231629
256,192,138487,2,0,L|256:28,1,124.999995231629,8|0,0:0|0:0,0:0:0:0:
144,64,138839,1,0,0:0:0:0:
512,192,138956,2,0,L|364:196,1,124.999995231629
256,196,139308,1,0,0:0:0:0:
392,200,139425,6,0,L|524:152,1,124.999995231629,8|0,0:0|0:0,0:0:0:0:
256,192,139894,2,0,L|256:28,1,124.999995231629
368,64,140246,1,0,0:0:0:0:
0,192,140363,2,0,L|148:196,1,124.999995231629,8|0,0:0|0:0,0:0:0:0:
448,332,140831,2,0,B|384:332|384:332|496:332|496:332|380:332|380:332|480:332,1,374.999985694885
0,196,142472,1,0,0:0:0:0:
28,192,142707,6,0,L|372:192,1,281.25,4|0,0:0|0:0,0:0:0:0:
52,192,143175,1,8,0:0:0:0:
388,196,143410,1,0,0:0:0:0:
208,280,143644,2,0,L|208:16,1,187.5
96,92,143996,1,0,0:0:0:0:
368,292,144113,6,0,L|360:40,1,187.5,8|0,0:0|0:0,0:0:0:0:
476,108,144465,1,0,0:0:0:0:
160,280,144582,2,0,L|160:52,1,187.5
268,104,144934,1,0,0:0:0:0:
488,192,145051,2,0,L|328:192,1,93.7500000000001,8|0,0:0|0:0,0:0:0:0:
240,192,145285,2,0,L|128:192,1,93.7500000000001
0,188,145520,2,0,L|256:184,1,187.5
368,192,145871,1,0,0:0:0:0:
512,312,145988,6,0,L|512:100,1,187.5,8|0,0:0|0:0,0:0:0:0:
408,120,146340,1,0,0:0:0:0:
100,296,146457,2,0,B|-4:296|-4:296|0:296|192:300,1,281.25
424,308,146926,2,0,L|528:92,1,187.5,8|0,0:0|0:0,0:0:0:0:
0,192,147395,1,0,0:0:0:0:
356,256,147629,6,0,L|352:20,1,187.5,0|8,0:0|0:0,0:0:0:0:
60,248,148098,2,0,L|52:40,1,187.5
464,192,148567,2,0,L|344:192,2,93.7500000000001,0|0|8,0:0|0:0|0:0,0:0:0:0:
12,192,149036,2,0,L|144:192,1,93.7500000000001
500,192,149270,2,0,L|368:192,1,93.7500000000001
140,244,149505,2,0,L|140:128,1,93.7500000000001
404,264,149739,2,0,L|404:120,1,93.7500000000001,8|0,0:0|0:0,0:0:0:0:
24,152,149973,1,0,0:0:0:0:
272,156,150091,1,0,0:0:0:0:
492,320,150208,6,0,L|492:72,1,187.5
0,192,150559,1,0,0:0:0:0:
492,320,150677,2,0,L|492:116,1,187.5,8|0,0:0|0:0,0:0:0:0:
0,192,151028,1,0,0:0:0:0:
492,320,151146,2,0,L|492:116,1,187.5
252,192,151614,1,8,0:0:0:0:
252,192,151849,1,0,0:0:0:0:
20,320,152083,6,0,L|20:72,1,187.5
512,192,152434,1,0,0:0:0:0:
20,320,152552,2,0,L|20:116,1,187.5,8|0,0:0|0:0,0:0:0:0:
512,192,152903,1,0,0:0:0:0:
20,320,153021,2,0,L|20:116,1,187.5
100,192,153490,6,0,L|292:192,1,187.5,8|0,0:0|0:0,0:0:0:0:
428,192,153841,1,0,0:0:0:0:
100,192,153958,2,0,L|360:192,1,187.5
412,192,154427,6,0,L|220:192,1,187.5,8|0,0:0|0:0,0:0:0:0:
84,192,154778,1,0,0:0:0:0:
412,192,154895,2,0,L|152:192,1,187.5
0,192,155365,5,0,0:0:0:0:
256,192,155599,1,0,0:0:0:0:
480,308,155834,2,0,L|480:-4,1,281.25
64,260,156302,2,0,L|64:152,1,62.4999976158143
360,272,156537,2,0,L|360:152,1,62.4999976158143
8,264,156771,2,0,L|8:12,1,249.999990463257
100,196,172008,6,0,L|24:196,2,62.4999976158143
100,196,172242,6,0,L|376:200,1,249.999990463257,0|4,0:0|0:0,0:0:0:0:
480,200,172946,1,0,0:0:0:0:
200,296,173180,2,0,L|64:264,1,124.999995231629,8|0,0:0|0:0,0:0:0:0:
408,308,173532,2,0,L|400:208,1,62.4999976158143
248,220,173766,1,0,0:0:0:0:
104,220,173883,6,0,L|4:112,1,124.999995231629,0|8,0:0|0:0,0:0:0:0:
400,228,174352,2,0,L|504:104,1,124.999995231629
136,128,174821,1,0,0:0:0:0:
272,128,174938,1,0,0:0:0:0:
136,128,175055,1,8,0:0:0:0:
56,240,175290,6,0,P|88:184|8:168,1,124.999995231629
256,192,175641,1,0,0:0:0:0:
156,188,175759,1,0,0:0:0:0:
360,192,175876,1,0,0:0:0:0:
88,296,175993,2,0,P|164:256|72:136,1,249.999990463257,8|0,0:0|0:0,0:0:0:0:
480,192,176813,5,0,0:0:0:0:
32,188,177165,1,0,0:0:0:0:
480,192,177400,1,0,0:0:0:0:
128,248,177634,6,0,L|92:168,1,62.4999976158143
260,232,177868,2,0,L|208:168,1,62.4999976158143,8|0,0:0|0:0,0:0:0:0:
376,188,178103,2,0,L|296:188,1,62.4999976158143
0,92,178337,5,0,0:0:0:0:
512,88,178689,1,0,0:0:0:0:
100,92,179040,1,0,0:0:0:0:
416,92,179275,1,0,0:0:0:0:
104,192,179509,6,0,L|252:192,4,124.999995231629,0|0|8|0|0,0:0|0:0|0:0|0:0|0:0,0:0:0:0:
20,196,180212,2,0,L|200:192,1,124.999995231629
16,264,180564,2,0,L|232:252,1,187.499992847443
92,260,181033,1,0,0:0:0:0:
464,268,181150,2,0,L|312:264,1,124.999995231629
424,216,181502,1,0,0:0:0:0:
36,264,181619,2,0,L|152:264,1,62.4999976158143,8|0,0:0|0:0,0:0:0:0:
220,260,181853,2,0,L|148:264,1,62.4999976158143
476,124,182088,6,0,L|384:124,1,62.4999976158143
264,132,182322,2,0,L|232:52,1,62.4999976158143
112,288,182557,2,0,L|176:200,1,62.4999976158143,8|0,0:0|0:0,0:0:0:0:
24,152,182791,2,0,L|104:152,1,62.4999976158143
256,56,183025,2,0,L|256:144,1,62.4999976158143
472,196,183260,2,0,L|376:192,1,62.4999976158143
512,280,183494,6,0,L|320:280,1,187.499992847443,8|0,0:0|0:0,0:0:0:0:
36,196,183963,1,0,0:0:0:0:
328,192,184315,1,0,0:0:0:0:
76,196,184666,1,0,0:0:0:0:
420,192,184901,1,0,0:0:0:0:
100,128,185135,6,0,L|16:128,1,62.4999976158143
408,128,185370,2,0,L|496:128,1,62.4999976158143,8|0,0:0|0:0,0:0:0:0:
172,128,185604,1,0,0:0:0:0:
36,244,185838,5,0,0:0:0:0:
436,264,186190,1,0,0:0:0:0:
56,252,186542,1,0,0:0:0:0:
320,240,186776,2,0,L|320:32,1,187.499992847443
32,324,187245,2,0,L|32:44,1,249.999990463257
24,192,188065,5,0,0:0:0:0:
484,192,188182,1,0,0:0:0:0:
24,192,188417,1,0,0:0:0:0:
484,192,188651,1,0,0:0:0:0:
24,192,188886,1,0,0:0:0:0:
0,192,189355,5,0,0:0:0:0:
256,192,189589,1,0,0:0:0:0:
512,192,189823,1,0,0:0:0:0:
32,188,190058,1,0,0:0:0:0:
480,192,190527,1,0,0:0:0:0:
256,268,190995,6,0,L|256:40,1,187.499992847443
480,304,191464,6,0,L|96:308,1,374.999985694885,4|0,0:0|0:0,0:0:0:0:
28,188,191933,2,0,L|188:188,1,124.999995231629,8|0,0:0|0:0,0:0:0:0:
28,188,192167,2,0,L|136:308,1,124.999995231629
28,188,192402,2,0,L|172:188,1,124.999995231629
304,188,192636,2,0,L|508:12,1,249.999990463257,0|8,0:0|0:0,0:0:0:0:
232,32,193105,5,0,0:0:0:0:
384,32,193222,2,0,L|576:28,1,124.999995231629
44,40,193574,1,0,0:0:0:0:
300,36,193691,2,0,L|480:36,3,124.999995231629,0|8|0|0,0:0|0:0|0:0|0:0,0:0:0:0:
212,192,194277,2,0,L|0:36,1,249.999990463257
496,192,194629,1,0,0:0:0:0:
496,124,194746,2,0,L|136:136,1,249.999990463257,8|0,0:0|0:0,0:0:0:0:
0,192,195215,6,0,L|288:192,1,249.999990463257
404,192,195566,1,0,0:0:0:0:
512,192,195684,2,0,L|384:192,1,124.999995231629,8|0,0:0|0:0,0:0:0:0:
108,192,195918,1,0,0:0:0:0:
108,192,196152,1,0,0:0:0:0:
488,196,196387,1,0,0:0:0:0:
168,196,196621,1,8,0:0:0:0:
0,192,196856,6,0,L|312:192,1,249.999990463257
256,108,197207,1,0,0:0:0:0:
512,192,197325,2,0,L|220:192,1,249.999990463257,0|8,0:0|0:0,0:0:0:0:
32,120,197793,1,0,0:0:0:0:
8,200,198028,2,0,L|516:200,2,499.999980926514,0|8|0,0:0|0:0|0:0,0:0:0:0:
104,124,199200,5,0,0:0:0:0:
508,124,199434,1,8,0:0:0:0:
408,124,199669,1,0,0:0:0:0:
4,124,199903,1,0,0:0:0:0:
472,192,200137,2,0,L|200:188,1,249.999990463257,0|8,0:0|0:0,0:0:0:0:
504,268,200606,6,0,L|372:272,2,124.999995231629
16,260,201075,2,0,L|176:256,2,124.999995231629,0|0|8,0:0|0:0|0:0,0:0:0:0:
332,272,201544,2,0,L|336:144,1,124.999995231629
512,192,201778,2,0,L|8:192,2,499.999980926514,0|8|0,0:0|0:0|0:0,0:0:0:0:
512,328,202716,6,0,L|512:176,1,140.625
120,116,203185,2,0,L|120:196,1,46.875,8|0,0:0|0:0,0:0:0:0:
400,112,203419,2,0,L|404:180,1,46.875
124,308,203654,2,0,L|124:156,1,140.625
484,312,204122,2,0,L|484:160,1,140.625
60,292,204591,2,0,L|60:188,1,93.7500000000001
488,196,205060,2,0,L|188:196,1,249.999990463257
