osu file format v9

[General]
AudioFilename: NE1 () - Go Away (DJ Hikari3 Remix).mp3
AudioLeadIn: 0
PreviewTime: 164785
Countdown: 0
SampleSet: Normal
StackLeniency: 0.7
Mode: 0
LetterboxInBreaks: 0

[Editor]
DistanceSpacing: 0.8
BeatDivisor: 2
GridSize: 8

[Metadata]
Title:Go Away (DJ Hikari3 Remix)
Artist:2NE1
Creator:Yucali
Version:Easy
Source:
Tags:giO- Chewin NeoRainier

[Difficulty]
HPDrainRate:1
CircleSize:3
OverallDifficulty:1
ApproachRate:2
SliderMultiplier:1.4
SliderTickRate:1

[Events]
//Background and Video events
0,0,"2ne1bg.jpg"
//Break Periods
2,87909,102846
2,162927,163225
//Storyboard Layer 0 (Background)
//Storyboard Layer 1 (Fail)
//Storyboard Layer 2 (Pass)
//Storyboard Layer 3 (Foreground)
Sprite,Foreground,Centre,"pulse.jpg",320,238 L,58663,30 F,0,0,1000,0.8,0 S,0,0,1000,1,1.1 L,133681,30 F,0,0,1000,0.8,0 S,0,0,1000,1,1.1 L,179423,30 F,0,0,1000,0.8,0 S,0,0,1000,1,1.1
//Storyboard Sound Samples
//Background Colour Transformations
3,100,163,162,255

[TimingPoints]
114,457.421666539605,4,1,1,100,1,0
58663,-100,4,1,1,100,0,1
87710,-100,4,1,1,100,0,0
133681,-100,4,1,1,100,0,1
162727,-100,4,1,1,100,0,0
179880,-100,4,1,1,100,0,1
208469,-100,4,1,1,100,0,0

[Colours]
Combo1 : 232,190,64
Combo2 : 194,119,50
Combo3 : 175,75,50

[HitObjects]
448,56,14751,1,0
336,56,15208,1,8
224,56,15666,2,0,B|192:24|128:24|96:56,1,140,0|8
88,168,16581,5,0
176,240,17038,1,8
272,296,17496,2,0,B|304:328|368:328|400:296,1,140,0|8
464,200,18410,5,0
352,200,18868,1,8
240,200,19325,1,0
128,200,19783,6,0,B|128:120,2,70,8|0|0
240,200,20697,1,8
352,200,21155,1,0
168,328,22070,6,0,B|216:272,1,70,0|0
304,344,22756,2,0,B|352:288,1,70
416,80,23899,6,0,B|376:136,1,70,0|0
288,64,24586,2,0,B|240:128,1,70,0|0
256,192,25500,12,4,28245
128,72,29388,6,8,B|80:112|48:176|48:248|112:320,1,280,0|0
224,312,30761,1,8
336,311,31218,2,8,B|400:240|400:168|368:104|320:64,1,280,0|0
208,64,32590,1,8
96,64,33048,5,0
184,128,33505,1,8
104,200,33963,1,0
144,304,34420,2,0,B|74:304,6,70,8|0|0|0|8|0|0
368,304,36707,5,0
360,80,37622,2,0,B|321:131|288:143|242:143,1,140,0|8
144,96,38537,2,8,B|56:176|144:296|264:192|328:256|272:344,1,350,0|4
256,192,40367,12,8,42654
88,56,43569,6,8,B|168:56,1,70,8|4
296,152,44483,6,8,B|440:152,4,140,8|0|8|0|8
184,152,46771,2,0,B|104:152,1,70,0|0
112,264,47457,1,0
336,312,48600,6,8,B|480:312,4,140,0|8|0|8|0
336,144,51116,1,0
112,136,52031,6,0,B|128:208|184:256,1,140,0|0
296,256,52946,1,0
296,144,53403,1,0
296,32,53861,1,4
256,192,55004,12,4,58206
104,96,59121,6,8,B|256:96,1,140,8|0
360,96,60036,1,8
432,184,60493,2,0,B|424:256|360:304,1,140,0|8
248,304,61408,2,0,B|176:296|144:256|128:224|128:144|144:104|176:64|208:48|304:48,1,420,0|8
400,248,63695,5,8
288,248,64153,1,0
288,360,64610,2,0,B|216:360|120:360|72:360|24:248|64:128|120:128|224:128|304:128,1,560,8|8
456,288,67354,5,8
264,168,68269,2,0,B|120:168,3,140,8|0|8|0
352,168,70556,5,0
416,80,71014,1,8
488,168,71471,1,0
424,256,71929,2,0,B|296:288|208:248|192:160,1,280,8|8
416,104,73758,6,0,B|248:104,1,140,8|0
160,104,74673,1,8
160,216,75131,1,0
160,328,75588,6,0,B|240:336|296:304,1,140,8|0
392,248,76503,1,8
472,160,76960,1,0
136,56,77875,5,0
248,56,78333,1,8
360,56,78790,1,0
360,168,79247,2,0,B|328:240|280:288|224:304|128:288,1,280,8|8
136,64,81077,5,8
248,64,81535,2,0,B|320:96|336:168,1,140,0|8
336,280,82449,2,0,B|280:320|208:336,1,140,0|8
96,336,83364,5,0
96,224,83822,1,8
200,224,84279,1,0
200,112,84737,6,0,B|200:32,3,70,8|0|0|0
312,48,85880,1,0
312,160,86337,2,0,B|382:160,6,70,0|8|0|0|0|8|4
80,72,104406,5,0
80,184,104863,2,0,B|144:176|176:152|208:120,1,140,8|0
416,56,106235,5,0
416,168,106693,2,0,B|388:195|356:219|292:227,1,140,8|0
72,248,108065,5,0
152,312,108522,1,8
152,192,108980,1,0
256,192,109437,12,4,111267
112,72,112182,5,8
224,72,112639,1,0
168,168,113097,1,8
280,168,113554,1,0
360,88,114011,2,0,B|448:112|472:208|456:328,1,280,8|8
344,328,115384,5,0
232,328,115841,2,0,B|160:328|88:296|64:216|64:144,1,280,8|8
168,104,117213,2,0,B|296:104,3,70,0|0|8|0
400,64,118586,6,8,B|320:64,1,70,8|4
192,160,119500,6,8,B|48:160,4,140,8|0|8|0|8
304,160,121788,2,0,B|384:160,1,70,0|0
376,272,122474,1,0
152,320,123617,6,8,B|8:320,4,140,0|8|0|8|0
152,152,126133,1,0
376,144,127048,6,0,B|360:216|304:264,1,140,0|0
192,264,127963,1,0
192,152,128420,1,0
192,40,128878,1,4
256,192,130021,12,4,133223
384,104,134138,6,8,B|232:104,1,140,8|0
128,104,135053,1,8
56,192,135510,2,0,B|64:264|128:312,1,140,0|8
240,312,136425,2,0,B|312:304|344:264|360:232|360:152|344:112|312:72|280:56|184:56,1,420,0|8
88,256,138712,5,8
200,256,139170,1,0
200,368,139627,2,0,B|272:368|368:368|416:368|464:256|424:136|368:136|264:136|184:136,1,560,8|8
32,296,142371,5,8
224,176,143286,2,0,B|368:176,3,140,8|0|8|0
136,176,145573,5,0
72,88,146031,1,8
0,176,146488,1,0
64,264,146946,2,0,B|192:296|280:256|296:168,1,280,8|8
72,112,148775,6,0,B|240:112,1,140,8|0
328,112,149690,1,8
328,224,150148,1,0
328,336,150605,6,0,B|248:344|192:312,1,140,8|0
96,256,151520,1,8
16,168,151977,1,0
352,64,152892,5,0
240,64,153350,1,8
128,64,153807,1,0
128,176,154265,2,0,B|160:248|208:296|264:312|360:296,1,280,8|8
360,72,156094,5,8
240,72,156552,2,0,B|168:104|152:176,1,140,0|8
152,288,157466,2,0,B|208:328|280:344,1,140,0|8
392,344,158381,5,0
392,232,158839,1,8
288,232,159296,1,0
288,120,159754,6,0,B|288:40,3,70,8|0|0|0
176,56,160897,1,0
176,168,161355,2,0,B|106:168,6,70,0|8|0|0|0|8|4
248,192,164785,5,0
320,112,165243,2,0,B|271:43|182:106,1,140,8|0
152,200,166158,2,0,B|122:278|223:317,1,140,8|0
320,304,167072,2,0,B|399:279|368:175,1,140,8|0
320,88,167987,2,0,B|152:88,1,140,8|0
168,256,169131,6,0,B|169:208|224:208|224:296|296:296|344:240,1,210,0|8
448,200,170274,1,0
448,88,170732,2,0,B|376:32|312:120,3,140,8|0|8|0
320,272,172790,6,0,B|282:353|194:353|162:273,1,210,0|8
160,160,173934,2,0,B|300:160,1,140,0|8
416,160,174849,1,0
416,160,175306,1,8
416,160,175763,1,0
256,192,176450,12,4,178965
104,96,179880,6,8,B|256:96,1,140,8|0
360,96,180795,1,8
432,184,181252,2,0,B|424:256|360:304,1,140,0|8
248,304,182167,2,0,B|176:296|144:256|128:224|128:144|144:104|176:64|208:48|304:48,1,420,0|8
400,248,184454,5,8
288,248,184912,1,0
288,360,185369,2,0,B|216:360|120:360|72:360|24:248|64:128|120:128|224:128|304:128,1,560,8|8
456,288,188113,5,8
264,168,189028,2,0,B|120:168,3,140,8|0|8|0
352,168,191316,5,0
416,80,191773,1,8
488,168,192230,1,0
424,256,192688,2,0,B|296:288|208:248|192:160,1,280,8|8
416,104,194517,6,0,B|248:104,1,140,8|0
160,104,195432,1,8
160,216,195890,1,0
160,328,196347,6,0,B|240:336|296:304,1,140,8|0
392,248,197262,1,8
472,160,197719,1,0
136,56,198634,5,0
248,56,199092,1,8
360,56,199549,1,0
360,168,200007,2,0,B|328:240|280:288|224:304|128:288,1,280
136,64,201836,5,8
248,64,202294,2,0,B|320:96|336:168,1,140,0|8
336,280,203208,2,0,B|280:320|208:336,1,140,0|8
96,336,204123,5,0
96,224,204581,1,8
200,224,205038,1,0
200,112,205496,6,0,B|200:32,3,70,8|0|0|0
312,48,206639,1,0
312,160,207097,2,0,B|382:160,6,70,0|8|0|0|0|8|4
