osu file format v14

[General]
AudioFilename: 2NE1 - DON'T STOP THE MUSIC (Yamaha 'Fiore' CF Theme Song) M_V_2.mp3
AudioLeadIn: 0
PreviewTime: 84960
Countdown: 0
SampleSet: Soft
StackLeniency: 0.7
Mode: 0
LetterboxInBreaks: 0
WidescreenStoryboard: 1

[Editor]
Bookmarks: 1085,105085,141085,173085,185085,227085
DistanceSpacing: 1.1
BeatDivisor: 4
GridSize: 4
TimelineZoom: 1.1

[Metadata]
Title:Don't Stop The Music
TitleUnicode:Don't Stop The Music
Artist:2NE1
ArtistUnicode:2NE1
Creator:Irreversible
Version:Geroversible's Normal
Source:
Tags:Gero Park Bom CL Sandara Minzy Fiore toanyone
BeatmapID:664437
BeatmapSetID:65523

[Difficulty]
HPDrainRate:4.8
CircleSize:3.5
OverallDifficulty:5
ApproachRate:5.3
SliderMultiplier:1.46
SliderTickRate:1

[Events]
//Background and Video events
Video,-240,"Video.avi"
0,0,"Taiko.jpg",0,0
//Break Periods
2,65285,67931
2,173285,183931
//Storyboard Layer 0 (Background)
//Storyboard Layer 1 (Fail)
//Storyboard Layer 2 (Pass)
//Storyboard Layer 3 (Foreground)
Sprite,Foreground,Centre,"Gero.png",320,240 M,0,585,,66,347 S,0,585,,0.5200003 F,0,585,1085,0,1 F,0,1085,100585,1 F,0,100585,101085,1,0
Sprite,Foreground,Centre,"Irreversible.png",320,240 M,0,104585,,547,354 S,0,104585,,0.4239999 F,0,104585,105085,0,1 F,0,105085,137085,1 F,0,137085,140085,1,0
Sprite,Foreground,Centre,"Gero.png",320,240 M,0,140585,,66,347 S,0,140585,,0.5200003 F,0,140585,141085,0,1 F,0,141085,172585,1 F,0,172585,173085,1,0
Sprite,Foreground,Centre,"Irreversible.png",320,240 M,0,184585,,547,354 S,0,184585,,0.4239999 F,0,184585,185085,0,1 F,0,185085,225085,1 F,0,225085,227085,1,0
//Storyboard Sound Samples

[TimingPoints]
1085,500,4,2,1,20,1,0
4835,-100,4,2,1,30,0,0
9085,-100,4,2,1,40,0,0
12835,-100,4,2,1,50,0,0
15085,-100,4,2,1,60,0,0
17085,-100,4,2,1,70,0,1
33085,-100,4,2,1,70,0,0
69085,-100,4,2,1,70,0,1
93085,-100,4,2,1,70,0,1
101085,-100,4,2,1,70,0,0
121085,-100,4,2,1,70,0,0
141085,-100,4,2,1,70,0,1
173085,-100,4,1,1,70,0,0
181085,-100,4,2,1,70,0,0
189085,487.80487804878,4,2,1,70,1,0
190060,540.540540540541,4,2,1,70,1,0
190600,582.52427184466,4,2,1,70,1,0
191085,500,4,2,1,70,1,0
193085,500,4,2,1,70,1,1
225085,-100,4,2,1,70,0,0

[Colours]
Combo1 : 255,155,255
Combo2 : 79,167,255
Combo3 : 230,172,157
Combo4 : 255,74,74
Combo5 : 255,169,83
Combo6 : 255,255,132

[HitObjects]
408,352,1085,6,0,P|352:352|312:316,2,109.5,2|2|2,0:0|0:0|0:0,0:0:0:0:
380,276,2085,2,0,P|436:276|476:308,2,109.5,2|2|2,0:0|0:0|0:0,0:0:0:0:
313,318,3085,1,2,0:0:0:0:
104,32,5085,6,0,P|160:32|200:68,2,109.5,2|2|2,0:0|0:0|0:0,0:0:0:0:
132,108,6085,2,0,P|76:108|36:76,2,109.5,2|2|2,0:0|0:0|0:0,0:0:0:0:
198,65,7085,1,2,0:0:0:0:
104,352,9085,6,0,P|160:352|200:316,2,109.5,2|2|2,0:0|0:0|0:0,0:0:0:0:
132,276,10085,2,0,P|76:276|36:308,2,109.5,2|2|2,0:0|0:0|0:0,0:0:0:0:
198,318,11085,1,2,0:0:0:0:
408,32,13085,6,0,P|352:32|312:68,2,109.5,2|2|2,0:0|0:0|0:0,0:0:0:0:
380,108,14085,2,0,P|436:108|476:76,2,109.5,2|2|2,0:0|0:0|0:0,0:0:0:0:
313,65,15085,6,0,L|472:168,2,182.5,8|8|8,0:0|0:0|0:0,0:0:0:0:
256,124,16585,2,0,L|194:84,1,73,8|8,0:0|0:0,0:0:0:0:
132,32,17085,6,0,B|76:32|76:32|28:32|-4:68,1,146,14|10,0:0|1:3,0:0:0:0:
68,116,17835,1,10,0:0:0:0:
140,164,18085,2,0,B|108:200|60:200|60:200|4:200,1,146,10|10,0:0|1:3,0:0:0:0:
32,280,18835,1,10,0:0:0:0:
68,352,19085,5,10,0:0:0:0:
184,244,19585,1,10,1:3:0:0:
256,208,19835,1,8,0:0:0:0:
328,244,20085,1,2,0:0:0:0:
444,352,20585,1,10,1:3:0:0:
480,280,20835,1,8,0:0:0:0:
508,200,21085,6,0,B|452:200|452:200|404:200|372:164,1,146,10|10,0:0|1:3,0:0:0:0:
444,116,21835,1,10,0:0:0:0:
512,68,22086,2,0,B|484:32|436:32|436:32|380:32,1,146,10|10,0:0|1:3,0:0:0:0:
256,132,23085,6,0,L|256:248,2,109.5,10|8|8,0:0|0:0|0:0,0:0:0:0:
291,60,24085,2,0,P|256:52|221:60,1,73,10|0,1:3|0:0,0:0:0:0:
172,124,24585,2,0,P|137:132|102:124,1,73,10|10,1:3|1:3,0:0:0:0:
56,56,25085,6,0,P|78:124|56:192,1,146,14|10,1:2|1:3,0:0:0:0:
4,252,25835,1,10,0:0:0:0:
56,316,26085,2,0,B|120:316|120:316|136:324|136:324|204:324,1,146,10|10,0:0|1:3,0:0:0:0:
256,268,26835,1,10,0:0:0:0:
311,324,27085,6,0,B|376:324|376:324|392:316|392:316|456:316,1,146,10|10,0:0|1:3,0:0:0:0:
508,252,27835,1,8,0:0:0:0:
456,192,28085,2,0,L|384:192,1,73,8|8,0:0|0:0,0:0:0:0:
312,156,28585,2,0,L|239:156,1,73,10|8,1:3|0:0,0:0:0:0:
192,220,29085,6,0,P|214:151|192:83,1,146,10|10,0:0|1:3,0:0:0:0:
120,52,29835,1,10,0:0:0:0:
120,52,30085,2,0,L|232:4,2,109.5,10|10|10,0:0|0:0|0:0,0:0:0:0:
100,128,31085,6,0,L|-12:176,2,109.5,10|8|8,0:0|0:0|0:0,0:0:0:0:
176,152,32085,2,0,L|288:104,2,109.5,8|2|10,3:0|0:3|0:3,0:0:0:0:
144,228,33085,5,4,0:0:0:0:
256,344,33585,1,8,3:0:0:0:
368,228,34085,1,12,2:3:0:0:
256,112,34585,1,10,0:0:0:0:
144,228,35085,6,0,P|109:236|74:228,1,73,12|2,3:0|0:0,0:0:0:0:
112,156,35585,2,0,P|103:120|111:85,1,73,2|2,0:0|3:0,0:0:0:0:
180,44,36085,2,0,P|111:66|43:43,1,146,10|10,0:3|0:0,0:0:0:0:
256,112,37085,6,0,P|324:89|392:112,1,146,8|2,3:0|0:0,0:0:0:0:
444,48,37835,1,2,3:0:0:0:
488,116,38085,2,0,B|482:151|482:151|488:188,1,73,6|0,0:3|0:0,0:0:0:0:
432,244,38585,2,0,B|438:279|438:279|432:316,1,73,10|2,0:0|3:0,0:0:0:0:
380,376,39085,6,0,L|492:376,2,109.5,4|2|2,2:3|0:3|0:3,0:0:0:0:
324,320,40085,2,0,L|172:320,1,146,2|8,0:0|0:0,0:0:0:0:
80,192,41085,6,0,P|148:192|196:128,1,146,4|8,0:0|0:0,0:0:0:0:
256,84,41835,1,2,3:0:0:0:
317,135,42085,2,0,P|361:190|432:192,1,146,8|8,3:0|0:0,0:0:0:0:
320,308,43085,6,0,B|280:308|256:279|256:279|232:308|192:308,1,146,10|8,3:0|0:0,0:0:0:0:
134,365,43835,1,2,3:0:0:0:
77,308,44085,2,0,B|77:241|77:241|72:228|72:228|72:163,1,146,2|8,3:0|0:0,0:0:0:0:
129,105,44835,1,8,3:0:0:0:
185,48,45085,6,0,P|220:39|255:47,1,73,10|8,3:0|3:0,0:0:0:0:
325,87,45585,2,0,P|360:95|395:86,1,73,8|2,0:0|0:0,0:0:0:0:
436,16,46085,2,0,P|413:84|435:152,1,146,10|8,3:0|0:0,0:0:0:0:
384,304,47085,6,0,P|256:364|128:304,1,292,4|2,0:0|0:0,0:0:0:0:
68,248,48335,1,0,0:0:0:0:
124,192,48585,2,0,B|160:200|160:200|196:192,1,73,8|2,0:0|0:1,0:0:0:0:
260,140,49085,6,0,B|276:192|276:192|260:244,2,109.5,4|2|2,0:0|0:0|3:0,0:0:0:0:
196,92,50085,2,0,L|348:92,1,146,2|8,3:0|0:0,0:0:0:0:
400,148,50835,1,2,3:0:0:0:
344,208,51085,2,0,B|296:208|296:208|287:214|287:214|228:215,2,109.5,8|2|2,3:0|0:0|3:0,0:0:0:0:
400,148,52085,2,0,P|344:208|344:344,1,219,6|2,3:0|0:0,0:0:0:0:
408,384,53085,6,0,P|340:361|272:383,1,146,4|8,0:0|0:0,0:0:0:0:
200,344,53835,1,2,3:0:0:0:
132,300,54085,2,0,P|80:315|28:300,2,109.5,2|2|2,3:0|3:0|0:0,0:0:0:0:
204,264,55085,2,0,P|256:249|308:264,2,109.5,8|2|2,3:0|0:3|3:0,0:0:0:0:
136,220,56085,1,4,0:0:0:0:
204,76,56585,1,8,0:0:0:0:
256,136,56835,1,2,0:3:0:0:
308,76,57085,5,4,0:0:0:0:
376,220,57585,2,0,L|412:292,1,73,8|2,0:0|3:0,0:0:0:0:
472,332,58085,2,0,P|404:309|336:331,1,146,2|8,3:0|0:0,0:0:0:0:
256,348,58835,1,2,3:0:0:0:
176,331,59085,2,0,P|107:309|40:332,2,146,8|10|2,3:0|0:0|3:0,0:0:0:0:
256,348,60335,1,0,0:0:0:0:
336,332,60585,2,0,P|326:297|334:261,1,73,8|2,0:0|3:0,0:0:0:0:
372,192,61085,6,0,P|248:192|276:64,1,292,2|2,0:0|3:0,0:0:0:0:
340,16,62335,1,2,0:0:0:0:
276,64,62585,2,0,L|204:40,1,73,8|2,0:0|0:0,0:0:0:0:
160,108,63085,6,0,B|124:96|124:96|88:96,1,73,4|0,0:0|0:0,0:0:0:0:
108,176,63585,1,8,0:0:0:0:
136,252,63835,2,0,P|166:316|136:380,2,146,2|2|2,0:0|0:0|0:0,0:0:0:0:
108,176,65085,5,2,0:0:0:0:
256,96,69085,6,0,B|204:96|204:96|160:96|120:136,1,146,6|10,0:0|0:3,0:0:0:0:
64,192,69835,1,10,0:0:0:0:
121,249,70085,2,0,B|160:288|204:288|204:288|256:288,1,146,10|10,0:0|0:3,0:0:0:0:
300,356,70835,6,0,P|277:288|300:220,1,146,10|10,0:0|0:3,0:0:0:0:
368,176,71585,1,10,0:3:0:0:
296,136,71835,2,0,B|261:136|261:136|229:114,1,73,8|0,0:0|0:0,0:0:0:0:
193,186,72335,2,0,B|161:164|161:164|126:164,1,73,8|10,0:0|0:3,0:0:0:0:
77,98,72835,1,8,0:0:0:0:
125,34,73085,6,0,L|273:34,1,146,10|10,0:0|0:3,0:0:0:0:
340,76,73835,1,10,0:0:0:0:
404,32,74085,2,0,B|428:72|407:115|407:115|470:115,1,146,2|10,0:0|0:3,0:0:0:0:
504,44,74835,6,0,P|481:111|504:179,1,146,10|8,0:0|0:0,0:0:0:0:
456,244,75585,1,10,0:3:0:0:
512,304,75835,2,0,L|356:304,1,146,8|8,0:0|0:0,0:0:0:0:
312,360,76585,1,10,0:3:0:0:
256,304,76835,1,8,0:0:0:0:
308,244,77085,6,0,P|331:176|308:108,1,146,10|10,0:0|0:3,0:0:0:0:
256,48,77835,1,10,0:0:0:0:
203,108,78085,2,0,P|180:176|204:244,1,146,10|10,0:0|0:3,0:0:0:0:
256,304,78835,6,0,L|416:304,1,146,10|8,0:0|0:0,0:0:0:0:
456,364,79585,1,10,0:3:0:0:
402,304,79835,2,0,L|452:252,1,73,8|8,0:0|0:0,0:0:0:0:
380,216,80335,2,0,L|430:164,1,73,8|10,0:0|0:3,0:0:0:0:
420,84,80835,1,8,0:0:0:0:
340,100,81085,6,0,P|256:159|172:100,1,219,10|10,0:0|0:0,0:0:0:0:
120,36,82085,2,0,L|208:240,1,219,10|10,0:0|0:0,0:0:0:0:
152,296,83085,6,0,L|286:238,1,146,8|10,0:0|0:3,0:0:0:0:
368,100,84085,2,0,L|233:157,1,146,8|8,0:0|0:0,0:0:0:0:
176,100,84835,1,10,0:3:0:0:
132,32,85085,6,0,B|76:32|76:32|28:32|-4:68,1,146,14|10,0:0|1:3,0:0:0:0:
68,116,85835,1,10,0:0:0:0:
140,164,86085,2,0,B|108:200|60:200|60:200|4:200,1,146,10|10,0:0|1:3,0:0:0:0:
32,280,86835,1,10,0:0:0:0:
68,352,87085,5,10,0:0:0:0:
184,244,87585,1,10,1:3:0:0:
256,208,87835,1,8,0:0:0:0:
328,244,88085,1,2,0:0:0:0:
444,352,88585,1,10,1:3:0:0:
480,280,88835,1,8,0:0:0:0:
508,200,89085,6,0,B|452:200|452:200|404:200|372:164,1,146,10|10,0:0|1:3,0:0:0:0:
444,116,89835,1,10,0:0:0:0:
512,68,90086,2,0,B|484:32|436:32|436:32|380:32,1,146,10|10,0:0|1:3,0:0:0:0:
256,132,91085,6,0,L|256:248,2,109.5,10|8|8,0:0|0:0|0:0,0:0:0:0:
291,60,92085,2,0,P|256:52|221:60,1,73,10|0,1:3|0:0,0:0:0:0:
172,124,92585,2,0,P|137:132|102:124,1,73,10|10,1:3|1:3,0:0:0:0:
56,56,93085,6,0,P|78:124|56:192,1,146,14|10,1:2|1:3,0:0:0:0:
4,252,93835,1,10,0:0:0:0:
56,316,94085,2,0,B|120:316|120:316|136:324|136:324|204:324,1,146,10|10,0:0|1:3,0:0:0:0:
256,268,94835,1,10,0:0:0:0:
311,324,95085,6,0,B|376:324|376:324|392:316|392:316|456:316,1,146,10|10,0:0|1:3,0:0:0:0:
508,252,95835,1,8,0:0:0:0:
456,192,96085,2,0,L|384:192,1,73,8|8,0:0|0:0,0:0:0:0:
312,156,96585,2,0,L|239:156,1,73,10|8,1:3|0:0,0:0:0:0:
192,220,97085,6,0,P|214:151|192:83,1,146,10|10,0:0|1:3,0:0:0:0:
120,52,97835,1,10,0:0:0:0:
120,52,98085,2,0,L|232:4,2,109.5,10|10|10,0:0|0:0|0:0,0:0:0:0:
100,128,99085,6,0,L|-12:176,2,109.5,10|8|8,0:0|0:0|0:0,0:0:0:0:
176,152,100085,2,0,L|288:104,2,109.5,8|2|10,3:0|0:3|0:3,0:0:0:0:
144,228,101085,5,4,0:0:0:0:
68,316,105085,6,0,P|117:276|196:292,1,146,6|8,3:0|0:0,0:0:0:0:
256,340,105835,1,0,0:0:0:0:
312,280,106085,2,0,L|270:125,1,146,2|8,3:0|0:0,0:0:0:0:
328,80,106835,1,0,0:0:0:0:
388,28,107085,5,4,0:0:0:0:
504,192,107585,1,8,0:0:0:0:
388,356,108085,2,0,L|292:368,1,73,12|2,0:0|3:0,0:0:0:0:
240,336,108585,2,0,L|144:348,1,73,8|2,0:0|0:3,0:0:0:0:
88,324,109085,6,0,P|55:282|60:228,2,109.5,4|2|2,0:0|3:0|0:0,0:0:0:0:
132,256,110085,2,0,P|136:202|40:152,1,146,10|8,3:0|0:0,0:0:0:0:
20,84,110835,1,2,0:0:0:0:
76,28,111085,6,0,L|176:28,1,73,2|2,3:0|0:3,0:0:0:0:
220,68,111585,2,0,L|320:68,1,73,8|2,0:0|3:0,0:0:0:0:
368,40,112085,5,8,2:0:0:0:
420,100,112335,1,8,0:0:0:0:
468,164,112585,2,0,P|464:224|436:252,1,73,8|6,0:0|0:0,0:0:0:0:
390,280,113085,6,0,P|302:280|254:316,1,146,4|8,0:0|0:0,0:0:0:0:
257,312,113835,1,4,0:0:0:0:
257,312,114085,2,0,P|195:274|124:279,1,146,4|8,0:0|0:0,0:0:0:0:
124,104,115085,6,0,P|195:109|257:71,1,146,8|10,3:0|0:0,0:0:0:0:
257,72,115835,1,0,1:0:0:0:
257,71,116085,2,0,P|318:109|390:104,2,146,0|8|4,1:0|0:0|0:0,0:0:0:0:
256,312,117835,5,4,2:0:0:0:
256,312,118085,2,0,L|256:200,2,109.5,14|2|0,0:3|0:1|0:0,0:0:0:0:
320,364,119085,1,4,2:0:0:0:
32,192,120585,6,0,P|8:152|12:108,1,73,4|0,0:0|0:0,0:0:0:0:
60,64,121085,6,0,P|128:64|216:88,1,146,4|8,0:0|0:0,0:0:0:0:
256,20,121835,1,2,3:0:0:0:
308,82,122085,6,0,P|374:65|443:65,2,109.5,2|2|2,3:0|0:3|3:0,0:0:0:0:
256,144,123085,2,0,P|189:161|121:161,2,109.5,8|2|2,3:0|0:0|3:0,0:0:0:0:
308,84,124085,1,6,3:0:0:0:
428,188,124585,1,8,0:0:0:0:
408,264,124835,1,2,0:0:0:0:
380,340,125085,6,0,B|336:328|325:277|325:277|288:304|256:296,1,146,4|8,0:0|0:0,0:0:0:0:
200,260,125835,1,2,3:0:0:0:
136,308,126085,6,0,L|16:324,2,109.5,2|2|2,3:0|3:0|0:0,0:0:0:0:
200,260,127085,2,0,L|184:140,2,109.5,8|2|2,3:0|0:3|3:0,0:0:0:0:
256,316,128085,2,0,P|325:339|409:306,1,146,4|8,0:0|0:0,0:0:0:0:
416,240,128835,1,0,0:0:0:0:
432,160,129085,6,0,B|388:104|388:104|412:64|380:12,1,146,4|8,0:0|0:0,0:0:0:0:
316,64,129835,1,2,3:0:0:0:
240,36,130085,2,0,L|92:56,1,146,2|8,3:0|0:0,0:0:0:0:
28,100,130835,1,2,3:0:0:0:
80,160,131085,2,0,L|216:140,2,109.5,8|0|8,3:0|0:0|3:0,0:0:0:0:
24,220,132085,2,0,P|24:276|104:336,1,146,2|8,3:0|0:0,0:0:0:0:
160,296,132835,1,2,3:0:0:0:
226,348,133085,2,0,B|250:316|238:272|238:272|266:296|302:292,1,146,2|8,0:0|0:0,0:0:0:0:
372,264,133835,1,0,0:0:0:0:
412,196,134085,6,0,L|384:104,1,73,2|2,3:0|0:0,0:0:0:0:
412,40,134585,2,0,L|320:68,1,73,8|2,0:0|0:0,0:0:0:0:
272,104,135085,2,0,P|265:131|300:196,2,73,4|0|8,0:0|0:0|0:0,0:0:0:0:
204,48,135835,2,0,P|132:40|57:87,2,146,2|2|2,0:0|0:0|0:0,0:0:0:0:
272,104,137085,5,2,0:0:0:0:
256,192,137210,12,2,140085,0:0:0:0:
256,96,141085,6,0,B|308:96|308:96|352:96|392:136,1,146,6|10,0:0|0:3,0:0:0:0:
448,192,141835,1,10,0:0:0:0:
391,249,142085,2,0,B|352:288|308:288|308:288|256:288,1,146,10|10,0:0|0:3,0:0:0:0:
212,356,142835,6,0,P|235:288|212:220,1,146,10|10,0:0|0:3,0:0:0:0:
144,176,143585,1,10,0:3:0:0:
216,136,143835,2,0,B|251:136|251:136|283:114,1,73,8|0,0:0|0:0,0:0:0:0:
319,186,144335,2,0,B|351:164|351:164|386:164,1,73,8|10,0:0|0:3,0:0:0:0:
435,98,144835,1,8,0:0:0:0:
387,34,145085,6,0,L|239:34,1,146,10|10,0:0|0:3,0:0:0:0:
172,76,145835,1,10,0:0:0:0:
108,32,146085,2,0,B|84:72|105:115|105:115|42:115,1,146,2|10,0:0|0:3,0:0:0:0:
8,44,146835,6,0,P|31:111|8:179,1,146,10|8,0:0|0:0,0:0:0:0:
56,244,147585,1,10,0:3:0:0:
0,304,147835,2,0,L|156:304,1,146,8|8,0:0|0:0,0:0:0:0:
200,360,148585,1,10,0:3:0:0:
256,304,148835,1,8,0:0:0:0:
204,244,149085,6,0,P|181:176|204:108,1,146,10|10,0:0|0:3,0:0:0:0:
256,48,149835,1,10,0:0:0:0:
309,108,150085,2,0,P|332:176|308:244,1,146,10|10,0:0|0:3,0:0:0:0:
256,304,150835,6,0,L|96:304,1,146,10|8,0:0|0:0,0:0:0:0:
56,364,151585,1,10,0:3:0:0:
110,304,151835,2,0,L|60:252,1,73,8|8,0:0|0:0,0:0:0:0:
132,216,152335,2,0,L|82:164,1,73,8|10,0:0|0:3,0:0:0:0:
92,84,152835,1,8,0:0:0:0:
172,100,153085,6,0,P|256:159|340:100,1,219,10|10,0:0|0:0,0:0:0:0:
392,36,154085,2,0,L|304:240,1,219,10|10,0:0|0:0,0:0:0:0:
360,296,155085,6,0,L|226:238,1,146,8|10,0:0|0:3,0:0:0:0:
144,100,156085,2,0,L|279:157,1,146,8|8,0:0|0:0,0:0:0:0:
336,100,156835,1,10,0:3:0:0:
380,32,157085,6,0,B|436:32|436:32|484:32|516:68,1,146,14|10,0:0|1:3,0:0:0:0:
444,116,157835,1,10,0:0:0:0:
372,164,158085,2,0,B|404:200|452:200|452:200|508:200,1,146,10|10,0:0|1:3,0:0:0:0:
480,280,158835,1,10,0:0:0:0:
444,352,159085,5,10,0:0:0:0:
328,244,159585,1,10,1:3:0:0:
256,208,159835,1,8,0:0:0:0:
184,244,160085,1,2,0:0:0:0:
68,352,160585,1,10,1:3:0:0:
32,280,160835,1,8,0:0:0:0:
4,200,161085,6,0,B|60:200|60:200|108:200|140:164,1,146,10|10,0:0|1:3,0:0:0:0:
68,116,161835,1,10,0:0:0:0:
0,68,162086,2,0,B|28:32|76:32|76:32|132:32,1,146,10|10,0:0|1:3,0:0:0:0:
256,132,163085,6,0,L|256:248,2,109.5,10|8|8,0:0|0:0|0:0,0:0:0:0:
221,60,164085,2,0,P|256:52|291:60,1,73,10|0,1:3|0:0,0:0:0:0:
340,124,164585,2,0,P|375:132|410:124,1,73,10|10,1:3|1:3,0:0:0:0:
456,56,165085,6,0,P|434:124|456:192,1,146,14|10,1:2|1:3,0:0:0:0:
508,252,165835,1,10,0:0:0:0:
456,316,166085,2,0,B|392:316|392:316|376:324|376:324|308:324,1,146,10|10,0:0|1:3,0:0:0:0:
256,268,166835,1,10,0:0:0:0:
201,324,167085,6,0,B|136:324|136:324|120:316|120:316|56:316,1,146,10|10,0:0|1:3,0:0:0:0:
4,252,167835,1,8,0:0:0:0:
56,192,168085,2,0,L|128:192,1,73,8|8,0:0|0:0,0:0:0:0:
200,156,168585,2,0,L|273:156,1,73,10|8,1:3|0:0,0:0:0:0:
320,220,169085,6,0,P|298:151|320:83,1,146,10|10,0:0|1:3,0:0:0:0:
392,52,169835,1,10,0:0:0:0:
392,52,170085,2,0,L|280:4,2,109.5,10|10|10,0:0|0:0|0:0,0:0:0:0:
412,128,171085,6,0,L|524:176,2,109.5,10|8|8,0:0|0:0|0:0,0:0:0:0:
336,152,172085,2,0,L|224:104,2,109.5,8|2|10,3:0|0:3|0:3,0:0:0:0:
368,228,173085,5,4,0:0:0:0:
256,192,185085,12,12,191085,0:0:0:0:
100,324,193085,6,0,P|152:356|208:304,1,146,10|10,0:0|0:3,0:0:0:0:
256,244,193835,1,10,0:0:0:0:
304,306,194085,2,0,P|351:355|412:324,1,146,10|10,0:0|0:3,0:0:0:0:
428,244,194835,2,0,B|426:179|426:179|431:157|431:157|430:90,1,146,10|8,0:0|0:0,0:0:0:0:
372,44,195585,1,10,0:3:0:0:
324,108,195835,2,0,P|256:136|192:104,1,146,8|8,0:0|0:0,0:0:0:0:
140,44,196585,1,10,0:3:0:0:
76,192,197085,6,0,P|24:192|-32:244,2,109.5,10|10|10,0:0|0:0|0:0,0:0:0:0:
132,248,198085,2,0,L|132:340,2,73,2|8|10,0:0|0:0|0:3,0:0:0:0:
188,192,198835,2,0,L|336:192,1,146,8|8,0:0|0:0,0:0:0:0:
408,224,199585,1,10,0:3:0:0:
468,172,199835,2,0,L|322:172,1,146,8|2,0:0|0:3,0:0:0:0:
284,104,200585,1,10,0:3:0:0:
216,248,201085,6,0,P|142:272|88:256,2,109.5,10|10|10,0:0|0:0|0:0,0:0:0:0:
256,180,202085,2,0,L|256:272,1,73,10|8,0:0|0:0,0:0:0:0:
308,312,202585,1,10,0:3:0:0:
388,296,202835,2,0,P|464:272|420:240,1,146,10|8,0:0|0:0,0:0:0:0:
392,192,203585,1,10,0:3:0:0:
448,136,203835,1,8,0:0:0:0:
400,72,204085,6,0,L|240:72,1,146,8|10,0:0|0:3,0:0:0:0:
173,72,204835,1,8,0:0:0:0:
92,72,205085,1,10,0:0:0:0:
95,232,205585,1,10,0:3:0:0:
176,232,205835,1,10,0:0:0:0:
256,232,206085,2,0,L|256:352,2,109.5,10|10|10,0:0|0:0|0:0,0:0:0:0:
324,188,207085,5,8,0:0:0:0:
256,44,207585,1,10,0:3:0:0:
116,120,208085,2,0,L|36:120,2,73,8|10|8,0:0|0:3|0:0,0:0:0:0:
324,188,209085,6,0,P|352:248|308:328,1,146,14|8,0:0|0:0,0:0:0:0:
256,360,209835,1,10,0:0:0:0:
189,317,210085,2,0,P|159:253|188:188,1,146,10|8,0:0|0:0,0:0:0:0:
256,144,210835,1,10,0:0:0:0:
324,188,211085,6,0,L|444:188,2,109.5,10|10|10,0:0|0:0|0:0,0:0:0:0:
256,144,212085,2,0,L|256:64,1,73,10|0,0:0|0:0,0:0:0:0:
92,248,213085,6,0,P|132:308|216:344,1,146,14|8,0:0|0:0,0:0:0:0:
256,284,213835,1,10,0:0:0:0:
315,341,214085,2,0,P|379:308|420:248,1,146,10|8,0:0|0:0,0:0:0:0:
476,192,214835,1,10,0:0:0:0:
432,124,215085,6,0,L|432:12,2,109.5,10|10|10,0:0|0:0|0:0,0:0:0:0:
356,156,216085,2,0,L|356:72,1,73,8|8,0:0|0:0,0:0:0:0:
292,32,216585,2,0,P|256:24|216:36,1,73,2|14,0:0|0:3,0:0:0:0:
160,88,217085,6,0,L|28:68,2,109.5,14|10|10,0:0|0:0|0:0,0:0:0:0:
216,144,218085,2,0,L|348:124,2,109.5,10|10|10,0:0|0:0|0:0,0:0:0:0:
152,192,219085,6,0,P|136:240|148:280,1,73,10|0,0:0|0:0,0:0:0:0:
180,328,219585,2,0,P|228:344|268:332,1,73,8|10,0:0|0:0,0:0:0:0:
312,292,220085,2,0,P|328:244|316:204,1,73,10|0,0:0|0:0,0:0:0:0:
284,156,220585,2,0,P|236:140|196:152,1,73,10|10,1:3|0:0,0:0:0:0:
152,192,221085,5,14,0:0:0:0:
312,292,221585,1,0,0:0:0:0:
392,284,221835,1,10,0:0:0:0:
472,276,222085,1,10,0:0:0:0:
496,116,222585,1,0,0:0:0:0:
416,124,222835,1,10,0:0:0:0:
336,132,223085,6,0,L|284:60,1,73,12|0,0:0|0:0,0:0:0:0:
276,184,223585,2,0,L|224:112,1,73,10|10,1:3|0:0,0:0:0:0:
216,236,224085,2,0,L|164:164,1,73,12|2,0:0|0:3,0:0:0:0:
156,288,224585,2,0,L|104:216,2,73,10|10|4,1:3|0:0|0:0,0:0:0:0:
256,192,225210,12,2,227085,0:0:0:0:
