osu file format v13

[General]
AudioFilename: 2NE1 - DO YOU LOVE ME.mp3
AudioLeadIn: 0
PreviewTime: 31752
Countdown: 0
SampleSet: Normal
StackLeniency: 0.7
Mode: 0
LetterboxInBreaks: 1
EpilepsyWarning: 1
WidescreenStoryboard: 1

[Editor]
Bookmarks: 31406,46175,60944,75714,83098,90483,94175,108944,123714,138483,145867,153252,182791,197560,212329
DistanceSpacing: 0.8
BeatDivisor: 4
GridSize: 4
TimelineZoom: 1

[Metadata]
Title:Do You Love Me
TitleUnicode:Do You Love Me
Artist:2NE1
ArtistUnicode:2NE1
Creator:Lizbeth
Version:Sleeping
Source:
Tags:Lissette Liz & Liss collab collaboration k-pop
BeatmapID:312072
BeatmapSetID:115665

[Difficulty]
HPDrainRate:2
CircleSize:3
OverallDifficulty:2
ApproachRate:3
SliderMultiplier:1
SliderTickRate:1

[Events]
//Background and Video events
0,0,"BG.jpg",0,0
//Break Periods
2,75923,81668
2,138693,144437
//Storyboard Layer 0 (Background)
//Storyboard Layer 1 (Fail)
//Storyboard Layer 2 (Pass)
//Storyboard Layer 3 (Foreground)
//Storyboard Sound Samples
//Background Colour Transformations
3,100,163,162,255

[TimingPoints]
16647,461.538461538462,4,1,0,50,1,0
19877,-66.6666666666667,4,1,0,50,0,0
20224,-66.6666666666667,4,1,0,20,0,0
20339,-100,4,1,0,50,0,0
23570,-66.6666666666667,4,1,0,50,0,0
23916,-66.6666666666667,4,1,0,20,0,0
24031,-100,4,1,0,50,0,0
27724,-100,4,1,0,50,0,0
30954,-200,4,1,0,50,0,0
31301,-100,4,1,0,50,0,0
31416,-100,4,1,0,50,0,1
46185,-100,4,1,0,50,0,0
60954,-100,4,1,0,50,0,0
83108,-133.333333333333,4,1,0,50,0,0
87724,-100,4,1,0,50,0,0
92108,-66.6666666666667,4,1,0,50,0,0
92339,-100,4,1,0,50,0,0
94185,-100,4,1,0,50,0,1
101570,-100,4,1,0,50,0,1
108954,-100,4,1,0,50,0,0
121877,-100,4,1,0,50,0,0
123724,-100,4,1,0,50,0,0
152800,-200,4,2,0,15,0,0
152916,-100,4,1,0,50,0,0
167570,-200,4,1,0,30,0,0
168031,-100,4,1,0,50,0,1
168147,-100,4,1,0,50,0,0
197570,-200,4,1,0,50,0,1
198031,-100,4,1,0,50,0,1
205185,-100,4,1,0,50,0,1
210493,-200,4,1,0,50,0,0

[Colours]
Combo1 : 255,123,60
Combo2 : 255,91,173
Combo3 : 255,255,81
Combo4 : 255,102,102

[HitObjects]
24,104,16646,6,0,L|24:208,1,100,0|0,0:0|0:0,0:0:0:0:
104,188,17570,2,0,L|104:304,1,100,0|0,0:0|0:0,0:0:0:0:
184,288,18493,2,0,L|336:288,2,150,0|2|0,0:0|0:0|0:0,0:0:0:0:
184,208,20339,6,0,L|184:100,1,100,0|0,0:0|0:0,0:0:0:0:
264,128,21262,2,0,L|264:24,1,100,0|0,0:0|0:0,0:0:0:0:
344,48,22185,2,0,L|496:48,2,150,0|2|0,0:0|0:0|0:0,0:0:0:0:
344,128,24031,6,0,L|344:232,1,100,0|0,0:0|0:0,0:0:0:0:
264,216,24954,2,0,L|264:320,1,100,0|0,0:0|0:0,0:0:0:0:
184,328,25877,2,0,L|16:328,2,150,0|2|0,0:0|0:0|0:0,0:0:0:0:
164,248,27723,6,0,L|164:132,1,100,0|0,0:0|0:0,0:0:0:0:
84,172,28647,2,0,L|84:56,1,100,0|0,0:0|0:0,0:0:0:0:
164,68,29570,2,0,L|320:68,2,150,4|2|0,0:0|0:1|0:0,0:0:0:0:
84,68,31416,5,4,0:0:0:0:
56,144,31877,2,0,B|136:196|92:256|192:300,1,200,8|8,0:0|0:0,0:0:0:0:
236,356,33262,1,0,0:0:0:0:
316,344,33723,2,0,B|328:252|424:252|424:164,1,200,8|8,0:0|0:0,0:0:0:0:
444,104,35108,5,0,0:0:0:0:
364,92,35570,2,0,B|272:124|272:32|164:60,1,200,8|8,0:0|0:0,0:0:0:0:
116,112,36954,2,0,P|112:168|88:220,1,100,0|8,0:0|0:0,0:0:0:0:
172,236,37877,2,0,P|176:288|216:336,1,100,0|8,0:0|0:0,0:0:0:0:
280,352,38800,1,4,0:0:0:0:
360,344,39262,6,0,P|424:288|444:172,1,200,8|8,0:0|0:0,0:0:0:0:
420,104,40647,1,0,0:0:0:0:
376,36,41108,2,0,P|280:80|176:48,1,200,8|8,0:0|0:0,0:0:0:0:
120,24,42493,1,0,0:0:0:0:
72,88,42954,6,0,P|36:188|64:276,1,200,8|8,0:0|0:0,0:0:0:0:
120,332,44339,2,0,L|324:332,2,200,0|0|4,0:0|0:0|0:0,0:0:0:0:
108,252,46647,5,8,0:0:0:0:
132,176,47108,1,0,0:0:0:0:
156,100,47570,2,0,L|248:60,1,100,8|0,0:0|0:0,0:0:0:0:
328,56,48493,1,8,0:0:0:0:
372,124,48954,1,0,0:0:0:0:
444,160,49416,1,8,0:0:0:0:
448,240,49877,5,0,0:0:0:0:
396,300,50339,2,0,P|300:356|212:324,1,200,8|8,0:0|0:0,0:0:0:0:
216,252,51723,1,0,0:0:0:0:
296,260,52185,2,0,P|360:192|336:92,1,200,8|8,0:0|0:0,0:0:0:0:
280,40,53570,1,4,0:0:0:0:
200,56,54031,5,8,0:0:0:0:
124,36,54493,1,0,0:0:0:0:
48,56,54954,2,0,L|92:260,1,200,8|8,0:0|0:0,0:0:0:0:
168,240,56339,1,0,0:0:0:0:
188,316,56800,1,8,0:0:0:0:
264,284,57262,1,0,0:0:0:0:
320,340,57723,6,0,P|408:300|432:188,1,200,8|8,0:0|0:0,0:0:0:0:
448,128,59108,2,0,P|392:124|332:148,1,100,0|8,0:0|0:0,0:0:0:0:
276,108,60031,2,0,P|212:116|164:88,1,100,0|12,0:0|0:0,0:0:0:0:
104,72,60954,5,0,0:0:0:0:
96,152,61416,1,10,0:2:0:0:
88,232,61877,1,2,0:2:0:0:
160,200,62339,2,0,P|200:220|260:220,1,100,10|0,0:2|0:0,0:0:0:0:
320,180,63262,1,10,0:2:0:0:
368,116,63723,2,0,P|417:116|462:137,1,100,2|10,0:2|0:2,0:0:0:0:
452,216,64647,6,0,L|440:316,1,100,0|10,0:0|0:2,0:0:0:0:
364,284,65570,2,0,L|304:368,1,100,2|10,0:2|0:2,0:0:0:0:
228,344,66493,1,0,0:0:0:0:
164,296,66954,1,10,0:2:0:0:
144,220,67416,1,2,0:2:0:0:
164,144,67877,6,0,P|208:104|216:52,1,100,10|0,0:2|0:0,0:0:0:0:
296,76,68800,2,0,P|316:124|316:188,1,100,10|2,0:2|0:2,0:0:0:0:
324,252,69723,1,10,0:2:0:0:
384,304,70185,2,0,B|432:328|500:304,2,100,0|10|2,0:2|0:2|0:2,0:0:0:0:
320,352,71570,1,10,0:2:0:0:
260,300,72031,2,0,B|208:280|148:304,2,100,0|10|2,0:0|0:2|0:2,0:0:0:0:
312,240,73416,6,0,L|284:128,1,100,10|0,0:2|0:0,0:0:0:0:
368,140,74339,2,0,L|340:28,1,100,10|2,0:2|0:2,0:0:0:0:
264,40,75262,1,10,0:2:0:0:
184,40,75723,1,4,0:0:0:0:
320,200,83108,6,0,B|390:207|330:295|399:310,2,150.000005722046,0|4|0,0:0|0:0|0:0,0:0:0:0:
200,188,85877,2,0,B|128:180|188:92|112:76,2,150.000005722046,4|0|4,0:0|0:0|0:0,0:0:0:0:
332,100,88647,1,4,0:0:0:0:
332,100,90493,5,0,0:0:0:0:
264,140,90954,1,0,0:0:0:0:
192,172,91416,2,0,L|156:72,1,100,0|0,0:0|0:0,0:0:0:0:
88,120,92339,2,0,L|144:272,2,150,0|0|0,2:0|0:0|0:0,0:0:0:0:
124,48,94185,5,4,0:0:0:0:
204,44,94647,2,0,B|292:56|272:156|372:152,1,200,8|8,0:0|0:0,0:0:0:0:
428,108,96031,1,0,0:0:0:0:
436,188,96493,2,0,B|428:264|292:268|316:352,1,200,8|8,0:0|0:0,0:0:0:0:
236,352,97877,1,0,0:0:0:0:
196,284,98339,6,0,B|112:264|160:160|52:144,1,200,8|8,0:0|0:0,0:0:0:0:
84,68,99723,2,0,P|136:44|196:56,1,100,0|8,0:0|0:0,0:0:0:0:
248,84,100647,2,0,P|296:100|352:84,1,100,0|8,0:0|0:0,0:0:0:0:
416,60,101570,1,4,0:0:0:0:
432,140,102031,6,0,P|416:248|336:296,1,200,8|8,0:0|0:0,0:0:0:0:
264,296,103416,1,0,0:0:0:0:
300,224,103877,2,0,P|280:132|172:84,1,200,8|8,0:0|0:0,0:0:0:0:
112,72,105262,1,0,0:0:0:0:
140,148,105723,6,0,P|128:248|48:296,1,200,8|8,0:0|0:0,0:0:0:0:
52,376,107108,2,0,P|144:344|216:252,2,200,0|0|4,0:0|0:0|0:0,0:0:0:0:
44,296,109416,6,0,P|28:252|28:200,2,100,8|0|8,0:0|0:0|0:0,0:0:0:0:
120,272,110800,1,0,0:0:0:0:
172,332,111262,2,0,P|264:304|380:312,1,200,8|8,0:0|0:0,0:0:0:0:
440,340,112647,2,0,L|468:236,1,100,0|8,0:0|0:0,0:0:0:0:
388,236,113570,2,0,L|364:128,1,100,0|8,0:0|0:0,0:0:0:0:
344,60,114493,5,0,0:0:0:0:
252,192,115416,1,0,0:0:0:0:
128,92,116339,1,0,0:0:0:0:
96,164,116800,6,0,P|44:160|-8:200,2,100,8|0|8,0:0|0:0|0:0,0:0:0:0:
164,204,118185,1,0,0:0:0:0:
240,180,118647,2,0,L|260:280,2,100,8|0|8,0:0|0:0|0:0,0:0:0:0:
224,100,120031,2,0,P|380:92|480:184,1,300,4|12,0:0|0:0,0:0:0:0:
436,252,121877,5,0,0:0:0:0:
376,304,122339,5,8,0:0:0:0:
296,288,122800,5,0,0:0:0:0:
240,344,123262,5,8,0:0:0:0:
172,304,123723,6,0,L|128:200,1,100,0|10,0:0|0:2,0:0:0:0:
80,152,124647,2,0,L|180:84,1,100,0|10,0:0|0:2,0:0:0:0:
212,32,125570,2,0,L|288:108,1,100,0|10,0:0|0:2,0:0:0:0:
360,128,126493,2,0,L|300:216,1,100,0|8,0:0|0:0,0:0:0:0:
268,284,127416,6,0,P|300:320|364:324,1,100,0|10,0:0|0:2,0:0:0:0:
412,276,128339,2,0,P|420:232|472:204,1,100,2|10,0:2|0:2,0:0:0:0:
512,136,129262,2,0,P|508:80|456:44,1,100,0|10,0:0|0:2,0:0:0:0:
400,48,130185,2,0,P|340:68|308:48,1,100,2|10,0:2|0:2,0:0:0:0:
232,44,131108,5,0,0:0:0:0:
232,44,131570,1,10,0:2:0:0:
176,100,132031,2,0,L|204:204,1,100,2|10,0:2|0:2,0:0:0:0:
268,252,132954,1,0,0:0:0:0:
268,252,133416,1,10,0:2:0:0:
280,332,133877,2,0,L|168:364,1,100,2|10,0:2|0:2,0:0:0:0:
116,312,134800,5,0,0:0:0:0:
116,312,135262,1,10,0:2:0:0:
88,236,135723,1,2,0:2:0:0:
88,236,136185,1,10,0:2:0:0:
116,160,136647,2,0,L|92:60,1,100,0|10,0:0|0:2,0:0:0:0:
176,56,137570,2,0,L|292:32,1,100,0|8,0:0|0:0,0:0:0:0:
288,116,138493,1,4,0:0:0:0:
392,116,145877,6,0,L|416:216,1,100,0|8,0:0|0:0,0:0:0:0:
336,228,146800,2,0,L|328:340,1,100,0|8,0:0|0:0,0:0:0:0:
252,308,147723,1,0,0:0:0:0:
180,340,148185,6,0,P|96:288|76:184,1,200,8|8,0:0|0:0,0:0:0:0:
120,128,149570,2,0,P|220:124|300:40,1,200,0|0,0:0|0:0,0:0:0:0:
256,192,150954,12,0,152800,0:0:0:0:
256,192,153262,6,0,L|156:192,1,100,0|0,0:0|0:0,0:0:0:0:
168,112,154185,2,0,L|60:112,1,100,0|0,0:0|0:0,0:0:0:0:
48,188,155108,2,0,L|48:352,2,150,0|0|0,0:0|0:0|0:0,0:0:0:0:
72,112,156954,6,0,P|120:76|180:76,1,100,0|0,0:0|0:0,0:0:0:0:
232,104,157877,2,0,P|284:120|344:100,1,100,0|0,0:0|0:0,0:0:0:0:
400,72,158800,2,0,P|428:132|416:220,2,150,0|0|0,0:0|0:0|0:0,0:0:0:0:
324,52,160647,5,8,0:0:0:0:
288,124,161108,1,0,0:0:0:0:
296,204,161570,2,0,P|308:260|284:300,1,100,8|8,0:0|0:0,0:0:0:0:
208,292,162493,2,0,L|40:288,2,150,8|0|8,0:0|0:0|0:0,0:0:0:0:
260,232,164339,5,0,0:0:0:0:
240,156,164800,1,8,0:0:0:0:
168,120,165262,1,0,0:0:0:0:
92,144,165723,1,8,0:0:0:0:
28,100,166185,1,4,0:0:0:0:
344,56,168031,5,4,0:0:0:0:
400,112,168493,2,0,P|420:164|416:212,2,100,8|0|8,0:0|0:0|0:0,0:0:0:0:
328,148,169877,1,0,0:0:0:0:
248,148,170339,1,8,0:0:0:0:
172,116,170800,2,0,P|136:144|120:208,1,100,2|0,0:2|0:0,0:0:0:0:
184,240,171723,6,0,P|208:316|280:360,2,150,0|2|8,0:0|0:2|0:0,0:0:0:0:
260,216,173570,1,0,0:0:0:0:
332,176,174031,2,0,L|428:216,2,100,8|2|8,0:0|0:2|0:0,0:0:0:0:
308,100,175416,1,4,0:0:0:0:
232,72,175877,6,0,L|204:180,1,100,8|0,0:0|0:0,0:0:0:0:
128,180,176800,2,0,L|140:284,1,100,8|0,0:0|0:0,0:0:0:0:
208,324,177723,1,8,0:0:0:0:
280,288,178185,1,2,0:2:0:0:
344,240,178647,1,8,0:0:0:0:
420,212,179108,6,0,L|448:360,2,150,0|2|8,0:0|0:2|0:0,0:0:0:0:
372,148,180954,1,0,0:0:0:0:
368,68,181416,2,0,P|416:64|464:44,2,100,8|2|8,0:0|0:2|0:0,0:0:0:0:
288,76,182800,1,4,0:0:0:0:
208,60,183262,6,0,L|96:48,1,100,8|0,0:0|0:0,0:0:0:0:
76,124,184185,1,8,0:0:0:0:
112,196,184647,1,0,0:0:0:0:
100,276,185108,2,0,L|0:280,2,100,8|2|8,0:0|0:2|0:0,0:0:0:0:
180,276,186493,6,0,P|248:304|280:372,2,150,0|2|8,0:0|0:2|0:0,0:0:0:0:
108,244,188339,1,0,0:0:0:0:
36,208,188800,2,0,L|24:100,2,100,8|2|8,0:0|0:2|0:0,0:0:0:0:
8,284,190185,1,4,0:0:0:0:
76,324,190647,6,0,P|132:344|180:320,1,100,8|2,0:0|0:2,0:0:0:0:
224,272,191570,1,8,0:0:0:0:
292,316,192031,1,0,0:0:0:0:
356,268,192493,2,0,L|468:256,1,100,8|2,0:0|0:2,0:0:0:0:
464,176,193416,1,8,0:0:0:0:
400,124,193877,6,0,P|436:64|520:40,2,150,0|10|8,0:0|0:2|0:0,0:0:0:0:
380,160,195493,2,0,P|348:196|296:204,1,100,2|2,0:2|0:2,0:0:0:0:
268,32,197570,5,4,0:0:0:0:
344,60,198031,2,0,B|440:120|368:160|488:212,1,200,10|10,0:2|0:2,0:0:0:0:
480,244,199185,2,0,L|452:356,1,100,0|0,0:0|0:0,0:0:0:0:
420,324,199877,6,0,P|320:352|212:320,1,200,8|8,0:0|0:0,0:0:0:0:
156,300,201262,1,0,0:0:0:0:
220,252,201723,6,0,P|204:208|172:164,1,100,8|2,0:0|0:2,0:0:0:0:
240,120,202647,2,0,P|244:72|272:24,1,100,8|0,0:0|0:0,0:0:0:0:
348,36,203570,1,0,0:0:0:0:
416,76,204031,1,0,0:0:0:0:
456,144,204493,2,0,L|456:244,1,100,8|4,0:0|0:0,0:0:0:0:
400,300,205416,6,0,P|324:332|200:328,1,200,8|8,0:0|0:0,0:0:0:0:
168,336,206570,2,0,L|160:224,1,100,2|2,0:2|0:2,0:0:0:0:
172,200,207262,6,0,B|212:140|304:192|356:108,1,200,8|8,0:0|0:0,0:0:0:0:
400,56,208647,1,0,0:0:0:0:
436,128,209108,2,0,L|464:232,1,100,8|0,0:0|0:0,0:0:0:0:
380,228,210031,2,0,L|384:292,2,50,8|2|0,0:0|0:2|0:0,0:0:0:0:
