osu file format v13

[General]
AudioFilename: 2NE1 - DO YOU LOVE ME.mp3
AudioLeadIn: 0
PreviewTime: 31752
Countdown: 0
SampleSet: Normal
StackLeniency: 0.7
Mode: 0
LetterboxInBreaks: 1
EpilepsyWarning: 1
WidescreenStoryboard: 1

[Editor]
Bookmarks: 46175,60944,75714,83098,90483,108944,123714,138483,145867,153252,182791,197560,212329
DistanceSpacing: 1.2
BeatDivisor: 4
GridSize: 4
TimelineZoom: 1.5

[Metadata]
Title:Do You Love Me
TitleUnicode:Do You Love Me
Artist:2NE1
ArtistUnicode:2NE1
Creator:Lizbeth
Version:Dancing
Source:
Tags:Lissette Liz & Liss collab collaboration k-pop
BeatmapID:298773
BeatmapSetID:115665

[Difficulty]
HPDrainRate:7
CircleSize:4
OverallDifficulty:7
ApproachRate:8
SliderMultiplier:1.8
SliderTickRate:1

[Events]
//Background and Video events
0,0,"BG.jpg",0,0
//Break Periods
2,75924,82358
2,138693,145474
//Storyboard Layer 0 (Background)
//Storyboard Layer 1 (Fail)
//Storyboard Layer 2 (Pass)
//Storyboard Layer 3 (Foreground)
//Storyboard Sound Samples
//Background Colour Transformations
3,100,163,162,255

[TimingPoints]
16647.1882799637,461.538461538462,4,1,0,50,1,0
19877,-100,4,1,0,50,0,0
20224,-66.6666666666667,4,1,0,20,0,0
20339,-100,4,1,0,50,0,0
23570,-100,4,1,0,50,0,0
23916,-66.6666666666667,4,1,0,20,0,0
24031,-100,4,1,0,50,0,0
27262,-100,4,1,0,50,0,0
27724,-100,4,1,0,50,0,0
30954,-200,4,1,0,50,0,0
31301,-100,4,1,0,50,0,0
31416,-100,4,1,0,50,0,1
31416,-100,4,1,0,50,0,1
38339,-200,4,1,0,50,0,1
38801,-100,4,1,0,50,0,1
45724,-200,4,1,0,50,0,1
46185,-100,4,1,0,50,0,0
46185,-100,4,1,0,50,0,0
60954,-100,4,1,0,50,0,0
83108,-200,4,1,0,50,0,0
87724,-100,4,1,0,50,0,0
92108,-100,4,1,0,50,0,0
92339,-100,4,1,0,50,0,0
94185,-100,4,1,0,50,0,1
101108,-200,4,1,0,50,0,1
101570,-100,4,1,0,50,0,1
108493,-200,4,1,0,50,0,1
108954,-100,4,1,0,50,0,0
108954,-100,4,1,0,50,0,0
121877,-66.6666666666667,4,1,0,50,0,0
123724,-100,4,1,0,50,0,0
149570,-200,4,1,0,50,0,0
152801,-200,4,2,0,15,0,0
152916,-100,4,1,0,50,0,0
167570,-200,4,1,0,30,0,0
168031,-100,4,1,0,50,0,1
168147,-100,4,1,0,50,0,0
197570,-200,4,1,0,50,0,1
198031,-100,4,1,0,50,0,1
204493,-200,4,1,0,50,0,1
205185,-100,4,1,0,50,0,1
210262,-200,4,1,0,50,0,1
210493,-200,4,1,0,50,0,0

[Colours]
Combo1 : 255,123,60
Combo2 : 255,91,173
Combo3 : 255,255,81
Combo4 : 255,102,102

[HitObjects]
112,84,16647,5,0,0:0:0:0:
212,64,17108,1,0,0:0:0:0:
312,88,17570,2,0,L|288:200,2,90
312,88,18493,5,0,0:0:0:0:
416,64,18724,1,0,0:0:0:0:
396,156,18954,1,0,0:0:0:0:
312,88,19185,1,2,0:0:0:0:
312,88,19647,5,0,0:0:0:0:
204,88,19877,2,2,B|196:104|196:104|204:120|204:120|196:136|196:136|204:152|204:152|196:168|196:168|204:184|204:184|196:216,1,135,2|0,0:0|2:0,0:0:0:0:
197,210,20339,5,0,0:0:0:0:
232,312,20801,1,0,0:0:0:0:
340,292,21262,2,0,L|340:384,2,90
340,292,22185,5,0,0:0:0:0:
448,292,22416,1,0,0:0:0:0:
448,184,22647,1,0,0:0:0:0:
340,184,22877,1,2,0:0:0:0:
340,184,23339,5,0,0:0:0:0:
272,100,23570,2,2,B|256:92|256:92|240:100|240:100|224:92|224:92|208:100|208:100|192:92|192:92|176:100|176:100|144:92,1,135,2|0,0:0|2:0,0:0:0:0:
149,93,24031,5,0,0:0:0:0:
92,180,24493,1,0,0:0:0:0:
140,280,24954,2,0,P|88:296|32:276,2,90
140,280,25877,5,0,0:0:0:0:
244,316,26108,1,0,0:0:0:0:
140,280,26339,1,0,0:0:0:0:
244,316,26570,1,2,0:0:0:0:
244,316,27031,5,0,0:0:0:0:
344,280,27262,2,2,B|352:264|352:264|344:248|344:248|352:232|352:232|344:216|344:216|352:200|352:200|344:184|344:184|352:152,1,135,2|0,0:0|2:0,0:0:0:0:
350,157,27724,5,0,0:0:0:0:
252,104,28185,1,0,0:0:0:0:
144,120,28647,5,0,0:0:0:0:
216,200,28877,1,0,0:0:0:0:
252,104,29108,1,0,0:0:0:0:
468,192,29570,5,4,0:0:0:0:
468,192,30031,5,0,0:0:0:0:
472,216,30147,1,2,0:2:0:0:
468,240,30262,1,0,0:0:0:0:
456,260,30377,1,2,0:2:0:0:
436,272,30493,1,0,0:0:0:0:
360,192,30724,1,2,0:2:0:0:
288,260,30954,2,0,B|268:264|280:292|264:292|264:312|236:320,1,67.5
240,328,31416,5,4,0:0:0:0:
80,300,31762,1,0,0:0:0:0:
80,300,31877,2,0,P|44:264|32:200,1,90,8|2,0:0|0:2,0:0:0:0:
160,100,32339,2,0,P|140:144|100:160,1,90
80,156,32685,1,0,0:0:0:0:
60,144,32801,1,8,0:0:0:0:
156,268,33031,1,0,0:0:0:0:
244,172,33262,2,0,B|300:136|320:188|376:144,1,135
372,146,33724,6,0,P|416:180|424:216,1,90,8|2,0:0|0:2,0:0:0:0:
300,352,34185,2,0,P|316:308|360:284,1,90
376,288,34531,1,0,0:0:0:0:
400,296,34647,1,8,0:0:0:0:
300,176,34877,1,0,0:0:0:0:
204,276,35108,2,0,B|144:324|128:272|80:324,1,135
81,321,35570,6,0,L|44:240,1,90,8|2,0:0|0:2,0:0:0:0:
144,84,36031,2,0,L|100:164,1,90
116,184,36377,1,0,0:0:0:0:
132,204,36493,1,8,0:0:0:0:
248,292,36724,1,0,0:0:0:0:
348,192,36954,6,0,P|396:144|480:136,1,135
472,156,37416,1,8,0:0:0:0:
468,180,37531,1,0,0:0:0:0:
480,200,37647,1,2,0:2:0:0:
472,220,37762,1,0,0:0:0:0:
480,244,37877,1,0,0:0:0:0:
392,336,38108,1,0,0:0:0:0:
392,336,38339,2,0,L|296:336,1,90,8|4,0:0|0:0,0:0:0:0:
296,136,39147,5,0,0:0:0:0:
296,136,39262,1,8,0:0:0:0:
236,44,39493,1,2,0:2:0:0:
160,272,39724,1,0,0:0:0:0:
204,172,39954,1,0,0:0:0:0:
192,156,40070,1,0,0:0:0:0:
180,136,40185,1,8,0:0:0:0:
88,40,40416,1,0,0:0:0:0:
36,168,40647,2,0,B|68:220|24:240|72:296,1,135
70,294,41108,5,8,0:0:0:0:
176,312,41339,1,2,0:2:0:0:
336,304,41570,1,0,0:0:0:0:
252,232,41801,1,0,0:0:0:0:
232,220,41916,1,0,0:0:0:0:
216,200,42031,1,8,0:0:0:0:
80,176,42262,1,0,0:0:0:0:
176,68,42493,2,0,B|240:32|248:80|308:48,1,135
306,49,42954,5,8,0:0:0:0:
340,152,43185,1,2,0:2:0:0:
476,248,43416,1,0,0:0:0:0:
368,276,43647,1,0,0:0:0:0:
348,280,43762,1,0,0:0:0:0:
328,284,43877,1,8,0:0:0:0:
208,356,44108,1,0,0:0:0:0:
196,204,44339,6,0,P|128:200|60:160,1,135
48,156,44801,1,8,0:0:0:0:
56,136,44916,1,2,0:2:0:0:
44,116,45031,1,0,0:0:0:0:
56,96,45147,1,2,0:2:0:0:
44,80,45262,1,0,0:0:0:0:
148,52,45493,1,2,0:2:0:0:
216,136,45724,2,0,L|312:136,1,90,0|4,0:0|0:0,0:0:0:0:
460,172,46416,5,0,0:0:0:0:
460,172,46531,1,0,0:0:0:0:
460,172,46647,2,0,P|440:220|400:240,1,90,8|0,0:0|0:0,0:0:0:0:
312,284,47108,2,0,P|265:259|224:272,1,90
231,267,47454,1,0,0:0:0:0:
231,267,47570,1,8,0:0:0:0:
164,352,47801,1,0,0:0:0:0:
32,172,48031,2,0,B|41:230|104:199|129:255,1,135
129,255,48493,6,0,P|145:207|209:187,1,90,8|0,0:0|0:0,0:0:0:0:
288,168,48954,1,0,0:0:0:0:
288,168,49070,1,0,0:0:0:0:
316,64,49301,1,0,0:0:0:0:
316,64,49416,2,0,P|360:72|408:44,1,90,8|0,0:0|0:0,0:0:0:0:
464,240,49877,5,0,0:0:0:0:
384,312,50108,1,0,0:0:0:0:
384,312,50224,1,0,0:0:0:0:
384,312,50339,1,8,0:0:0:0:
292,256,50570,1,0,0:0:0:0:
204,320,50801,1,0,0:0:0:0:
180,316,50916,1,0,0:0:0:0:
152,324,51031,1,0,0:0:0:0:
128,316,51147,1,0,0:0:0:0:
108,324,51262,2,0,B|44:308|56:228,1,90,8|0,0:0|0:0,0:0:0:0:
216,124,51724,6,0,B|216:188|140:164|144:248,1,135,0|0,0:0|0:0,0:0:0:0:
144,230,52185,1,8,0:0:0:0:
124,108,52416,1,0,0:0:0:0:
240,244,52647,1,0,0:0:0:0:
240,244,52762,1,0,0:0:0:0:
312,164,52993,1,0,0:0:0:0:
312,164,53108,1,8,0:0:0:0:
384,84,53339,2,0,L|444:112,1,45,0|0,0:0|0:0,0:0:0:0:
448,116,53570,6,0,B|491:156|427:216|487:244,1,135,4|0,0:0|0:0,0:0:0:0:
478,239,54031,1,8,0:0:0:0:
416,328,54262,1,0,0:0:0:0:
316,288,54493,1,0,0:0:0:0:
316,288,54608,1,0,0:0:0:0:
328,180,54839,1,0,0:0:0:0:
328,180,54954,1,8,0:0:0:0:
432,148,55185,1,0,0:0:0:0:
248,112,55416,1,0,0:0:0:0:
76,48,55647,5,0,0:0:0:0:
76,48,55762,1,0,0:0:0:0:
76,48,55877,2,0,P|88:108|64:144,1,90,8|0,0:0|0:0,0:0:0:0:
168,288,56339,1,0,0:0:0:0:
168,288,56454,2,0,P|124:260|116:212,1,90
114,225,56801,2,0,P|52:228|20:280,1,90,8|0,0:0|0:0,0:0:0:0:
216,208,57262,5,0,0:0:0:0:
300,144,57493,1,0,0:0:0:0:
300,144,57608,1,0,0:0:0:0:
300,144,57724,2,0,P|284:96|296:48,1,90,8|0,0:0|0:0,0:0:0:0:
368,220,58185,1,0,0:0:0:0:
464,160,58416,1,0,0:0:0:0:
464,160,58531,1,0,0:0:0:0:
464,160,58647,2,0,P|480:224|456:268,1,90,8|0,0:0|0:0,0:0:0:0:
392,80,59108,5,0,0:0:0:0:
292,44,59339,1,0,0:0:0:0:
268,48,59454,1,0,0:0:0:0:
244,40,59570,1,8,0:0:0:0:
220,40,59685,1,0,0:0:0:0:
196,48,59801,1,0,0:0:0:0:
172,48,59916,1,0,0:0:0:0:
148,44,60031,2,0,L|112:140,1,90
48,320,60493,2,0,B|108:304|52:224|168:216,1,135,12|2,0:0|2:0,0:0:0:0:
152,228,60954,5,0,0:0:0:0:
252,268,61185,1,0,0:0:0:0:
252,268,61301,1,2,0:2:0:0:
252,268,61416,1,10,0:2:0:0:
348,220,61647,1,0,0:0:0:0:
364,112,61877,1,2,0:2:0:0:
364,112,61993,1,2,0:2:0:0:
280,48,62224,1,2,0:2:0:0:
280,48,62339,2,0,P|234:41|187:34,1,90,10|0,0:2|0:0,0:0:0:0:
84,40,62801,6,0,L|68:144,1,90
52,144,63147,1,2,0:2:0:0:
36,156,63262,2,0,P|15:210|26:248,1,90,10|0,0:2|0:0,0:0:0:0:
204,234,63724,2,0,P|232:196|223:111,1,135,2|2,0:2|0:2,0:0:0:0:
223,112,64185,2,0,L|319:89,1,90,10|0,0:2|0:0,0:0:0:0:
453,277,64647,6,0,L|436:186,1,90
265,286,65108,2,0,L|351:248,1,90,10|0,0:2|0:0,0:0:0:0:
220,175,65570,1,2,0:2:0:0:
220,175,65685,1,2,0:2:0:0:
278,66,65916,1,2,0:2:0:0:
278,66,66031,2,0,L|342:148,1,90,10|0,0:2|0:0,0:0:0:0:
417,219,66493,6,0,B|406:265|422:311,1,90
430,324,66839,1,2,0:2:0:0:
441,340,66954,1,10,0:2:0:0:
310,288,67185,1,0,0:0:0:0:
196,353,67416,1,2,0:2:0:0:
132,126,67762,5,2,0:2:0:0:
132,126,67877,2,0,P|66:136|42:169,2,90,10|0|0,0:2|0:0|0:0,0:0:0:0:
191,237,68570,1,0,0:0:0:0:
196,258,68685,1,2,0:2:0:0:
202,279,68801,1,10,0:2:0:0:
326,255,69031,1,0,0:2:0:0:
424,333,69262,1,2,0:2:0:0:
428,316,69377,6,0,L|452:229,1,90,2|2,0:2|0:2,0:0:0:0:
442,215,69724,2,0,P|416:152|424:108,1,90,10|0,0:2|0:0,0:0:0:0:
224,36,70416,1,0,0:0:0:0:
208,49,70531,1,2,0:2:0:0:
192,61,70647,2,0,P|144:76|104:68,1,90,10|0,0:2|0:0,0:0:0:0:
8,52,71108,1,2,0:2:0:0:
8,52,71224,1,2,0:2:0:0:
48,152,71454,1,2,0:2:0:0:
48,152,71570,6,0,L|48:246,1,90,10|0,0:2|0:0,0:0:0:0:
48,242,72262,1,0,0:0:0:0:
155,210,72493,1,10,0:2:0:0:
258,241,72724,1,0,0:0:0:0:
363,218,72954,2,0,B|403:172|377:124|403:79,1,135,2|2,0:2|0:2,0:0:0:0:
411,76,73416,5,10,0:2:0:0:
489,215,73647,1,0,0:0:0:0:
489,215,74108,1,0,0:0:0:0:
402,279,74339,1,10,0:2:0:0:
295,297,74570,1,0,0:0:0:0:
188,278,74801,2,0,B|182:199|134:228|135:149,1,135,2|2,0:2|0:2,0:0:0:0:
134,141,75262,5,10,0:2:0:0:
46,269,75493,1,2,0:2:0:0:
192,287,75724,1,4,0:0:0:0:
180,56,83108,6,0,B|188:152|84:120|100:204,1,180,0|4,0:0|0:0,0:0:0:0:
469,306,84954,6,0,B|447:212|358:275|348:192,1,180,0|4,0:0|0:0,0:0:0:0:
56,340,86801,6,0,B|84:261|157:342|200:256,1,180,0|4,0:0|0:0,0:0:0:0:
424,85,88647,5,4,0:0:0:0:
425,85,90493,5,0,0:0:0:0:
317,87,90954,1,0,0:0:0:0:
207,87,91416,5,0,0:0:0:0:
126,198,91647,1,0,0:0:0:0:
207,87,91877,1,0,0:0:0:0:
280,200,92108,2,2,B|272:216|272:216|280:232|280:232|272:248|272:248|280:264|280:264|268:308,1,90,0|0,0:0|2:0,0:0:0:0:
204,356,92570,5,0,0:0:0:0:
188,351,92685,1,0,0:0:0:0:
170,344,92801,1,0,0:0:0:0:
68,308,93031,1,0,0:0:0:0:
62,286,93147,1,0,0:0:0:0:
116,192,93377,1,0,0:0:0:0:
120,170,93493,1,0,0:0:0:0:
172,76,93724,2,0,B|209:136|261:80|297:172,1,135
297,156,94185,5,4,0:0:0:0:
376,356,94647,2,0,P|332:380|284:360,1,90,8|2,0:0|0:2,0:0:0:0:
136,288,95108,2,0,P|198:296|227:337,1,90
208,332,95454,1,0,0:0:0:0:
200,352,95570,1,8,0:0:0:0:
312,280,95801,1,0,0:0:0:0:
472,352,96031,2,0,B|480:296|392:272|456:204,1,135
438,227,96493,6,0,L|352:164,1,90,8|0,0:0|0:0,0:0:0:0:
244,76,96954,2,0,L|348:84,1,90,0|2,0:0|0:2,0:0:0:0:
360,72,97301,1,0,0:0:0:0:
380,64,97416,1,8,0:0:0:0:
276,172,97647,1,0,0:0:0:0:
152,24,97877,2,0,P|136:84|172:152,1,135
166,147,98339,6,0,L|64:176,1,90,8|0,0:0|0:0,0:0:0:0:
240,316,98801,2,0,L|208:224,1,90,0|0,0:0|0:0,0:0:0:0:
236,224,99147,1,0,0:0:0:0:
260,216,99262,2,0,L|288:124,1,90,8|0,0:0|0:0,0:0:0:0:
286,129,99724,6,0,B|372:88|400:188|492:120,1,180,0|8,0:0|0:0,0:0:0:0:
460,160,100301,1,0,0:0:0:0:
460,184,100416,1,2,0:2:0:0:
460,204,100531,1,0,0:0:0:0:
460,224,100647,1,0,0:0:0:0:
372,348,100877,1,0,0:0:0:0:
228,288,101108,2,0,P|188:276|136:296,1,90,8|4,0:0|0:0,0:0:0:0:
72,28,102031,5,8,0:0:0:0:
164,88,102262,1,0,0:0:0:0:
360,112,102493,1,0,0:0:0:0:
268,60,102724,1,2,0:2:0:0:
264,84,102839,1,0,0:0:0:0:
260,104,102954,1,8,0:0:0:0:
444,164,103185,1,0,0:0:0:0:
336,336,103416,2,0,L|360:188,1,135
357,202,103877,6,0,P|296:224|256:200,1,90,8|2,0:0|0:2,0:0:0:0:
132,324,104339,2,0,P|144:276|184:252,1,90
168,232,104685,1,0,0:0:0:0:
164,212,104801,1,8,0:0:0:0:
248,304,105031,1,0,0:0:0:0:
192,116,105262,2,0,P|248:160|264:232,1,135
284,220,105724,5,8,0:0:0:0:
368,288,105954,1,2,0:2:0:0:
328,128,106185,1,0,0:0:0:0:
320,104,106301,1,0,0:0:0:0:
308,84,106416,1,0,0:0:0:0:
288,64,106531,1,0,0:0:0:0:
268,52,106647,1,8,0:0:0:0:
172,100,106877,1,0,0:0:0:0:
156,316,107108,6,0,B|236:297|156:217|240:169,1,180,0|8,0:0|0:0,0:0:0:0:
236,171,107685,1,2,0:2:0:0:
236,171,107801,1,0,0:0:0:0:
236,171,107916,1,2,0:2:0:0:
236,171,108031,1,0,0:0:0:0:
336,272,108262,1,2,0:2:0:0:
464,232,108493,2,0,P|472:280|456:336,1,90,8|4,0:0|0:0,0:0:0:0:
336,328,109185,5,0,0:0:0:0:
336,328,109301,1,0,0:0:0:0:
336,328,109416,1,8,0:0:0:0:
224,308,109647,1,0,0:0:0:0:
168,212,109877,1,0,0:0:0:0:
188,208,109993,2,0,P|232:192|268:148,1,90
261,161,110339,2,0,L|248:48,1,90,8|0,0:0|0:0,0:0:0:0:
368,100,110801,1,0,0:0:0:0:
172,48,111031,5,0,0:0:0:0:
64,32,111262,1,8,0:0:0:0:
24,132,111493,1,0,0:0:0:0:
108,200,111724,1,0,0:0:0:0:
108,200,111839,1,0,0:0:0:0:
200,148,112070,1,0,0:0:0:0:
200,148,112185,2,0,P|208:208|236:240,1,90,8|0,0:0|0:0,0:0:0:0:
384,136,112647,6,0,P|336:144|304:172,1,90
312,192,112993,1,0,0:0:0:0:
320,212,113108,1,8,0:0:0:0:
360,312,113339,1,0,0:0:0:0:
424,216,113570,1,0,0:0:0:0:
424,216,113685,1,0,0:0:0:0:
240,280,113916,1,0,0:0:0:0:
240,280,114031,2,0,P|216:232|172:220,1,90,8|0,0:0|0:0,0:0:0:0:
72,80,114493,6,0,L|176:80,1,90
176,96,114839,1,0,0:0:0:0:
188,112,114954,1,8,0:0:0:0:
344,112,115185,1,0,0:0:0:0:
416,232,115416,1,0,0:0:0:0:
412,252,115531,1,0,0:0:0:0:
288,344,115762,1,0,0:0:0:0:
284,320,115877,1,8,0:0:0:0:
168,240,116108,2,0,L|112:268,2,45,0|0|0,0:0|0:0|0:0,0:0:0:0:
344,160,116570,5,0,0:0:0:0:
344,160,116685,1,0,0:0:0:0:
344,160,116801,2,0,P|292:172|256:168,1,90,8|0,0:0|0:0,0:0:0:0:
112,228,117262,1,0,0:0:0:0:
112,228,117377,2,0,P|176:224|216:244,1,90
204,252,117724,2,0,L|216:344,1,90,8|0,0:0|0:0,0:0:0:0:
324,324,118185,1,0,0:0:0:0:
324,324,118416,5,0,0:0:0:0:
360,224,118647,1,8,0:0:0:0:
420,316,118877,1,0,0:0:0:0:
460,216,119108,1,0,0:0:0:0:
460,216,119224,2,0,L|464:120,1,90
452,116,119570,2,0,L|452:24,1,90,8|0,0:0|0:0,0:0:0:0:
280,48,120031,5,4,0:0:0:0:
120,72,120262,1,0,0:0:0:0:
84,240,120493,1,0,0:0:0:0:
248,324,120724,1,0,0:0:0:0:
348,208,120954,2,0,P|384:248|464:264,1,135,0|0,0:0|0:0,0:0:0:0:
461,264,121416,1,12,0:0:0:0:
220,72,121877,6,0,B|184:108|184:108|184:140|184:140|144:172,1,135.000005149842
400,328,122339,6,0,B|391:277|391:277|364:259|364:259|361:208,1,135.000005149842,8|0,0:0|0:0,0:0:0:0:
88,280,122801,6,0,B|130:307|130:307|161:301|161:301|201:333,1,135.000005149842
328,136,123262,6,0,B|373:113|373:113|384:83|384:83|433:65,1,135.000005149842,8|0,0:0|0:0,0:0:0:0:
400,328,123724,6,0,L|280:304,1,90
311,310,124070,1,2,0:2:0:0:
311,310,124185,2,0,P|276:336|204:336,1,90,10|0,0:2|0:0,0:0:0:0:
144,204,124647,2,0,P|192:212|224:260,1,90
240,232,124993,1,2,0:2:0:0:
256,224,125108,1,10,0:2:0:0:
408,128,125339,1,0,0:0:0:0:
376,224,125570,6,0,P|424:232|472:200,1,90
468,232,125916,1,2,0:2:0:0:
476,248,126031,1,10,0:2:0:0:
316,148,126262,1,2,0:2:0:0:
408,316,126493,1,0,0:0:0:0:
220,292,126724,1,2,0:2:0:0:
220,292,126839,1,2,0:2:0:0:
220,292,126954,2,0,L|128:324,1,90,8|0,0:0|0:0,0:0:0:0:
24,180,127416,5,0,0:0:0:0:
108,112,127647,1,0,0:0:0:0:
128,120,127762,1,2,0:2:0:0:
148,128,127877,1,10,0:2:0:0:
316,56,128108,1,2,0:2:0:0:
256,144,128339,2,0,L|272:232,1,90,2|0,0:2|0:0,0:0:0:0:
272,232,128685,1,2,0:2:0:0:
272,232,128801,2,0,P|332:224|368:264,1,90,10|0,0:2|0:0,0:0:0:0:
460,264,129262,5,0,0:0:0:0:
412,96,129493,1,0,0:0:0:0:
476,168,129724,1,10,0:2:0:0:
308,108,129954,1,0,0:0:0:0:
412,96,130185,1,2,0:2:0:0:
268,192,130416,1,0,0:0:0:0:
268,192,130531,1,2,0:2:0:0:
268,192,130647,2,0,L|192:256,1,90,10|0,0:2|0:0,0:0:0:0:
60,316,131108,6,0,P|60:264|36:224,1,90
44,216,131454,2,0,L|48:148,1,45,2|10,0:2|0:2,0:0:0:0:
232,52,131801,1,0,0:0:0:0:
232,52,132031,2,0,L|220:168,1,90,2|0,0:2|0:0,0:0:0:0:
240,156,132377,1,2,0:2:0:0:
256,172,132493,2,0,L|276:264,1,90,10|0,0:2|0:0,0:0:0:0:
440,344,132954,6,0,P|448:284|432:244,1,90
440,240,133301,2,0,L|448:180,1,45,2|10,0:2|0:2,0:0:0:0:
396,64,133647,1,0,0:0:0:0:
248,160,133877,1,2,0:2:0:0:
228,168,133993,1,2,0:2:0:0:
208,172,134108,1,0,0:0:0:0:
192,168,134224,1,2,0:2:0:0:
176,160,134339,2,0,L|144:256,1,90,10|0,0:2|0:0,0:0:0:0:
112,76,134801,6,0,P|164:52|216:64,1,90
212,64,135147,2,0,L|268:28,1,45,2|10,0:2|0:2,0:0:0:0:
80,176,135493,1,0,0:0:0:0:
368,312,135724,2,0,L|268:324,1,90,2|0,0:2|0:0,0:0:0:0:
264,316,136070,2,0,L|232:368,1,45,2|10,0:2|0:2,0:0:0:0:
420,228,136416,1,0,0:0:0:0:
164,264,136647,6,0,P|184:220|236:192,1,90
224,176,136993,1,2,0:2:0:0:
228,156,137108,1,10,0:2:0:0:
264,316,137339,1,0,0:0:0:0:
336,196,137570,1,0,0:0:0:0:
352,192,137685,1,2,0:2:0:0:
368,188,137801,1,0,0:0:0:0:
384,184,137916,1,2,0:2:0:0:
400,180,138031,5,8,0:0:0:0:
420,76,138262,1,2,0:2:0:0:
480,256,138493,1,4,0:0:0:0:
112,48,146224,5,0,0:0:0:0:
112,48,146339,2,0,P|80:96|84:160,1,90,8|0,0:0|0:0,0:0:0:0:
148,292,146801,1,0,0:0:0:0:
152,272,146916,1,0,0:0:0:0:
152,252,147031,1,0,0:0:0:0:
144,236,147147,1,0,0:0:0:0:
132,224,147262,1,8,0:0:0:0:
20,208,147493,5,0,0:0:0:0:
196,144,147724,1,0,0:0:0:0:
464,320,148070,5,0,0:0:0:0:
464,320,148185,2,0,L|436:224,1,90,8|0,0:0|0:0,0:0:0:0:
324,124,148647,1,0,0:0:0:0:
328,144,148762,1,0,0:0:0:0:
332,164,148877,1,0,0:0:0:0:
336,184,148993,1,0,0:0:0:0:
340,204,149108,1,8,0:0:0:0:
256,336,149339,1,0,0:0:0:0:
112,272,149570,6,0,B|76:180|160:180|128:96,1,180
252,96,150724,1,0,0:0:0:0:
252,96,150839,1,0,0:0:0:0:
252,96,150954,1,8,0:0:0:0:
256,192,151185,12,0,152801,0:0:0:0:
96,344,153262,5,0,0:0:0:0:
208,324,153724,1,0,0:0:0:0:
324,304,154185,2,0,L|300:204,2,90
324,304,155108,5,0,0:0:0:0:
424,256,155339,1,0,0:0:0:0:
480,104,155570,1,0,0:0:0:0:
376,148,155801,1,0,0:0:0:0:
324,304,156262,5,0,0:0:0:0:
376,148,156493,2,0,L|320:24,1,135
320,24,156954,5,0,0:0:0:0:
228,80,157416,1,0,0:0:0:0:
212,188,157877,2,0,P|160:172|132:124,2,90
212,188,158801,5,0,0:0:0:0:
124,244,159031,1,0,0:0:0:0:
216,84,159262,1,0,0:0:0:0:
312,36,159493,1,0,0:0:0:0:
124,244,159954,5,0,0:0:0:0:
216,84,160185,2,0,P|272:120|380:128,1,135
338,132,160647,5,8,0:0:0:0:
80,336,161108,1,0,0:0:0:0:
60,224,161339,1,0,0:0:0:0:
60,224,161454,1,0,0:0:0:0:
60,224,161570,1,8,0:0:0:0:
184,352,161801,1,0,0:0:0:0:
60,224,162031,1,8,0:0:0:0:
60,224,162493,6,0,P|108:208|132:164,1,90,8|0,0:0|0:0,0:0:0:0:
288,84,162954,2,0,L|192:96,1,90,8|0,0:0|0:0,0:0:0:0:
198,95,163301,1,0,0:0:0:0:
198,95,163416,1,0,0:0:0:0:
232,196,163647,1,0,0:0:0:0:
100,48,163877,1,8,0:0:0:0:
100,48,164339,5,0,0:0:0:0:
424,300,164801,1,8,0:0:0:0:
424,300,165262,1,0,0:0:0:0:
452,196,165493,1,0,0:0:0:0:
320,336,165724,1,8,0:0:0:0:
320,336,166185,1,4,0:0:0:0:
320,336,167570,6,0,L|232:336,1,67.5
232,336,168031,6,0,P|196:296|192:232,1,90,4|2,0:0|0:2,0:0:0:0:
296,252,168493,1,8,0:0:0:0:
296,68,168724,1,2,0:2:0:0:
356,156,168954,1,0,0:0:0:0:
188,60,169185,1,2,0:2:0:0:
180,232,169416,2,0,P|156:280|116:292,1,90,8|2,0:0|0:2,0:0:0:0:
84,192,169877,6,0,L|36:112,1,90,0|2,0:0|0:2,0:0:0:0:
184,148,170339,2,0,L|176:52,1,90,8|2,0:0|0:2,0:0:0:0:
176,44,170685,1,2,0:2:0:0:
176,28,170801,2,0,P|224:16|304:44,1,135,2|0,0:2|0:0,0:0:0:0:
320,56,171262,2,0,L|348:144,1,90
396,240,171724,5,0,0:0:0:0:
248,360,171954,1,2,0:2:0:0:
356,340,172185,1,8,0:0:0:0:
184,272,172416,1,2,0:2:0:0:
184,272,172531,1,2,0:2:0:0:
184,272,172647,1,2,0:2:0:0:
332,156,172877,1,2,0:2:0:0:
224,172,173108,1,8,0:0:0:0:
148,96,173339,6,0,P|104:64|56:160,1,180,2|2,0:2|0:2,0:0:0:0:
116,320,174031,6,0,L|80:228,1,90,8|0,0:0|0:0,0:0:0:0:
260,232,174493,2,0,L|248:124,1,90,2|0,0:2|0:0,0:0:0:0:
424,192,174954,2,0,L|436:96,1,90,8|0,0:0|0:0,0:0:0:0:
435,102,175416,1,4,0:0:0:0:
80,80,175877,6,0,P|68:124|80:172,1,90,8|2,0:0|0:2,0:0:0:0:
260,120,176339,2,0,P|212:116|168:136,1,90,0|2,0:0|0:2,0:0:0:0:
116,296,176801,2,0,P|152:268|164:224,1,90,8|2,0:0|0:2,0:0:0:0:
56,208,177262,5,0,0:0:0:0:
264,264,177724,1,8,0:0:0:0:
372,260,177954,1,2,0:2:0:0:
384,252,178070,1,2,0:2:0:0:
396,240,178185,2,0,P|396:168|420:116,1,90,2|0,0:2|0:0,0:0:0:0:
404,136,178531,1,0,0:0:0:0:
408,120,178647,1,8,0:0:0:0:
484,224,178877,1,0,0:0:0:0:
296,152,179108,5,0,0:0:0:0:
148,48,179339,1,2,0:2:0:0:
256,52,179570,1,8,0:0:0:0:
84,132,179801,1,2,0:2:0:0:
84,132,179916,1,2,0:2:0:0:
84,132,180031,1,2,0:2:0:0:
240,244,180262,1,2,0:2:0:0:
132,228,180493,1,8,0:0:0:0:
80,324,180724,6,0,B|168:300|160:376|268:336,1,180,2|2,0:2|0:2,0:0:0:0:
360,340,181416,6,0,P|420:320|440:292,1,90,8|2,0:0|0:2,0:0:0:0:
96,136,181877,2,0,P|56:168|48:208,1,90,2|0,0:2|0:0,0:0:0:0:
360,116,182339,2,0,P|352:68|316:40,1,90,8|0,0:0|0:0,0:0:0:0:
322,42,182801,1,4,0:0:0:0:
344,336,183262,6,0,L|250:352,1,90,8|2,0:0|0:2,0:0:0:0:
228,168,183724,2,0,L|252:264,1,90,0|2,0:0|0:2,0:0:0:0:
84,324,184185,2,0,L|184:304,1,90,8|2,0:0|0:2,0:0:0:0:
352,240,184647,5,0,0:0:0:0:
460,244,184877,1,2,0:2:0:0:
332,136,185108,1,8,0:0:0:0:
432,96,185339,1,2,0:2:0:0:
432,96,185454,1,2,0:2:0:0:
432,96,185570,2,0,P|400:48|352:40,1,90,2|0,0:2|0:0,0:0:0:0:
352,36,185916,1,0,0:0:0:0:
328,36,186031,2,0,P|276:50|244:92,1,90,8|0,0:0|0:0,0:0:0:0:
144,52,186493,5,0,0:0:0:0:
72,256,186724,1,2,0:2:0:0:
36,136,186954,1,8,0:0:0:0:
208,276,187185,1,2,0:2:0:0:
232,268,187301,1,2,0:2:0:0:
248,244,187416,1,2,0:2:0:0:
72,256,187647,1,2,0:2:0:0:
256,128,187877,1,8,0:0:0:0:
504,56,188108,6,0,B|440:92|504:188|424:228,1,180,2|2,0:2|0:2,0:0:0:0:
352,332,188801,6,0,L|260:344,1,90,8|2,0:0|0:2,0:0:0:0:
320,44,189262,2,0,L|408:24,1,90,2|0,0:2|0:0,0:0:0:0:
100,132,189724,2,0,L|76:36,1,90,8|0,0:0|0:0,0:0:0:0:
78,44,190185,1,4,0:0:0:0:
64,320,190647,6,0,P|62:271|18:235,1,90,8|2,0:0|0:2,0:0:0:0:
164,296,191108,2,0,P|192:252|184:200,1,90,2|2,0:2|0:2,0:0:0:0:
220,368,191570,2,0,P|260:348|280:280,1,90,8|2,0:0|0:2,0:0:0:0:
448,280,192031,5,0,0:0:0:0:
488,180,192262,1,2,0:2:0:0:
420,48,192493,1,8,0:0:0:0:
384,152,192724,1,2,0:2:0:0:
360,148,192839,1,2,0:2:0:0:
336,144,192954,1,2,0:2:0:0:
240,192,193185,1,0,0:0:0:0:
216,196,193301,1,0,0:0:0:0:
196,200,193416,2,0,P|168:156|116:136,1,90,8|0,0:0|0:0,0:0:0:0:
44,280,193877,5,0,0:0:0:0:
260,280,194108,1,2,0:2:0:0:
156,340,194339,1,8,0:0:0:0:
344,208,194570,1,2,0:2:0:0:
344,208,194685,1,2,0:2:0:0:
344,208,194801,1,2,0:2:0:0:
448,256,195031,1,2,0:2:0:0:
244,152,195262,1,8,0:0:0:0:
448,256,195493,1,2,0:2:0:0:
448,256,195954,5,2,0:2:0:0:
448,256,197570,2,0,L|436:188,1,67.5,4|2,0:0|0:2,0:0:0:0:
432,172,198031,6,0,P|464:136|468:92,1,90,10|2,0:2|0:2,0:0:0:0:
272,20,198493,1,0,0:0:0:0:
360,84,198724,1,2,0:2:0:0:
352,100,198839,1,2,0:2:0:0:
344,116,198954,1,10,0:2:0:0:
168,48,199185,1,0,0:0:0:0:
212,216,199416,2,0,P|140:208|68:248,1,135
68,244,199877,5,8,0:0:0:0:
108,344,200108,1,2,0:2:0:0:
300,336,200339,2,0,L|208:300,1,90,2|2,0:2|0:2,0:0:0:0:
216,288,200685,1,0,0:0:0:0:
216,268,200801,1,8,0:0:0:0:
344,184,201031,1,0,0:0:0:0:
220,72,201262,2,0,L|84:88,1,135
72,92,201724,6,0,B|48:132|100:140|72:180,1,90,8|2,0:0|0:2,0:0:0:0:
220,300,202185,1,2,0:2:0:0:
116,276,202416,1,2,0:2:0:0:
124,260,202531,1,0,0:0:0:0:
132,244,202647,1,8,0:0:0:0:
184,120,202877,1,2,0:2:0:0:
296,188,203108,6,0,B|376:180|376:256|472:220,1,180
472,204,203685,1,0,0:0:0:0:
476,184,203801,1,0,0:0:0:0:
472,164,203916,1,0,0:0:0:0:
464,148,204031,1,0,0:0:0:0:
392,52,204262,1,0,0:0:0:0:
268,88,204493,2,0,L|168:88,1,90,8|4,0:0|0:0,0:0:0:0:
80,264,205301,5,0,0:0:0:0:
80,264,205416,2,0,P|64:212|72:172,1,90,8|2,0:0|0:2,0:0:0:0:
264,292,205877,1,0,0:0:0:0:
176,228,206108,1,2,0:2:0:0:
180,208,206224,1,0,0:0:0:0:
184,188,206339,1,8,0:0:0:0:
248,72,206570,1,2,0:2:0:0:
260,68,207031,5,2,0:2:0:0:
352,156,207262,2,0,L|448:168,1,90,8|0,0:0|0:0,0:0:0:0:
452,352,207724,1,2,0:2:0:0:
388,268,207954,1,2,0:0:0:0:
368,272,208070,1,0,0:0:0:0:
348,276,208185,1,8,0:0:0:0:
228,348,208416,1,2,0:2:0:0:
180,212,208647,2,0,B|160:144|104:192|84:116,1,135
80,104,209108,5,8,0:0:0:0:
184,80,209339,1,2,0:2:0:0:
260,228,209570,2,0,L|288:128,1,90,0|2,0:0|0:2,0:0:0:0:
292,120,209916,1,0,0:0:0:0:
300,100,210031,1,8,0:0:0:0:
396,56,210262,6,0,L|444:56,1,45,2|0,0:2|0:0,0:0:0:0:
