osu file format v14

[General]
AudioFilename: Chihiro Kosaka - Hajimete Koi wo Shita Kioku.mp3
AudioLeadIn: 0
PreviewTime: 127347
Countdown: 0
SampleSet: Soft
StackLeniency: 0.7
Mode: 0
LetterboxInBreaks: 1
WidescreenStoryboard: 0

[Editor]
DistanceSpacing: 1
BeatDivisor: 4
GridSize: 4
TimelineZoom: 1.5

[Metadata]
Title:Hajimete Koi o Shita Kioku (TV Edit)
TitleUnicode:初めて恋をした記憶
Artist:2B PENCILS & Nakagawa Kanon
ArtistUnicode:2B PENCILS & 中川かのん
Creator:Bearizm
Version:Normal
Source:神のみぞ知るセカイ 女神篇
Tags:Kami Nomi zo Shiru Sekai Megami Hen The World God Only Knows Goddesses Arc KamiNomi TWGOK The Memory of My First Love Ending 2B Pencils Asumi Kana Kanae Itou Ayahi Takagaki Nozomi Chikamura Ayana Taketatsu Touyama Nao
BeatmapID:784752
BeatmapSetID:356633

[Difficulty]
HPDrainRate:4
CircleSize:3.5
OverallDifficulty:4
ApproachRate:4
SliderMultiplier:1.1
SliderTickRate:1

[Events]
//Background and Video events
0,0,"KamiNomi.jpg",0,0
//Break Periods
2,48490,54027
2,86419,91741
2,113847,119599
//Storyboard Layer 0 (Background)
//Storyboard Layer 1 (Fail)
//Storyboard Layer 2 (Pass)
//Storyboard Layer 3 (Foreground)
//Storyboard Sound Samples

[TimingPoints]
3919,428.571428571429,4,2,1,90,1,0
19776,-100,4,2,1,70,0,0
58561,-100,4,2,1,80,0,0
62204,-100,4,2,1,90,0,1
86204,-100,4,2,1,80,0,0
120919,-100,4,2,1,60,0,0
122204,-100,4,2,1,70,0,0
123919,-100,4,2,1,80,0,0
127347,-100,4,2,1,90,0,1
141061,-100,4,2,1,90,0,0
153061,-100,4,2,1,95,0,0
154776,-100,4,2,1,100,0,0
154883,-100,4,2,1,5,0,0
162704,-100,4,2,1,60,0,0

[Colours]
Combo1 : 219,77,101
Combo2 : 198,204,149
Combo3 : 173,79,236
Combo4 : 118,108,236

[HitObjects]
52,148,3919,6,0,L|48:92,2,55,0|8|4,1:0|0:0|1:2,0:0:0:0:
148,204,4776,2,0,L|140:260,2,55,8|8|8,3:0|0:0|0:0,0:0:0:0:
200,108,5633,6,0,P|256:96|308:116,1,110,4|4,1:0|1:2,0:0:0:0:
380,192,6490,2,0,L|368:304,1,110,0|0,1:0|1:0,0:0:0:0:
272,356,7347,1,0,1:0:0:0:
200,272,7776,1,0,1:0:0:0:
92,284,8204,2,0,L|36:292,2,55,0|8|0,1:0|0:0|1:0,0:0:0:0:
120,236,8847,1,8,0:0:0:0:
120,236,9061,6,0,B|124:180|124:180|112:124,1,110,0|0,1:0|1:0,0:0:0:0:
168,32,9919,2,0,P|224:24|276:44,1,110,0|0,1:0|1:0,0:0:0:0:
316,76,10561,1,8,0:0:0:0:
316,76,10776,2,0,L|336:184,1,110,0|0,1:0|1:0,0:0:0:0:
256,256,11633,2,0,L|252:312,2,55,0|8|0,1:0|0:0|1:0,0:0:0:0:
168,188,12490,6,0,P|110:190|68:218,1,110,4|0,1:0|1:0,0:0:0:0:
60,328,13347,2,0,B|114:333|114:333|168:324,1,110,0|0,1:0|1:0,0:0:0:0:
216,308,13990,1,8,0:0:0:0:
216,308,14204,2,0,B|269:298|269:298|324:304,1,110,0|0,1:0|1:0,0:0:0:0:
420,248,15061,2,0,L|476:240,2,55,0|8|0,1:0|0:0|1:0,0:0:0:0:
320,200,15919,6,0,P|308:144|324:92,1,110,4|8,1:0|0:0,0:0:0:0:
364,60,16561,2,0,P|308:72|260:52,1,110,4|8,1:0|0:0,0:0:0:0:
216,16,17204,1,0,1:0:0:0:
256,192,17419,12,12,19347,0:0:0:0:
144,160,20633,5,8,0:0:0:0:
224,240,21061,2,0,L|336:228,1,110,8|8,0:0|0:0,0:0:0:0:
428,172,21919,2,0,P|440:116|420:68,1,110,8|8,0:0|0:0,0:0:0:0:
320,28,22776,5,8,0:0:0:0:
232,92,23204,2,0,L|120:84,2,110,8|8|8,0:0|0:0|0:0,0:0:0:0:
320,156,24490,2,0,B|312:212|312:212|324:264,1,110,8|8,0:0|0:0,0:0:0:0:
436,264,25347,2,0,P|448:212|436:156,1,110,8|8,0:0|0:0,0:0:0:0:
380,60,26204,5,8,0:0:0:0:
272,76,26633,1,8,0:0:0:0:
204,160,27061,1,8,0:0:0:0:
204,160,27276,2,0,L|224:268,1,110
236,320,27919,2,0,P|180:312|132:332,1,110,8|8,0:0|0:0,0:0:0:0:
28,292,28776,1,8,0:0:0:0:
28,292,28990,2,0,P|8:240|16:188,1,110
48,144,29633,6,0,P|103:153|155:135,2,110,8|8|8,0:0|0:0|0:0,0:0:0:0:
93,43,30919,2,0,L|147:50,1,55,8|0,0:0|0:0,0:0:0:0:
194,77,31347,2,0,L|202:189,1,110,8|8,0:0|0:0,0:0:0:0:
304,228,32204,2,0,L|296:116,1,110,8|8,0:0|0:0,0:0:0:0:
324,72,32847,1,0,0:0:0:0:
324,72,33061,6,0,P|376:60|432:72,1,110,8|8,0:0|0:0,0:0:0:0:
480,96,33704,1,0,0:0:0:0:
480,96,33919,2,0,B|488:152|488:152|480:204,1,110,8|8,0:0|0:0,0:0:0:0:
492,316,34776,2,0,P|436:320|388:296,1,110,8|8,0:0|0:0,0:0:0:0:
356,252,35419,2,0,L|192:280,1,165,0|0,0:0|1:0,0:0:0:0:
100,348,36490,5,8,0:0:0:0:
20,272,36919,2,0,P|0:220|12:168,2,110,8|8|8,0:0|0:0|0:0,0:0:0:0:
112,212,38204,1,8,0:0:0:0:
101,102,38633,1,8,0:0:0:0:
101,102,38847,2,0,B|156:92|156:92|208:104|208:104|264:96,1,165,0|0,0:0|1:0,0:0:0:0:
356,32,39919,6,0,P|348:88|360:140,1,110,8|8,0:0|0:0,0:0:0:0:
461,180,40776,1,8,0:0:0:0:
461,180,40990,2,0,L|449:292,1,110,0|0,0:0|0:0,0:0:0:0:
413,332,41633,2,0,P|361:348|305:332,1,110,8|8,0:0|0:0,0:0:0:0:
218,270,42490,1,8,0:0:0:0:
218,270,42704,2,0,L|110:286,1,110
59,310,43347,6,0,P|71:254|63:202,1,110,8|0,0:0|1:0,0:0:0:0:
27,162,43990,2,0,P|115:170|144:152,1,110,12|8,0:0|0:0,0:0:0:0:
176,128,44633,1,0,1:0:0:0:
176,128,44847,1,4,1:2:0:0:
148,56,55347,5,0,1:0:0:0:
82,144,55776,2,0,L|88:256,1,110,0|0,1:0|1:0,0:0:0:0:
176,320,56633,1,0,1:0:0:0:
176,320,56847,2,0,P|232:324|280:300,1,110,0|0,1:0|1:0,0:0:0:0:
316,260,57490,2,0,L|424:288,1,110,0|0,1:0|1:0,0:0:0:0:
476,268,58133,1,0,1:0:0:0:
496,160,58561,5,12,0:0:0:0:
428,73,58990,1,8,0:0:0:0:
428,73,59204,2,0,P|376:53|324:65,1,110,0|8,1:0|0:0,0:0:0:0:
276,89,59847,2,0,L|220:85,2,55,8|0|12,0:0|1:0|0:0,0:0:0:0:
360,161,60704,1,8,0:0:0:0:
360,161,60919,2,0,L|356:273,1,110,0|8,1:0|0:0,0:0:0:0:
281,352,61776,1,0,1:0:0:0:
208,272,62204,6,0,P|152:264|100:280,1,110,12|0,0:0|1:0,0:0:0:0:
24,200,63061,2,0,L|16:144,2,55,8|8|0,0:0|0:0|1:0,0:0:0:0:
132,232,63919,1,8,0:0:0:0:
140,120,64347,1,0,1:0:0:0:
40,68,64776,2,0,L|48:12,2,55,8|8|0,0:0|0:0|1:0,0:0:0:0:
144,104,65633,6,0,L|256:96,1,110,8|0,0:0|1:0,0:0:0:0:
304,76,66276,2,0,P|296:132|308:184,1,110,0|8,0:0|0:0,0:0:0:0:
332,232,66919,1,0,1:0:0:0:
380,328,67347,2,0,L|268:340,1,110,8|0,0:0|1:0,0:0:0:0:
172,288,68204,2,0,L|116:284,2,55,8|8|0,0:0|0:0|1:0,0:0:0:0:
256,216,69061,5,12,0:0:0:0:
168,148,69490,2,0,P|156:92|168:40,2,110,0|8|0,1:0|0:0|1:0,0:0:0:0:
268,192,70776,2,0,L|380:184,1,110,8|0,0:0|1:0,0:0:0:0:
484,156,71633,2,0,L|492:100,2,55,8|8|0,0:0|0:0|1:0,0:0:0:0:
456,204,72276,1,8,0:0:0:0:
456,204,72490,6,0,L|468:316,1,110,8|0,0:0|1:0,0:0:0:0:
372,372,73347,1,8,0:0:0:0:
296,292,73776,1,0,1:0:0:0:
296,292,73990,2,0,P|240:280|192:296,1,110,12|8,0:0|0:0,0:0:0:0:
144,324,74633,1,0,1:0:0:0:
144,324,74847,2,0,P|128:272|128:212,1,110,4|8,1:2|0:0,0:0:0:0:
144,164,75490,1,0,1:0:0:0:
206,73,75919,6,0,P|258:81|318:81,1,110,12|0,0:0|1:0,0:0:0:0:
420,114,76776,2,0,L|476:106,2,55,8|8|0,0:0|0:0|1:0,0:0:0:0:
328,176,77633,1,8,0:0:0:0:
320,284,78061,1,0,1:0:0:0:
420,324,78490,2,0,L|412:380,2,55,8|8|0,0:0|0:0|1:0,0:0:0:0:
504,252,79347,6,0,L|488:144,1,110,8|0,0:0|1:0,0:0:0:0:
496,88,79990,2,0,P|440:100|384:96,1,110,0|8,0:0|0:0,0:0:0:0:
336,76,80633,1,0,1:0:0:0:
228,56,81061,2,0,L|236:168,1,110,8|0,0:0|1:0,0:0:0:0:
204,212,81704,2,0,B|148:204|148:204|96:212,1,110,0|8,0:0|0:0,0:0:0:0:
40,224,82347,1,0,1:0:0:0:
47,333,82776,6,0,P|99:349|151:333,1,110,12|0,0:0|1:0,0:0:0:0:
203,317,83419,2,0,L|315:325,1,110,12|8,0:0|0:0,0:0:0:0:
412,280,84276,2,0,P|428:228|416:172,1,110,12|8,0:0|0:0,0:0:0:0:
392,124,84919,1,0,1:0:0:0:
392,124,85133,2,0,P|336:132|284:112,1,110,12|8,0:0|0:0,0:0:0:0:
248,76,85776,1,0,1:0:0:0:
140,56,86204,5,12,0:0:0:0:
140,56,93061,6,0,L|140:168,1,110,4|8,1:0|0:0,0:0:0:0:
124,220,93704,2,0,P|180:208|236:208,1,110,4|8,1:0|0:0,0:0:0:0:
284,224,94347,1,4,1:0:0:0:
440,276,94990,2,0,L|432:332,2,55,8|8|8,0:0|0:0|3:0,0:0:0:0:
408,232,95633,2,0,L|400:120,1,110,8|0,3:0|1:0,0:0:0:0:
324,44,96490,6,0,P|272:28|216:48,1,110,4|8,1:0|0:0,0:0:0:0:
180,80,97133,2,0,P|124:100|76:84,1,110,4|8,1:0|0:0,0:0:0:0:
36,52,97776,2,0,L|48:216,1,165,4|8,1:0|3:0,0:0:0:0:
96,244,98633,2,0,L|88:300,2,55,8|8|8,3:0|3:0|3:0,0:0:0:0:
168,160,99490,1,0,1:0:0:0:
256,228,99919,6,0,P|312:240|364:228,1,110,12|0,0:0|1:0,0:0:0:0:
432,144,100776,2,0,L|420:32,1,110,0|0,1:0|1:0,0:0:0:0:
368,44,101419,1,8,0:0:0:0:
368,44,101633,2,0,P|316:64|260:72,1,110,8|0,0:0|1:0,0:0:0:0:
160,28,102490,2,0,L|104:20,2,55,0|8|0,1:0|0:0|1:0,0:0:0:0:
196,132,103347,6,0,P|204:188|200:244,1,110,0|8,1:0|0:0,0:0:0:0:
172,288,103990,2,0,P|248:248|312:292,1,165,12|0,0:0|1:0,0:0:0:0:
416,308,105061,2,0,P|432:256|428:200,1,110,8|8,0:0|0:0,0:0:0:0:
428,144,105704,2,0,P|368:152|324:132,1,110,12|8,0:0|0:0,0:0:0:0:
296,84,106347,1,0,1:0:0:0:
192,44,106776,6,0,P|136:56|96:96,2,110,12|0|0,0:0|1:0|1:0,0:0:0:0:
188,153,108061,1,0,1:0:0:0:
112,232,108490,2,0,L|0:224,1,110,8|0,0:0|1:0,0:0:0:0:
56,320,109347,2,0,L|168:328,1,110,0|0,1:0|1:0,0:0:0:0:
272,296,110204,6,0,P|288:244|280:188,1,110,4|0,1:0|1:0,0:0:0:0:
244,148,110847,2,0,P|316:148|364:136,1,110,0|0,1:0|1:0,0:0:0:0:
400,112,111490,1,0,1:0:0:0:
400,112,111704,2,0,P|456:124|500:164,1,110,4|8,1:2|3:0,0:0:0:0:
492,272,112561,1,8,3:0:0:0:
492,272,112776,2,0,L|380:264,1,110,8|0,0:0|1:0,0:0:0:0:
284,316,113633,5,4,0:0:0:0:
284,316,120919,5,0,1:0:0:0:
376,260,121347,1,0,1:0:0:0:
392,152,121776,1,0,1:0:0:0:
324,64,122204,2,0,P|268:52|216:60,1,110,0|0,1:0|1:0,0:0:0:0:
124,120,123061,2,0,L|132:232,1,110,0|0,1:0|1:0,0:0:0:0:
124,284,123704,1,8,0:0:0:0:
124,284,123919,6,0,P|180:276|236:284,1,110,0|8,1:0|0:0,0:0:0:0:
272,320,124561,2,0,B|312:320|352:296|352:296|384:320|432:320,1,165,0|0,1:0|1:0,0:0:0:0:
424,208,125633,2,0,P|408:156|412:100,1,110,0|8,1:0|0:0,0:0:0:0:
432,48,126276,2,0,P|352:76|300:24,1,165,4|0,1:2|1:0,0:0:0:0:
196,60,127347,5,12,0:0:0:0:
180,168,127776,1,0,1:0:0:0:
276,224,128204,2,0,L|332:216,2,55,8|8|0,0:0|0:0|1:0,0:0:0:0:
208,312,129061,2,0,L|100:296,1,110,8|0,0:0|1:0,0:0:0:0:
56,196,129919,2,0,L|0:204,2,55,8|8|0,0:0|0:0|1:0,0:0:0:0:
168,196,130776,6,0,P|176:140|160:84,1,110,8|0,0:0|1:0,0:0:0:0:
116,60,131419,2,0,L|228:48,1,110,0|8,0:0|0:0,0:0:0:0:
280,60,132061,1,0,1:0:0:0:
372,124,132490,2,0,B|368:180|368:180|380:232,1,110,8|0,0:0|1:0,0:0:0:0:
416,276,133133,2,0,P|360:256|312:268,1,110,0|8,0:0|0:0,0:0:0:0:
268,304,133776,1,0,1:0:0:0:
160,320,134204,6,0,B|104:312|104:312|52:320,1,110,12|0,0:0|1:0,0:0:0:0:
0,344,134847,2,0,P|16:288|8:236,1,110,12|8,0:0|0:0,0:0:0:0:
60,140,135704,2,0,P|112:120|168:128,1,110,12|8,0:0|0:0,0:0:0:0:
208,160,136347,1,0,1:0:0:0:
208,160,136561,2,0,B|264:164|264:164|316:152,1,110,12|0,0:0|1:0,0:0:0:0:
368,128,137204,1,4,0:3:0:0:
472,108,137633,6,0,P|464:164|472:216,1,110,12|0,0:0|1:0,0:0:0:0:
496,264,138276,1,12,0:0:0:0:
396,308,138704,2,0,L|340:300,1,55,8|0,0:0|1:0,0:0:0:0:
292,324,139133,2,0,L|304:212,1,110,12|8,0:0|0:0,0:0:0:0:
268,172,139776,2,0,L|264:116,2,55,0|0|0,1:0|1:0|1:0,0:0:0:0:
196,256,140633,1,0,1:0:0:0:
96,212,141061,6,0,P|72:160|72:108,1,110,4|0,1:0|1:0,0:0:0:0:
152,32,141919,2,0,L|264:40,1,110,0|0,1:0|1:0,0:0:0:0:
308,68,142561,1,8,0:0:0:0:
308,68,142776,2,0,P|324:120|316:176,1,110,0|0,1:0|1:0,0:0:0:0:
232,248,143633,2,0,L|176:252,2,55,0|8|0,1:0|0:0|1:0,0:0:0:0:
324,308,144490,6,0,L|436:312,1,110,0|0,1:0|1:0,0:0:0:0:
476,280,145133,1,8,0:0:0:0:
476,280,145347,2,0,P|488:224|472:172,1,110,0|0,1:0|1:0,0:0:0:0:
384,112,146204,2,0,P|328:124|280:108,1,110,0|0,1:0|1:0,0:0:0:0:
240,68,146847,1,8,0:0:0:0:
240,68,147061,2,0,L|184:76,2,55,0|8|0,1:0|0:0|1:0,0:0:0:0:
300,160,147919,6,0,P|297:217|279:266,1,110,4|0,1:2|1:0,0:0:0:0:
176,300,148776,2,0,L|120:296,2,55,0|8|0,1:0|0:0|1:0,0:0:0:0:
216,340,149419,1,8,0:0:0:0:
216,340,149633,2,0,L|328:332,1,110,0|0,1:0|1:0,0:0:0:0:
428,292,150490,2,0,P|440:236|424:188,1,110,0|0,1:0|1:0,0:0:0:0:
324,140,151347,5,4,1:2:0:0:
220,176,151776,1,0,1:0:0:0:
240,68,152204,2,0,P|228:40|224:16,2,55,0|8|0,1:0|0:0|1:0,0:0:0:0:
336,124,153061,5,8,1:2:0:0:
312,232,153490,1,8,1:2:0:0:
212,280,153919,1,8,1:2:0:0:
212,280,154133,2,0,L|224:336,2,55,8|0|8,0:0|1:0|0:0,0:0:0:0:
160,260,154776,5,12,0:0:0:0:
256,192,154883,12,8,162704,0:0:0:0:
