osu file format v14

[General]
AudioFilename: Chihiro Kosaka - Hajimete Koi wo Shita Kioku.mp3
AudioLeadIn: 0
PreviewTime: 127347
Countdown: 0
SampleSet: Soft
StackLeniency: 0.7
Mode: 0
LetterboxInBreaks: 1
WidescreenStoryboard: 0

[Editor]
DistanceSpacing: 0.7
BeatDivisor: 4
GridSize: 4
TimelineZoom: 1.5

[Metadata]
Title:Hajimete Koi o Shita Kioku (TV Edit)
TitleUnicode:初めて恋をした記憶
Artist:2B PENCILS & Nakagawa Kanon
ArtistUnicode:2B PENCILS & 中川かのん
Creator:Bearizm
Version:Memories of You
Source:神のみぞ知るセカイ 女神篇
Tags:Kami Nomi zo Shiru Sekai Megami Hen The World God Only Knows Goddesses Arc KamiNomi TWGOK The Memory of My First Love Ending 2B Pencils Asumi Kana Kanae Itou Ayahi Takagaki Nozomi Chikamura Ayana Taketatsu Touyama Nao
BeatmapID:784751
BeatmapSetID:356633

[Difficulty]
HPDrainRate:6
CircleSize:4
OverallDifficulty:7.5
ApproachRate:8.2
SliderMultiplier:1.5
SliderTickRate:1

[Events]
//Background and Video events
0,0,"KamiNomi.jpg",0,0
//Break Periods
2,48490,54627
2,86419,91699
2,113847,119556
//Storyboard Layer 0 (Background)
//Storyboard Layer 1 (Fail)
//Storyboard Layer 2 (Pass)
//Storyboard Layer 3 (Foreground)
//Storyboard Sound Samples

[TimingPoints]
3919,428.571428571429,4,2,1,90,1,0
5526,-100,4,2,1,5,0,0
5633,-100,4,2,1,90,0,0
19776,-100,4,2,1,70,0,0
58561,-100,4,2,1,80,0,0
62204,-100,4,2,1,90,0,1
86204,-100,4,2,1,80,0,0
113204,-200,4,2,1,80,0,0
120276,-100,4,2,1,80,0,0
120919,-100,4,2,1,60,0,0
122204,-100,4,2,1,70,0,0
123919,-100,4,2,1,80,0,0
127347,-100,4,2,1,90,0,1
141061,-100,4,2,1,90,0,0
153061,-100,4,2,1,95,0,0
154776,-100,4,2,1,100,0,0
154883,-100,4,2,1,5,0,0
162704,-100,4,2,1,60,0,0

[Colours]
Combo1 : 219,77,101
Combo2 : 198,204,149
Combo3 : 173,79,236
Combo4 : 118,108,236

[HitObjects]
88,232,3919,5,0,1:0:0:0:
132,120,4133,1,8,0:0:0:0:
172,272,4347,1,4,1:2:0:0:
124,100,4561,1,8,0:0:0:0:
76,248,4776,1,8,3:0:0:0:
144,352,4990,1,8,0:0:0:0:
144,352,5097,1,0,1:0:0:0:
144,352,5204,2,0,L|256:340,1,112.5,8|0,0:0|0:0,0:0:0:0:
340,360,5633,6,0,P|328:324|320:288,1,75,4|0,1:0|0:0,0:0:0:0:
324,108,6061,1,4,1:2:0:0:
412,272,6276,1,8,0:0:0:0:
504,244,6490,2,0,L|496:320,1,75,0|8,1:0|0:0,0:0:0:0:
400,152,6919,2,0,L|408:76,1,75,0|8,1:0|0:0,0:0:0:0:
500,224,7347,6,0,L|348:232,1,150,0|0,1:0|1:0,0:0:0:0:
240,280,7990,1,8,0:0:0:0:
140,216,8204,2,0,P|128:176|132:144,1,75,0|8,1:0|0:0,0:0:0:0:
264,264,8633,2,0,P|264:304|256:340,1,75,0|8,1:0|0:0,0:0:0:0:
256,338,8954,1,8,0:0:0:0:
256,338,9061,5,0,1:0:0:0:
60,312,9276,2,0,L|64:236,2,75,0|0|8,0:0|1:0|0:0,0:0:0:0:
180,208,9919,2,0,P|172:168|160:136,1,75,0|8,1:0|0:0,0:0:0:0:
48,88,10347,2,0,P|36:124|36:168,1,75,0|8,1:0|0:0,0:0:0:0:
124,260,10776,6,0,L|276:252,1,150,0|0,1:0|1:0,0:0:0:0:
356,164,11419,1,8,0:0:0:0:
264,88,11633,2,0,L|276:12,1,75,0|8,1:0|0:0,0:0:0:0:
436,72,12061,2,0,L|448:152,1,75,0|8,1:0|0:0,0:0:0:0:
336,328,12490,5,4,1:0:0:0:
472,332,12704,1,0,0:0:0:0:
388,224,12919,1,0,1:0:0:0:
328,356,13133,1,8,0:0:0:0:
488,252,13347,2,0,P|484:212|472:180,1,75,0|8,1:0|0:0,0:0:0:0:
288,192,13776,2,0,P|280:228|280:268,1,75,0|8,1:0|0:0,0:0:0:0:
384,240,14204,6,0,L|376:88,1,150,0|0,1:0|1:0,0:0:0:0:
276,20,14847,1,8,0:0:0:0:
192,104,15061,2,0,P|152:100|120:88,1,75,0|8,1:0|0:0,0:0:0:0:
4,200,15490,2,0,P|44:196|76:184,1,75,0|8,1:0|0:0,0:0:0:0:
272,76,15919,5,4,1:0:0:0:
208,232,16133,1,8,0:0:0:0:
119,87,16347,1,8,0:0:0:0:
268,168,16561,5,4,1:0:0:0:
132,176,16776,1,8,0:0:0:0:
192,32,16990,1,8,0:0:0:0:
208,256,17204,5,0,1:0:0:0:
256,192,17419,12,12,19347,0:0:0:0:
208,256,19776,5,8,0:0:0:0:
244,172,19990,1,0,0:0:0:0:
316,224,20204,2,0,L|312:300,1,75,8|0,0:0|0:0,0:0:0:0:
228,332,20633,2,0,L|232:256,1,75,8|0,0:0|0:0,0:0:0:0:
400,188,21061,6,0,L|393:336,1,150,8|8,0:0|0:0,0:0:0:0:
312,376,21704,1,0,0:0:0:0:
224,244,21919,2,0,P|232:208|252:176,1,75,8|0,0:0|0:0,0:0:0:0:
355,129,22347,2,0,P|382:153|399:187,1,75,8|0,0:0|0:0,0:0:0:0:
316,248,22776,5,8,0:0:0:0:
316,248,23204,2,0,L|164:232,1,150,8|8,0:0|0:0,0:0:0:0:
96,180,23847,2,0,P|84:144|80:108,1,75,0|8,0:0|0:0,0:0:0:0:
216,56,24276,2,0,P|216:96|208:132,1,75,0|8,0:0|0:0,0:0:0:0:
166,232,24704,5,0,0:0:0:0:
166,232,24919,1,8,0:0:0:0:
232,296,25133,2,0,L|240:376,2,75,0|8|0,0:0|0:0|0:0,0:0:0:0:
284,224,25776,1,8,0:0:0:0:
360,276,25990,1,0,0:0:0:0:
460,192,26204,6,0,L|448:40,1,150,8|8,0:0|0:0,0:0:0:0:
448,42,27061,1,8,0:0:0:0:
368,80,27276,2,0,P|328:76|296:64,2,75,0|8|0,0:0|0:0|0:0,0:0:0:0:
436,188,27919,6,0,P|360:172|296:208,1,150,8|8,0:0|0:0,0:0:0:0:
298,204,28776,1,8,0:0:0:0:
240,272,28990,2,0,L|248:348,2,75,0|8|0,0:0|0:0|0:0,0:0:0:0:
88,248,29633,6,0,L|104:96,2,150,8|8|8,0:0|0:0|0:0,0:0:0:0:
88,248,30919,1,8,0:0:0:0:
160,300,31133,1,0,0:0:0:0:
320,200,31347,6,0,B|284:192|284:192|172:204,1,150,8|8,0:0|0:0,0:0:0:0:
100,148,31990,1,0,0:0:0:0:
164,84,32204,2,0,P|172:48|172:8,1,75,8|0,0:0|0:0,0:0:0:0:
8,32,32633,2,0,P|8:72|16:108,1,75,8|0,0:0|0:0,0:0:0:0:
15,106,32954,1,0,0:0:0:0:
15,106,33061,5,8,0:0:0:0:
88,164,33276,1,0,0:0:0:0:
52,248,33490,1,8,0:0:0:0:
132,336,33704,2,0,L|208:328,1,75,0|8,0:0|0:0,0:0:0:0:
308,236,34133,2,0,P|316:200|312:160,1,75,0|8,0:0|0:0,0:0:0:0:
252,96,34561,1,0,0:0:0:0:
356,24,34776,6,0,L|432:40,1,75,8|0,0:0|0:0,0:0:0:0:
504,152,35204,2,0,L|428:160,1,75,8|0,0:0|0:0,0:0:0:0:
352,208,35633,1,8,0:0:0:0:
420,264,35847,1,0,0:0:0:0:
400,120,36061,1,0,1:0:0:0:
504,184,36276,1,0,0:0:0:0:
416,292,36490,6,0,L|340:284,1,75,8|0,0:0|0:0,0:0:0:0:
164,224,36919,2,0,P|236:244|288:196,1,150,8|8,0:0|0:0,0:0:0:0:
256,88,37561,2,0,L|180:96,1,75,0|8,0:0|0:0,0:0:0:0:
72,180,37990,2,0,P|64:216|68:256,1,75,0|8,0:0|0:0,0:0:0:0:
217,168,38419,5,0,0:0:0:0:
217,168,38633,1,8,0:0:0:0:
152,108,38847,2,0,L|164:32,1,75,0|8,0:0|0:0,0:0:0:0:
252,24,39276,1,0,0:0:0:0:
72,56,39490,1,0,1:0:0:0:
217,168,39704,1,0,0:0:0:0:
88,248,39919,6,0,L|12:236,1,75,8|0,0:0|0:0,0:0:0:0:
20,340,40347,2,0,L|96:352,1,75,8|0,0:0|0:0,0:0:0:0:
192,364,40776,1,8,0:0:0:0:
348,312,40990,2,0,P|370:283|384:246,1,75,0|8,0:0|0:0,0:0:0:0:
304,144,41419,1,0,0:0:0:0:
476,104,41633,6,0,L|484:260,1,150,8|8,0:0|0:0,0:0:0:0:
483,253,42490,1,8,0:0:0:0:
400,292,42704,2,0,P|388:328|388:364,2,75,0|0|0,0:0|1:0|0:0,0:0:0:0:
328,160,43347,5,8,0:0:0:0:
220,264,43561,1,8,0:0:0:0:
328,128,43776,1,0,1:0:0:0:
288,348,43990,2,0,L|208:352,1,75,12|0,0:0|0:0,0:0:0:0:
56,248,44419,5,8,0:0:0:0:
176,104,44633,1,0,1:0:0:0:
332,208,44847,1,4,1:2:0:0:
412,256,55347,5,0,1:0:0:0:
336,348,55561,1,0,1:0:0:0:
240,276,55775,2,0,L|248:200,1,75,0|0,1:0|1:0,0:0:0:0:
308,96,56204,2,0,L|232:80,1,75,0|0,1:0|1:0,0:0:0:0:
132,144,56632,1,0,1:0:0:0:
0,88,56847,6,0,L|12:12,1,75,0|0,1:0|1:0,0:0:0:0:
148,152,57276,1,0,1:0:0:0:
148,152,57490,2,0,L|156:228,1,75,0|0,1:0|1:0,0:0:0:0:
260,332,57918,1,0,1:0:0:0:
308,188,58132,1,0,1:0:0:0:
272,356,58347,1,0,1:0:0:0:
432,276,58561,6,0,L|416:124,1,150,12|8,0:0|0:0,0:0:0:0:
232,96,59204,2,0,B|228:136|228:136|232:172|232:172|228:208,1,112.5,0|0,1:0|1:0,0:0:0:0:
228,207,59632,1,8,0:0:0:0:
88,268,59847,1,8,0:0:0:0:
228,316,60061,1,0,1:0:0:0:
298,155,60275,6,0,P|230:119|166:143,1,150,12|8,0:0|0:0,0:0:0:0:
75,198,60918,2,0,P|63:162|63:122,1,75,0|0,1:0|0:0,0:0:0:0:
62,125,61240,1,0,1:0:0:0:
62,125,61347,1,8,0:0:0:0:
228,207,61561,1,8,0:0:0:0:
225,225,61669,1,0,1:0:0:0:
222,243,61776,2,0,L|228:280,2,37.5,0|8|8,1:0|0:0|0:0,0:0:0:0:
140,84,62204,6,0,P|177:87|211:101,1,75,12|0,0:0|0:0,0:0:0:0:
320,156,62633,2,0,L|332:80,1,75,0|0,1:0|0:0,0:0:0:0:
420,28,63061,1,8,0:0:0:0:
320,64,63276,1,8,0:0:0:0:
416,164,63490,1,0,1:0:0:0:
324,288,63704,6,0,L|316:208,1,75,0|8,0:0|0:0,0:0:0:0:
184,144,64133,1,0,0:0:0:0:
184,144,64347,2,0,P|144:152|112:168,1,75,0|0,1:0|0:0,0:0:0:0:
176,296,64776,1,8,0:0:0:0:
176,296,64990,1,8,0:0:0:0:
296,204,65204,2,0,P|292:164|280:132,1,75,0|0,1:0|0:0,0:0:0:0:
112,88,65633,6,0,L|104:240,1,150,8|0,0:0|1:0,0:0:0:0:
176,316,66276,2,0,P|216:320|256:308,1,75,0|8,0:0|0:0,0:0:0:0:
276,212,66704,1,8,0:0:0:0:
412,264,66919,1,0,1:0:0:0:
340,340,67133,1,0,0:0:0:0:
344,152,67347,6,0,P|424:168|464:120,2,150,8|0|8,0:0|1:0|0:0,0:0:0:0:
292,60,68419,1,8,0:0:0:0:
200,188,68633,2,0,L|216:264,1,75,0|0,1:0|0:0,0:0:0:0:
215,261,68954,1,0,0:0:0:0:
215,261,69061,1,12,0:0:0:0:
215,261,69490,6,0,L|292:252,1,75,0|0,1:0|0:0,0:0:0:0:
416,200,69919,2,0,L|369:138,1,75,8|8,0:0|0:0,0:0:0:0:
263,59,70347,2,0,L|232:129,1,75,0|0,1:0|0:0,0:0:0:0:
120,200,70776,6,0,P|80:196|48:184,1,75,8|0,0:0|0:0,0:0:0:0:
0,328,71204,2,0,P|36:316|76:312,1,75,0|0,1:0|0:0,0:0:0:0:
208,348,71633,1,8,0:0:0:0:
200,212,71847,1,8,0:0:0:0:
92,324,72061,1,0,1:0:0:0:
220,228,72276,1,8,0:0:0:0:
84,174,72490,6,0,L|92:324,1,150,8|0,0:0|1:0,0:0:0:0:
224,360,73133,1,0,0:0:0:0:
224,360,73240,1,0,0:0:0:0:
224,360,73347,1,8,0:0:0:0:
308,256,73561,1,8,0:0:0:0:
172,272,73776,1,0,1:0:0:0:
316,368,73990,6,0,L|392:360,1,75,12|0,0:0|0:0,0:0:0:0:
480,256,74419,1,8,0:0:0:0:
487,228,74526,1,0,1:0:0:0:
487,200,74633,1,8,0:0:0:0:
481,173,74740,1,8,0:0:0:0:
468,148,74847,6,0,L|484:76,1,75,4|0,1:2|0:0,0:0:0:0:
302,27,75276,1,8,0:0:0:0:
298,49,75383,1,0,1:0:0:0:
294,71,75490,2,0,L|302:107,2,37.5,0|8|8,1:0|0:0|0:0,0:0:0:0:
180,220,75919,5,12,0:0:0:0:
312,252,76133,1,0,0:0:0:0:
188,200,76347,1,0,1:0:0:0:
96,300,76561,1,0,0:0:0:0:
216,364,76776,2,0,L|292:352,2,75,8|8|0,0:0|0:0|1:0,0:0:0:0:
88,280,77419,6,0,P|84:240|92:200,1,75,0|8,0:0|0:0,0:0:0:0:
184,108,77847,1,0,0:0:0:0:
280,252,78061,2,0,L|204:248,1,75,0|0,1:0|0:0,0:0:0:0:
90,205,78490,1,8,0:0:0:0:
168,332,78704,1,8,0:0:0:0:
248,168,78919,1,0,1:0:0:0:
160,304,79133,1,0,0:0:0:0:
160,304,79240,1,0,0:0:0:0:
160,304,79347,6,0,L|84:308,2,75,8|0|0,0:0|0:0|1:0,0:0:0:0:
292,340,79990,2,0,P|328:328|356:304,1,75,0|8,0:0|0:0,0:0:0:0:
287,165,80419,2,0,L|280:240,1,75,8|0,0:0|1:0,0:0:0:0:
436,344,80847,1,0,0:0:0:0:
436,344,80954,1,0,0:0:0:0:
436,344,81061,6,0,L|424:192,1,150,8|0,0:0|1:0,0:0:0:0:
336,92,81704,1,0,0:0:0:0:
228,176,81919,2,0,P|188:180|152:176,2,75,8|8|0,0:0|0:0|1:0,0:0:0:0:
332,264,82561,1,0,0:0:0:0:
428,168,82776,5,12,0:0:0:0:
240,156,82990,1,8,0:0:0:0:
436,144,83204,1,0,1:0:0:0:
346,336,83419,2,0,P|335:301|332:264,1,75,12|0,0:0|0:0,0:0:0:0:
332,128,83847,5,8,0:0:0:0:
416,284,84061,1,0,1:0:0:0:
400,80,84276,2,0,P|364:52|268:76,1,150,12|8,0:0|0:0,0:0:0:0:
212,196,84919,5,0,1:0:0:0:
424,268,85133,2,0,P|436:232|440:196,1,75,12|0,0:0|0:0,0:0:0:0:
332,128,85561,2,0,P|332:168|344:204,1,75,8|0,0:0|1:0,0:0:0:0:
342,201,85883,1,8,0:0:0:0:
342,201,85990,1,8,0:0:0:0:
212,336,86204,5,12,0:0:0:0:
212,336,92419,5,8,0:0:0:0:
212,336,92526,1,8,0:0:0:0:
212,336,92633,2,0,L|200:260,1,75,8|0,0:0|0:0,0:0:0:0:
120,196,93061,5,4,1:0:0:0:
180,76,93276,1,8,0:0:0:0:
255,187,93490,1,8,0:0:0:0:
108,212,93704,5,4,1:0:0:0:
168,92,93919,1,8,0:0:0:0:
243,203,94133,1,8,0:0:0:0:
52,276,94347,6,0,L|68:124,1,150,4|0,1:0|0:0,0:0:0:0:
180,52,94990,1,8,0:0:0:0:
180,52,95097,1,8,0:0:0:0:
180,52,95204,1,8,0:0:0:0:
276,148,95419,1,8,3:0:0:0:
140,136,95633,1,8,3:0:0:0:
280,128,95847,1,8,3:0:0:0:
216,292,96061,2,0,L|140:284,1,75,0|0,1:0|0:0,0:0:0:0:
134,180,96490,5,4,1:0:0:0:
43,343,96704,1,8,0:0:0:0:
231,340,96919,1,8,0:0:0:0:
145,159,97133,5,4,1:0:0:0:
54,322,97347,1,8,0:0:0:0:
242,320,97561,1,8,0:0:0:0:
32,194,97776,6,0,L|44:344,1,150,4|0,1:0|0:0,0:0:0:0:
144,376,98419,1,8,3:0:0:0:
228,316,98633,1,8,3:0:0:0:
232,212,98847,1,8,3:0:0:0:
160,136,99061,1,8,3:0:0:0:
236,300,99276,1,8,0:0:0:0:
236,300,99383,1,8,0:0:0:0:
236,300,99490,2,0,L|312:296,1,75,0|0,1:0|0:0,0:0:0:0:
452,352,99919,6,0,L|460:200,1,150,12|0,0:0|1:0,0:0:0:0:
352,124,100561,1,8,0:0:0:0:
372,260,100776,1,0,1:0:0:0:
472,184,100990,1,8,0:0:0:0:
356,244,101204,1,0,1:0:0:0:
492,284,101419,1,8,0:0:0:0:
308,332,101633,6,0,L|312:180,1,150,8|0,0:0|1:0,0:0:0:0:
192,36,102276,1,8,0:0:0:0:
204,57,102383,1,8,0:0:0:0:
212,81,102490,1,0,1:0:0:0:
216,116,102633,2,0,L|209:191,1,75,8|8,0:0|0:0,0:0:0:0:
192,208,102919,2,0,L|116:200,1,75,0|0,1:0|0:0,0:0:0:0:
32,296,103347,5,0,1:0:0:0:
96,176,103561,1,8,0:0:0:0:
136,304,103776,1,8,0:0:0:0:
0,132,103990,2,0,L|8:56,1,75,12|0,0:0|0:0,0:0:0:0:
192,96,104419,1,8,0:0:0:0:
96,4,104633,1,0,1:0:0:0:
96,176,104847,1,0,0:0:0:0:
12,112,105061,5,8,0:0:0:0:
196,76,105276,1,0,1:0:0:0:
196,76,105383,1,0,1:0:0:0:
196,76,105490,1,8,0:0:0:0:
119,246,105704,2,0,P|102:212|96:176,2,75,12|0|8,0:0|0:0|0:0,0:0:0:0:
216,372,106347,1,0,1:0:0:0:
242,346,106454,1,8,0:0:0:0:
277,332,106561,1,8,0:0:0:0:
314,335,106668,1,8,0:0:0:0:
347,352,106776,6,0,L|356:200,1,150,12|0,0:0|1:0,0:0:0:0:
260,104,107419,1,8,0:0:0:0:
372,180,107633,2,0,P|416:176|444:164,1,75,0|8,1:0|0:0,0:0:0:0:
248,116,108061,2,0,P|232:152|228:192,1,75,0|8,1:0|0:0,0:0:0:0:
488,232,108490,6,0,L|472:80,1,150,8|0,0:0|1:0,0:0:0:0:
348,28,109133,1,8,0:0:0:0:
248,116,109347,2,0,L|172:104,1,75,0|8,1:0|0:0,0:0:0:0:
277,260,109776,2,0,L|353:272,1,75,0|8,1:0|0:0,0:0:0:0:
480,192,110204,5,4,1:0:0:0:
420,332,110419,1,0,1:0:0:0:
384,188,110633,1,0,1:0:0:0:
500,284,110847,1,0,1:0:0:0:
352,272,111061,1,0,1:0:0:0:
272,148,111276,5,0,1:0:0:0:
171,306,111490,1,0,1:0:0:0:
31,128,111704,2,0,L|108:136,1,75,4|0,1:2|0:0,0:0:0:0:
242,184,112133,5,8,3:0:0:0:
240,72,112347,1,8,3:0:0:0:
152,20,112561,1,8,3:0:0:0:
152,20,112669,1,8,3:0:0:0:
152,20,112776,1,8,0:0:0:0:
168,192,112990,1,8,0:0:0:0:
168,192,113097,1,8,0:0:0:0:
168,192,113204,6,0,L|244:184,1,75,0|4,1:0|0:0,0:0:0:0:
242,184,120276,5,0,0:0:0:0:
242,184,120383,1,0,0:0:0:0:
242,184,120490,2,0,L|236:260,1,75
308,336,120919,5,0,1:0:0:0:
392,364,121133,1,0,1:0:0:0:
312,311,121347,5,0,1:0:0:0:
412,280,121561,1,0,1:0:0:0:
310,286,121776,5,0,1:0:0:0:
392,196,121990,1,0,1:0:0:0:
304,262,122204,5,0,1:0:0:0:
336,128,122419,1,0,1:0:0:0:
184,220,122633,5,0,1:0:0:0:
181,70,122847,1,0,1:0:0:0:
92,192,123061,1,0,1:0:0:0:
236,144,123276,1,0,1:0:0:0:
92,100,123490,1,0,1:0:0:0:
200,248,123704,1,8,0:0:0:0:
200,248,123811,1,8,0:0:0:0:
200,248,123919,6,0,P|192:288|172:324,2,75,0|8|8,1:0|0:0|0:0,0:0:0:0:
168,48,124561,2,0,P|244:72|288:24,1,150,0|8,1:0|0:0,0:0:0:0:
76,9,125204,2,0,P|67:49|74:81,1,75,0|8,1:0|0:0,0:0:0:0:
90,107,125526,5,8,0:0:0:0:
106,131,125633,1,0,1:0:0:0:
117,159,125740,1,0,1:0:0:0:
120,189,125847,1,8,0:0:0:0:
117,219,125954,1,8,0:0:0:0:
106,247,126061,1,8,0:0:0:0:
264,352,126276,2,0,L|340:344,1,75,4|0,1:2|0:0,0:0:0:0:
220,208,126704,1,8,0:0:0:0:
220,208,126811,1,8,0:0:0:0:
220,208,126919,2,0,P|208:248|212:280,1,75,0|0,1:0|0:0,0:0:0:0:
400,280,127347,6,0,P|403:242|392:207,1,75,12|0,0:0|0:0,0:0:0:0:
304,148,127776,1,0,1:0:0:0:
464,160,127990,1,0,0:0:0:0:
316,252,128204,1,8,0:0:0:0:
316,252,128419,1,8,0:0:0:0:
384,88,128633,1,0,1:0:0:0:
308,272,128847,6,0,L|232:256,1,75,0|8,0:0|0:0,0:0:0:0:
100,248,129276,1,0,0:0:0:0:
100,248,129490,2,0,P|72:272|52:304,1,75,0|0,1:0|0:0,0:0:0:0:
165,352,129919,1,8,0:0:0:0:
165,352,130133,1,8,0:0:0:0:
276,236,130347,2,0,L|264:160,1,75,0|0,1:0|0:0,0:0:0:0:
448,124,130776,6,0,P|436:196|440:276,1,150,8|0,0:0|1:0,0:0:0:0:
308,348,131419,2,0,P|268:352|232:344,1,75,0|8,0:0|0:0,0:0:0:0:
152,260,131847,1,8,0:0:0:0:
264,212,132061,1,0,1:0:0:0:
234,344,132276,1,0,0:0:0:0:
184,160,132490,6,8,P|260:172|312:124,2,150,8|0|8,0:0|1:0|0:0,0:0:0:0:
84,92,133561,1,8,0:0:0:0:
56,240,133776,2,0,P|95:230|132:232,1,75,0|0,1:0|0:0,0:0:0:0:
234,91,134204,5,12,0:0:0:0:
322,257,134419,1,8,0:0:0:0:
248,64,134633,1,0,1:0:0:0:
128,208,134847,2,0,L|204:216,1,75,12|0,0:0|0:0,0:0:0:0:
340,152,135276,5,8,0:0:0:0:
228,292,135490,1,0,1:0:0:0:
420,356,135704,2,0,L|412:280,1,75,12|0,0:0|0:0,0:0:0:0:
340,152,136133,5,8,0:0:0:0:
484,220,136347,1,0,1:0:0:0:
336,316,136561,1,12,0:0:0:0:
420,356,136776,5,8,0:0:0:0:
427,319,136883,1,0,1:0:0:0:
421,282,136990,1,0,1:0:0:0:
401,251,137097,1,0,1:0:0:0:
371,229,137204,2,0,L|332:236,1,37.5,4|4,0:3|0:3,0:0:0:0:
152,280,137419,1,8,0:0:0:0:
152,280,137526,1,8,0:0:0:0:
152,280,137633,5,12,0:0:0:0:
300,244,137847,1,8,0:0:0:0:
270,364,138061,1,0,1:0:0:0:
312,212,138276,2,0,L|300:136,1,75,12|0,0:0|0:0,0:0:0:0:
136,104,138704,5,8,0:0:0:0:
236,280,138919,1,0,1:0:0:0:
296,120,139133,2,0,L|220:128,1,75,12|0,0:0|0:0,0:0:0:0:
136,204,139561,5,8,0:0:0:0:
280,32,139776,1,0,1:0:0:0:
260,256,139990,1,0,1:0:0:0:
144,64,140204,1,0,1:0:0:0:
352,152,140419,1,8,0:0:0:0:
377,147,140526,1,0,1:0:0:0:
402,143,140633,2,0,P|416:112|424:72,1,75,0|0,1:0|0:0,0:0:0:0:
212,180,141061,6,0,L|228:336,1,150,4|0,1:0|1:0,0:0:0:0:
384,348,141704,1,8,0:0:0:0:
448,184,141919,2,0,L|372:188,1,75,0|8,1:0|0:0,0:0:0:0:
309,340,142347,2,0,L|383:347,1,75,0|8,1:0|0:0,0:0:0:0:
476,148,142776,6,0,P|400:164|360:112,1,150,0|0,1:0|1:0,0:0:0:0:
360,113,143419,1,8,0:0:0:0:
212,140,143633,1,0,1:0:0:0:
304,20,143847,1,8,0:0:0:0:
292,188,144061,1,0,1:0:0:0:
360,113,144276,1,8,0:0:0:0:
204,65,144490,6,0,L|212:140,1,75,0|0,1:0|0:0,0:0:0:0:
168,328,144919,1,0,1:0:0:0:
304,268,145133,1,8,0:0:0:0:
156,248,145347,1,0,1:0:0:0:
292,188,145561,1,8,0:0:0:0:
256,348,145776,1,0,1:0:0:0:
212,140,145990,1,8,0:0:0:0:
81,255,146204,6,0,L|156:248,1,75,0|0,1:0|0:0,0:0:0:0:
292,188,146633,1,0,1:0:0:0:
408,320,146847,1,8,0:0:0:0:
424,299,146954,1,8,0:0:0:0:
433,274,147061,1,0,1:0:0:0:
440,240,147204,2,0,L|428:164,1,75,8|8,0:0|0:0,0:0:0:0:
396,144,147490,2,0,L|408:68,1,75,0|0,1:0|0:0,0:0:0:0:
344,224,147919,6,0,P|312:248|208:224,1,150,4|0,1:2|1:0,0:0:0:0:
152,124,148561,1,8,0:0:0:0:
92,228,148776,2,0,P|100:264|116:300,1,75,0|8,1:0|0:0,0:0:0:0:
276,168,149204,2,0,P|284:132|284:92,1,75,0|8,1:0|0:0,0:0:0:0:
184,240,149633,6,0,L|336:252,1,150,0|0,1:0|1:0,0:0:0:0:
432,148,150276,1,8,0:0:0:0:
416,256,150490,1,0,1:0:0:0:
432,120,150704,1,8,0:0:0:0:
496,336,150919,2,0,L|420:348,1,75,0|8,1:0|0:0,0:0:0:0:
288,280,151347,5,4,1:2:0:0:
416,192,151561,1,0,1:0:0:0:
408,360,151776,1,0,1:0:0:0:
276,256,151990,1,0,1:0:0:0:
476,272,152204,1,0,1:0:0:0:
320,364,152419,1,0,1:0:0:0:
416,172,152633,1,0,1:0:0:0:
484,296,152847,1,0,1:0:0:0:
276,168,153061,5,8,1:2:0:0:
480,204,153276,1,8,1:2:0:0:
268,280,153490,1,8,1:2:0:0:
388,68,153704,1,8,1:2:0:0:
428,328,153919,1,8,1:2:0:0:
488,132,154133,1,8,0:0:0:0:
482,106,154240,1,0,1:0:0:0:
476,80,154347,2,0,L|484:44,2,37.5,0|8|8,1:0|0:0|0:0,0:0:0:0:
252,180,154776,5,12,0:0:0:0:
256,192,154883,12,8,162704,0:0:0:0:
