osu file format v14

[General]
AudioFilename: Chihiro Kosaka - Hajimete Koi wo Shita Kioku.mp3
AudioLeadIn: 0
PreviewTime: 127347
Countdown: 0
SampleSet: Soft
StackLeniency: 0.7
Mode: 0
LetterboxInBreaks: 1
WidescreenStoryboard: 0

[Editor]
DistanceSpacing: 0.8
BeatDivisor: 4
GridSize: 4
TimelineZoom: 1.5

[Metadata]
Title:Hajimete Koi o Shita Kioku (TV Edit)
TitleUnicode:初めて恋をした記憶
Artist:2B PENCILS & Nakagawa Kanon
ArtistUnicode:2B PENCILS & 中川かのん
Creator:Bearizm
Version:Hard
Source:神のみぞ知るセカイ 女神篇
Tags:Kami Nomi zo Shiru Sekai Megami Hen The World God Only Knows Goddesses Arc KamiNomi TWGOK The Memory of My First Love Ending 2B Pencils Asumi Kana Kanae Itou Ayahi Takagaki Nozomi Chikamura Ayana Taketatsu Touyama Nao
BeatmapID:784750
BeatmapSetID:356633

[Difficulty]
HPDrainRate:6
CircleSize:4
OverallDifficulty:6
ApproachRate:6.6
SliderMultiplier:1.3
SliderTickRate:1

[Events]
//Background and Video events
0,0,"KamiNomi.jpg",0,0
//Break Periods
2,48490,54387
2,86419,92101
2,113847,119316
//Storyboard Layer 0 (Background)
//Storyboard Layer 1 (Fail)
//Storyboard Layer 2 (Pass)
//Storyboard Layer 3 (Foreground)
//Storyboard Sound Samples

[TimingPoints]
3919,428.571428571429,4,2,1,90,1,0
19776,-100,4,2,1,70,0,0
58561,-100,4,2,1,80,0,0
62204,-100,4,2,1,90,0,1
86204,-100,4,2,1,80,0,0
120919,-100,4,2,1,60,0,0
122204,-100,4,2,1,70,0,0
123919,-100,4,2,1,80,0,0
127347,-100,4,2,1,90,0,1
141061,-100,4,2,1,90,0,0
153061,-100,4,2,1,95,0,0
154776,-100,4,2,1,100,0,0
154883,-100,4,2,1,5,0,0
162704,-100,4,2,1,60,0,0

[Colours]
Combo1 : 219,77,101
Combo2 : 198,204,149
Combo3 : 173,79,236
Combo4 : 118,108,236

[HitObjects]
200,44,3919,5,0,1:0:0:0:
252,120,4133,1,8,0:0:0:0:
192,188,4347,2,0,L|128:184,1,65,4|8,1:2|0:0,0:0:0:0:
72,256,4776,1,8,3:0:0:0:
160,280,4990,1,8,0:0:0:0:
160,280,5097,1,0,1:0:0:0:
160,280,5204,2,0,L|224:276,1,65,8|0,0:0|0:0,0:0:0:0:
312,300,5633,6,0,L|296:168,1,130,4|4,1:0|1:2,0:0:0:0:
336,88,6276,1,8,0:0:0:0:
416,132,6490,2,0,L|480:136,1,65,0|8,1:0|0:0,0:0:0:0:
508,224,6919,2,0,L|444:220,1,65,0|8,1:0|0:0,0:0:0:0:
376,280,7347,6,0,P|312:260|260:288,1,130,0|0,1:0|1:0,0:0:0:0:
180,336,7990,1,8,0:0:0:0:
100,296,8204,2,0,L|36:308,2,65,0|8|0,1:0|0:0|1:0,0:0:0:0:
152,220,8847,1,8,0:0:0:0:
152,220,8954,1,8,0:0:0:0:
152,220,9061,6,0,P|156:188|152:152,1,65,0|0,1:0|0:0,0:0:0:0:
184,72,9490,2,0,P|216:64|248:64,1,65,0|8,1:0|0:0,0:0:0:0:
320,120,9919,2,0,L|384:128,1,65,0|8,1:0|0:0,0:0:0:0:
472,100,10347,2,0,P|472:128|480:168,1,65,0|8,1:0|0:0,0:0:0:0:
508,268,10776,6,0,P|448:240|400:272,1,130,0|0,1:0|1:0,0:0:0:0:
336,340,11419,1,8,0:0:0:0:
268,280,11633,2,0,P|264:248|268:216,2,65,0|8|0,1:0|0:0|1:0,0:0:0:0:
216,356,12276,1,8,0:0:0:0:
140,308,12490,6,0,L|132:176,1,130,4|0,1:0|1:0,0:0:0:0:
168,96,13133,1,8,0:0:0:0:
252,132,13347,2,0,P|284:128|316:116,2,65,0|8|0,1:0|0:0|1:0,0:0:0:0:
228,220,13990,1,8,0:0:0:0:
284,292,14204,6,0,L|416:280,1,130,0|0,1:0|1:0,0:0:0:0:
476,212,14847,1,8,0:0:0:0:
404,156,15061,1,0,1:0:0:0:
488,196,15276,1,8,0:0:0:0:
508,108,15490,2,0,P|500:72|488:44,1,65,0|8,1:0|0:0,0:0:0:0:
400,32,15919,5,4,1:0:0:0:
348,108,16133,2,0,L|344:172,1,65,8|8,0:0|0:0,0:0:0:0:
320,260,16561,2,0,P|288:256|256:260,2,65,4|8|8,1:0|0:0|0:0,0:0:0:0:
408,287,17204,1,0,1:0:0:0:
256,192,17419,12,12,19347,0:0:0:0:
408,287,19776,6,0,L|472:276,2,65,8|0|8,0:0|0:0|0:0,0:0:0:0:
336,344,20419,1,0,0:0:0:0:
268,284,20633,2,0,P|256:252|256:216,1,65,8|0,0:0|0:0,0:0:0:0:
312,152,21061,6,0,P|252:176|192:152,1,130,8|8,0:0|0:0,0:0:0:0:
116,104,21704,1,0,0:0:0:0:
40,156,21919,2,0,P|36:188|40:220,1,65,8|0,0:0|0:0,0:0:0:0:
92,296,22347,2,0,L|156:304,1,65,8|0,0:0|0:0,0:0:0:0:
248,316,22776,5,8,0:0:0:0:
248,316,23204,2,0,P|308:288|356:320,1,130,8|8,0:0|0:0,0:0:0:0:
448,328,23847,2,0,P|460:296|464:264,1,65,0|8,0:0|0:0,0:0:0:0:
472,176,24276,2,0,L|456:112,1,65,0|8,0:0|0:0,0:0:0:0:
380,60,24704,6,0,L|316:68,1,65,0|8,0:0|0:0,0:0:0:0:
232,108,25133,2,0,L|168:96,2,65,0|8|0,0:0|0:0|0:0,0:0:0:0:
304,164,25776,1,8,0:0:0:0:
308,256,25990,1,0,0:0:0:0:
240,316,26204,6,0,P|176:296|124:324,1,130,8|8,0:0|0:0,0:0:0:0:
123,324,27061,1,8,0:0:0:0:
40,284,27276,2,0,P|24:312|16:344,2,65,0|8|0,0:0|0:0|0:0,0:0:0:0:
120,236,27919,6,0,L|108:104,1,130,8|8,0:0|0:0,0:0:0:0:
108,106,28776,1,8,0:0:0:0:
24,144,28990,2,0,L|32:208,2,65,0|8|0,0:0|0:0|0:0,0:0:0:0:
92,84,29633,6,0,P|156:96|204:56,1,130,8|8,0:0|0:0,0:0:0:0:
384,36,30490,2,0,L|376:168,1,130,8|8,0:0|0:0,0:0:0:0:
308,228,31133,1,0,0:0:0:0:
232,176,31347,6,0,P|196:168|116:208,2,130,8|8|8,0:0|0:0|0:0,0:0:0:0:
296,240,32419,1,0,0:0:0:0:
248,316,32633,2,0,L|184:312,1,65,8|0,0:0|0:0,0:0:0:0:
96,340,33061,6,0,P|80:312|72:280,1,65,8|0,0:0|0:0,0:0:0:0:
60,188,33490,1,8,0:0:0:0:
120,120,33704,2,0,L|184:128,1,65,0|8,0:0|0:0,0:0:0:0:
264,176,34133,2,0,L|328:168,1,65,0|8,0:0|0:0,0:0:0:0:
396,108,34561,1,0,0:0:0:0:
468,164,34776,6,0,P|472:200|468:228,1,65,8|0,0:0|0:0,0:0:0:0:
400,288,35204,2,0,L|336:284,1,65,8|0,0:0|0:0,0:0:0:0:
256,328,35633,2,0,L|192:336,2,65,8|0|0,0:0|0:0|1:0,0:0:0:0:
308,252,36276,1,0,0:0:0:0:
248,184,36490,6,0,L|256:116,1,65,8|0,0:0|0:0,0:0:0:0:
320,56,36919,2,0,P|256:72|204:40,1,130,8|8,0:0|0:0,0:0:0:0:
112,48,37561,2,0,P|108:80|112:112,1,65,0|8,0:0|0:0,0:0:0:0:
176,180,37990,6,0,L|168:248,1,65,0|8,0:0|0:0,0:0:0:0:
244,296,38419,1,0,0:0:0:0:
320,244,38633,1,8,0:0:0:0:
396,296,38847,2,0,P|432:292|464:296,2,65,0|8|0,0:0|0:0|0:0,0:0:0:0:
332,232,39490,2,0,P|324:196|324:168,1,65,0|0,1:0|0:0,0:0:0:0:
408,132,39919,6,0,L|420:264,2,130,8|8|8,0:0|0:0|0:0,0:0:0:0:
340,76,40990,1,0,0:0:0:0:
264,128,41204,2,0,P|231:123|200:124,1,65,8|0,0:0|0:0,0:0:0:0:
132,188,41633,2,0,P|156:128|136:68,2,130,8|8|8,0:0|0:0|0:0,0:0:0:0:
80,264,42704,2,0,P|84:296|96:328,1,65,0|0,0:0|1:0,0:0:0:0:
180,356,43133,1,0,0:0:0:0:
264,316,43347,6,0,L|328:320,2,65,8|8|0,0:0|0:0|1:0,0:0:0:0:
183,231,43990,2,0,P|164:171|183:107,1,130,12|8,0:0|0:0,0:0:0:0:
287,55,44633,1,0,1:0:0:0:
267,170,44847,1,4,1:2:0:0:
267,170,55347,6,0,P|247:197|224:221,1,65,0|0,1:0|1:0,0:0:0:0:
246,309,55776,2,0,P|212:306|180:298,1,65,0|0,1:0|1:0,0:0:0:0:
117,363,56204,2,0,P|102:332|93:300,1,65,0|0,1:0|1:0,0:0:0:0:
7,274,56633,2,0,P|26:246|49:222,1,65,0|0,1:0|1:0,0:0:0:0:
132,196,57061,5,0,1:0:0:0:
156,108,57276,1,0,1:0:0:0:
76,68,57490,2,0,P|68:100|68:132,1,65,0|0,1:0|1:0,0:0:0:0:
144,184,57919,2,0,L|152:248,2,65,0|0|0,1:0|1:0|1:0,0:0:0:0:
256,120,58561,6,0,L|252:252,1,130,12|8,0:0|0:0,0:0:0:0:
308,324,59204,2,0,P|344:328|372:324,1,65,0|0,1:0|0:0,0:0:0:0:
456,288,59633,2,0,P|480:312|496:340,2,65,8|8|0,0:0|0:0|1:0,0:0:0:0:
380,236,60276,2,0,B|368:172|368:172|380:108,1,130,12|8,0:0|0:0,0:0:0:0:
448,48,60919,2,0,P|384:68|340:32,1,130,0|8,1:0|0:0,0:0:0:0:
268,88,61561,1,8,0:0:0:0:
268,88,61669,1,0,1:0:0:0:
268,88,61776,2,0,L|272:124,2,32.5,0|8|8,1:0|0:0|0:0,0:0:0:0:
204,20,62204,5,12,0:0:0:0:
160,100,62419,1,0,0:0:0:0:
68,88,62633,2,0,P|60:120|60:152,1,65,0|0,1:0|0:0,0:0:0:0:
104,232,63061,2,0,P|96:264|84:296,2,65,8|8|0,0:0|0:0|1:0,0:0:0:0:
176,176,63704,1,0,0:0:0:0:
176,176,63919,6,0,P|240:196|292:168,2,130,8|0|8,0:0|1:0|0:0,0:0:0:0:
144,92,64990,1,8,0:0:0:0:
212,32,65204,2,0,L|276:40,1,65,0|0,1:0|0:0,0:0:0:0:
338,107,65633,6,0,L|346:239,1,130,8|0,0:0|1:0,0:0:0:0:
280,300,66276,2,0,P|248:300|212:308,1,65,0|8,0:0|0:0,0:0:0:0:
132,340,66704,1,8,0:0:0:0:
96,256,66919,2,0,L|108:192,1,65,0|0,1:0|0:0,0:0:0:0:
176,132,67347,6,0,B|112:148|112:148|52:128,2,130,8|0|8,0:0|1:0|0:0,0:0:0:0:
228,56,68419,1,8,0:0:0:0:
320,52,68633,2,0,P|341:81|354:110,1,65,0|0,1:0|0:0,0:0:0:0:
328,196,69061,1,12,0:0:0:0:
328,196,69490,6,0,L|264:192,1,65,0|0,1:0|0:0,0:0:0:0:
200,260,69919,2,0,L|157:211,1,65,8|8,0:0|0:0,0:0:0:0:
68,232,70347,2,0,L|72:168,1,65,0|0,1:0|0:0,0:0:0:0:
0,116,70776,2,0,L|48:73,1,65,8|0,0:0|0:0,0:0:0:0:
136,52,71204,6,0,P|168:60|196:80,1,65,0|0,1:0|0:0,0:0:0:0:
284,100,71633,2,0,P|320:88|344:72,2,65,8|8|0,0:0|0:0|1:0,0:0:0:0:
216,164,72276,1,8,0:0:0:0:
260,244,72490,6,0,L|392:232,1,130,8|0,0:0|1:0,0:0:0:0:
464,180,73133,2,0,L|496:184,2,32.5,0|0|8,0:0|0:0|0:0,0:0:0:0:
388,128,73561,1,8,0:0:0:0:
412,40,73776,1,0,1:0:0:0:
364,116,73990,6,0,L|300:124,1,65,12|0,0:0|0:0,0:0:0:0:
223,174,74419,1,8,0:0:0:0:
152,116,74633,1,8,0:0:0:0:
100,192,74847,6,0,L|108:256,1,65,4|0,1:2|0:0,0:0:0:0:
160,332,75276,1,8,0:0:0:0:
236,280,75490,2,0,L|244:248,2,32.5,0|8|8,1:0|0:0|0:0,0:0:0:0:
308,336,75919,6,0,L|372:332,1,65,12|0,0:0|0:0,0:0:0:0:
440,272,76347,2,0,P|448:236|448:208,1,65,0|0,1:0|0:0,0:0:0:0:
376,152,76776,2,0,L|384:88,2,65,8|8|0,0:0|0:0|1:0,0:0:0:0:
312,216,77419,1,0,0:0:0:0:
252,148,77633,6,0,P|192:136|140:176,2,130,8|0|8,0:0|1:0|0:0,0:0:0:0:
284,232,78704,1,8,0:0:0:0:
204,272,78919,2,0,L|140:264,1,65,0|0,1:0|0:0,0:0:0:0:
68,316,79347,6,0,L|56:184,1,130,8|0,0:0|1:0,0:0:0:0:
104,108,79990,2,0,P|136:96|168:92,1,65,0|8,0:0|0:0,0:0:0:0:
232,156,80419,2,0,L|296:160,1,65,8|0,0:0|1:0,0:0:0:0:
368,104,80847,1,0,0:0:0:0:
432,172,81061,6,0,P|420:236|424:300,1,130,8|0,0:0|1:0,0:0:0:0:
492,364,81704,2,0,P|432:336|372:352,1,130,0|8,0:0|0:0,0:0:0:0:
284,328,82347,2,0,P|264:296|256:268,1,65,0|0,1:0|0:0,0:0:0:0:
260,180,82776,5,12,0:0:0:0:
200,112,82990,1,8,0:0:0:0:
108,120,83204,1,0,1:0:0:0:
80,208,83419,2,0,L|92:340,1,130,12|8,0:0|0:0,0:0:0:0:
184,344,84061,1,0,1:0:0:0:
224,264,84276,6,0,P|285:245|333:285,1,130,12|8,0:0|0:0,0:0:0:0:
368,368,84919,1,0,1:0:0:0:
434,308,85133,2,0,L|416:180,1,130,12|8,0:0|0:0,0:0:0:0:
440,92,85776,2,0,L|444:56,2,32.5,0|8|8,1:0|0:0|0:0,0:0:0:0:
332,44,86204,5,12,0:0:0:0:
332,44,93061,5,4,1:0:0:0:
392,112,93276,1,8,0:0:0:0:
332,180,93490,1,8,0:0:0:0:
395,244,93704,2,0,L|459:252,2,65,4|8|8,1:0|0:0|0:0,0:0:0:0:
296,308,94347,2,0,L|164:320,1,130,4|0,1:0|0:0,0:0:0:0:
80,288,94990,5,8,0:0:0:0:
80,288,95097,1,8,0:0:0:0:
80,288,95204,1,8,0:0:0:0:
148,228,95419,1,8,3:0:0:0:
92,156,95633,2,0,L|28:168,1,65,8|8,3:0|3:0,0:0:0:0:
156,240,96061,2,0,L|220:244,1,65,0|0,1:0|0:0,0:0:0:0:
300,196,96490,6,0,P|308:164|308:132,1,65,4|8,1:0|0:0,0:0:0:0:
260,56,96919,1,8,0:0:0:0:
328,116,97133,2,0,L|392:120,1,65,4|8,1:0|0:0,0:0:0:0:
474,79,97561,1,8,0:0:0:0:
504,192,97776,2,0,L|488:324,1,130,4|0,1:0|0:0,0:0:0:0:
404,360,98419,5,8,3:0:0:0:
324,316,98633,2,0,L|260:320,2,65,8|8|8,3:0|3:0|3:0,0:0:0:0:
384,248,99276,1,8,0:0:0:0:
384,248,99383,1,8,0:0:0:0:
384,248,99490,2,0,P|388:216|384:184,1,65,0|0,1:0|0:0,0:0:0:0:
422,101,99919,6,0,P|364:132|304:112,1,130,12|0,0:0|1:0,0:0:0:0:
132,60,100776,2,0,L|144:128,1,65,0|8,1:0|0:0,0:0:0:0:
232,148,101204,2,0,L|224:212,1,65,0|8,1:0|0:0,0:0:0:0:
184,296,101633,6,0,B|216:292|216:292|280:304|280:304|312:300,1,130,8|0,0:0|1:0,0:0:0:0:
400,280,102276,2,0,P|428:220|416:160,1,130,8|8,0:0|0:0,0:0:0:0:
332,124,102919,2,0,L|344:60,1,65,0|0,1:0|0:0,0:0:0:0:
264,16,103347,5,0,1:0:0:0:
232,100,103561,2,0,P|196:104|168:100,1,65,8|8,0:0|0:0,0:0:0:0:
108,32,103990,2,0,B|92:96|92:96|104:160,1,130,12|8,0:0|0:0,0:0:0:0:
164,228,104633,2,0,L|152:292,1,65,0|0,1:0|0:0,0:0:0:0:
216,356,105061,5,8,0:0:0:0:
303,329,105276,2,0,L|335:337,2,32.5,0|0|8,1:0|1:0|0:0,0:0:0:0:
272,244,105704,2,0,L|256:112,1,130,12|8,0:0|0:0,0:0:0:0:
316,48,106347,2,0,L|316:16,2,32.5,0|8|8,1:0|0:0|0:0,0:0:0:0:
392,96,106776,6,0,P|456:104|504:64,2,130,12|0|0,0:0|1:0|1:0,0:0:0:0:
316,48,107847,1,8,0:0:0:0:
252,112,108061,2,0,L|260:176,1,65,0|8,1:0|0:0,0:0:0:0:
176,216,108490,6,0,L|168:348,1,130,8|0,0:0|1:0,0:0:0:0:
256,368,109133,1,8,0:0:0:0:
336,324,109347,2,0,L|400:332,2,65,0|8|0,1:0|0:0|1:0,0:0:0:0:
277,254,109990,1,8,0:0:0:0:
364,176,110204,6,0,L|368:112,1,65,4|0,1:0|1:0,0:0:0:0:
292,60,110633,1,0,1:0:0:0:
216,112,110847,2,0,P|184:116|152:112,1,65,0|0,1:0|1:0,0:0:0:0:
84,48,111276,5,0,1:0:0:0:
16,112,111490,1,0,1:0:0:0:
72,216,111704,2,0,L|80:280,1,65,4|0,1:2|0:0,0:0:0:0:
160,324,112133,5,8,3:0:0:0:
244,296,112347,1,8,3:0:0:0:
257,205,112561,2,0,L|289:205,2,32.5,8|8|8,3:0|3:0|0:0,0:0:0:0:
189,144,112990,1,8,0:0:0:0:
189,144,113097,1,8,0:0:0:0:
189,144,113204,1,0,1:0:0:0:
160,324,113633,5,4,0:0:0:0:
160,324,120276,5,0,0:0:0:0:
160,324,120383,1,0,0:0:0:0:
160,324,120490,2,0,L|152:260,1,65,0|0,0:0|0:0,0:0:0:0:
220,196,120919,6,0,L|232:132,1,65,0|0,1:0|1:0,0:0:0:0:
316,96,121347,2,0,L|380:92,1,65,0|0,1:0|1:0,0:0:0:0:
376,184,121776,2,0,L|312:188,1,65,0|0,1:0|1:0,0:0:0:0:
312,280,122204,2,0,L|376:276,1,65,0|0,1:0|1:0,0:0:0:0:
460,244,122633,6,0,P|480:212|488:184,1,65,0|0,1:0|1:0,0:0:0:0:
428,120,123061,2,0,L|416:56,1,65,0|0,1:0|1:0,0:0:0:0:
336,16,123490,1,0,1:0:0:0:
252,52,123704,1,8,0:0:0:0:
252,52,123811,1,8,0:0:0:0:
252,52,123919,6,0,L|188:44,2,65,0|8|8,1:0|0:0|0:0,0:0:0:0:
328,104,124561,2,0,P|296:160|316:220,1,130,0|8,1:0|0:0,0:0:0:0:
408,220,125204,2,0,L|400:284,1,65,0|8,1:0|0:0,0:0:0:0:
332,344,125633,5,0,1:0:0:0:
268,280,125847,2,0,L|272:248,2,32.5,8|8|8,0:0|0:0|0:0,0:0:0:0:
192,328,126276,2,0,L|128:336,1,65,4|0,1:2|0:0,0:0:0:0:
44,300,126704,1,8,0:0:0:0:
44,300,126811,1,8,0:0:0:0:
44,300,126919,2,0,P|32:268|32:236,1,65,0|0,1:0|0:0,0:0:0:0:
100,176,127347,5,12,0:0:0:0:
75,88,127561,1,0,0:0:0:0:
152,40,127776,2,0,P|184:32|216:28,1,65,0|0,1:0|0:0,0:0:0:0:
296,72,128204,2,0,L|360:76,2,65,8|8|0,0:0|0:0|1:0,0:0:0:0:
228,136,128847,1,0,0:0:0:0:
228,136,129061,6,0,P|216:200|248:252,2,130,8|0|8,0:0|1:0|0:0,0:0:0:0:
180,60,130133,1,8,0:0:0:0:
104,112,130347,2,0,L|40:108,1,65,0|0,1:0|0:0,0:0:0:0:
4,192,130776,6,0,L|16:328,1,130,8|0,0:0|1:0,0:0:0:0:
104,344,131419,2,0,P|135:339|164:323,1,65,0|8,0:0|0:0,0:0:0:0:
204,244,131847,1,8,0:0:0:0:
292,268,132061,2,0,L|288:332,1,65,0|0,1:0|0:0,0:0:0:0:
196,232,132490,6,0,L|204:100,1,130,8|0,0:0|1:0,0:0:0:0:
256,28,133133,2,0,P|312:68|372:68,1,130,0|8,0:0|0:0,0:0:0:0:
460,48,133776,2,0,P|476:76|484:112,1,65,0|0,1:0|0:0,0:0:0:0:
420,172,134204,5,12,0:0:0:0:
488,232,134419,1,8,0:0:0:0:
464,320,134633,1,0,1:0:0:0:
376,344,134847,2,0,L|244:328,1,130,12|8,0:0|0:0,0:0:0:0:
157,347,135490,1,0,1:0:0:0:
96,280,135704,6,0,P|112:216|112:152,1,130,12|8,0:0|0:0,0:0:0:0:
60,76,136347,1,0,1:0:0:0:
128,136,136561,2,0,P|196:144|224:96,1,130,12|0,0:0|1:0,0:0:0:0:
224,76,137097,1,0,1:0:0:0:
216,52,137204,2,0,L|280:64,1,65,4|8,0:3|0:0,0:0:0:0:
388,136,137633,6,0,P|420:128|448:112,2,65,12|8|0,0:0|0:0|1:0,0:0:0:0:
304,168,138276,2,0,P|288:232|312:288,1,130,12|8,0:0|0:0,0:0:0:0:
376,224,138919,1,0,1:0:0:0:
366,133,139133,6,0,L|234:145,1,130,12|8,0:0|0:0,0:0:0:0:
156,100,139776,1,0,1:0:0:0:
88,164,139990,2,0,L|96:228,1,65,0|0,1:0|1:0,0:0:0:0:
152,300,140419,1,8,0:0:0:0:
152,300,140526,1,0,1:0:0:0:
152,300,140633,2,0,P|184:304|220:300,1,65,0|0,1:0|0:0,0:0:0:0:
300,200,141061,6,0,B|292:232|292:232|304:328,1,130,4|0,1:0|1:0,0:0:0:0:
385,368,141704,1,8,0:0:0:0:
460,316,141919,2,0,P|468:284|468:252,1,65,0|8,1:0|0:0,0:0:0:0:
400,192,142347,2,0,L|412:128,1,65,0|8,1:0|0:0,0:0:0:0:
484,68,142776,6,0,P|420:84|376:44,1,130,0|0,1:0|1:0,0:0:0:0:
292,12,143419,1,8,0:0:0:0:
220,68,143633,2,0,L|224:132,1,65,0|8,1:0|0:0,0:0:0:0:
312,160,144061,2,0,L|304:224,1,65,0|8,1:0|0:0,0:0:0:0:
336,308,144490,6,0,L|204:316,1,130,0|0,1:0|1:0,0:0:0:0:
124,356,145133,1,8,0:0:0:0:
68,284,145347,2,0,P|35:279|3:283,2,65,0|8|0,1:0|0:0|1:0,0:0:0:0:
156,256,145990,1,8,0:0:0:0:
200,176,146204,6,0,L|180:48,1,130,0|0,1:0|1:0,0:0:0:0:
268,28,146847,1,8,0:0:0:0:
344,80,147061,2,0,P|408:92|460:60,1,130,0|0,1:0|1:0,0:0:0:0:
476,240,147919,6,0,L|344:228,1,130,4|0,1:2|1:0,0:0:0:0:
304,148,148561,1,8,0:0:0:0:
236,208,148776,2,0,P|232:240|236:272,1,65,0|8,1:0|0:0,0:0:0:0:
176,340,149204,1,0,1:0:0:0:
88,360,149419,1,8,0:0:0:0:
32,288,149633,6,0,L|44:156,1,130,0|0,1:0|1:0,0:0:0:0:
124,112,150276,2,0,L|116:48,2,65,8|0|8,0:0|1:0|0:0,0:0:0:0:
196,168,150919,2,0,P|232:172|264:168,1,65,0|8,1:0|0:0,0:0:0:0:
364,84,151347,5,4,1:2:0:0:
364,84,151561,1,0,1:0:0:0:
408,164,151776,1,0,1:0:0:0:
476,104,151990,2,0,L|464:40,1,65,0|0,1:0|1:0,0:0:0:0:
404,192,152419,2,0,L|396:260,1,65,0|0,1:0|1:0,0:0:0:0:
324,312,152847,1,0,1:0:0:0:
404,352,153061,5,8,1:2:0:0:
296,304,153276,2,0,P|264:312|232:328,1,65,8|8,1:2|1:2,0:0:0:0:
104,264,153704,2,0,P|136:276|168:280,1,65,8|8,1:2|1:2,0:0:0:0:
252,184,154133,1,8,0:0:0:0:
258,165,154240,1,0,1:0:0:0:
264,146,154347,2,0,L|260:108,2,32.5,0|8|8,1:0|0:0|0:0,0:0:0:0:
152,80,154776,5,12,0:0:0:0:
256,192,154883,12,8,162704,0:0:0:0:
