osu file format v13

[General]
AudioFilename: 01. hajimete koi wo shita kioku.mp3
AudioLeadIn: 0
PreviewTime: 62783
Countdown: 0
SampleSet: Normal
StackLeniency: 0.7
Mode: 0
LetterboxInBreaks: 1
WidescreenStoryboard: 1

[Editor]
Bookmarks: 21641,62781,76494,102211,103706,104778,181272
DistanceSpacing: 1
BeatDivisor: 4
GridSize: 4
TimelineZoom: 1.3

[Metadata]
Title:Hajimete Koi Wo Shita Kioku
TitleUnicode:初めて恋をした記憶
Artist:2B PENCILS & Nakagawa Kanon
ArtistUnicode:2B PENCILS & 中川かのん
Creator:Shirayuki
Version:Insane (Original)
Source:神のみぞ知るセカイ
Tags:the world gods only know, Kami nomi zo Shiru Sekai, memory of my first love
BeatmapID:448260
BeatmapSetID:185213

[Difficulty]
HPDrainRate:7
CircleSize:4
OverallDifficulty:6.5
ApproachRate:8
SliderMultiplier:1.7
SliderTickRate:2

[Events]
//Background and Video events
0,0,"hajimete 1.jpg",0,0
//Break Periods
2,90411,92864
2,161983,171104
//Storyboard Layer 0 (Background)
//Storyboard Layer 1 (Fail)
//Storyboard Layer 2 (Pass)
//Storyboard Layer 3 (Foreground)
//Storyboard Sound Samples
//Background Colour Transformations
3,100,163,162,255

[TimingPoints]
7926,428.571428571429,4,1,0,50,1,0
21534,-100,4,2,0,50,0,0
47460,-100,4,1,0,50,0,0
49175,-100,4,2,0,50,0,0
54317,-66.6666666666667,4,1,0,50,0,0
56031,-100,4,2,0,50,0,0
59460,-100,4,1,0,50,0,0
62783,-100,4,2,0,50,0,1
73387,-100,4,1,0,50,0,1
76387,-100,4,2,0,50,0,1
90211,-100,4,2,0,50,0,0
103711,-76.9230769230769,4,2,0,50,0,0
105211,-100,4,2,0,50,0,0
119241,-100,4,1,0,50,0,0
121169,-100,4,2,0,50,0,0
126526,-100,4,1,0,50,0,0
128026,-100,4,2,0,50,0,0
131669,-100,4,1,0,50,0,0
134783,-100,4,2,0,50,0,1
140454,-100,4,1,0,50,0,1
141739,-100,4,2,0,50,0,1
145382,-100,4,1,0,50,0,1
148382,-100,4,2,0,50,0,1
161783,-100,4,1,0,50,0,0
186093,-100,4,2,0,50,0,0
191879,-100,4,1,0,50,0,0
193164,-100,4,2,0,50,0,0
196378,-100,4,1,0,50,0,0
199926,-100,4,2,0,50,0,1
215354,-100,4,1,0,50,0,0

[Colours]
Combo1 : 255,128,192
Combo2 : 255,128,128
Combo3 : 255,128,255
Combo4 : 255,255,128
Combo5 : 255,0,128

[HitObjects]
256,192,4497,12,8,7497,0:0:0:0:
368,304,7926,5,8,0:0:0:0:
32,272,8354,1,8,0:0:0:0:
104,200,8568,1,0,0:0:0:0:
144,296,8783,2,2,B|208:360|304:328,1,170,10|10,0:0|0:0,0:0:0:0:
296,244,9426,1,0,0:0:0:0:
372,204,9640,1,8,0:0:0:0:
456,192,9854,1,0,0:0:0:0:
400,128,10068,5,8,0:0:0:0:
316,112,10283,1,0,0:0:0:0:
248,160,10497,2,10,B|200:240|109:246,1,170,10|10,0:0|0:0,0:0:0:0:
128,96,11354,5,8,0:0:0:0:
208,32,11568,1,0,0:0:0:0:
184,128,11783,1,8,0:0:0:0:
144,32,11997,1,0,0:0:0:0:
232,88,12211,2,2,P|296:144|336:240,1,170,10|10,0:0|0:0,0:0:0:0:
152,320,13068,5,8,0:0:0:0:
232,288,13283,1,0,0:0:0:0:
296,224,13497,1,8,0:0:0:0:
376,112,13926,2,10,P|400:72|448:48,2,85,10|2|10,0:0|0:0|0:0,0:0:0:0:
336,168,14568,1,0,0:0:0:0:
336,232,14783,6,10,P|340:276|336:332,2,85,10|2|10,0:0|0:0|0:0,0:0:0:0:
336,168,15426,1,0,0:0:0:0:
284,128,15640,2,10,P|248:96|188:64,2,85,10|10|10,0:0|0:0|0:0,0:0:0:0:
408,240,16497,2,2,B|400:280|368:320|320:336|281:329,1,170,10|10,0:0|0:0,0:0:0:0:
196,324,17140,1,0,0:0:0:0:
124,280,17354,1,8,0:0:0:0:
84,204,17568,1,0,0:0:0:0:
88,120,17783,1,8,0:0:0:0:
244,176,18211,6,2,P|212:144|156:120,2,85,10|0|10,0:0|0:0|0:0,0:0:0:0:
276,256,18854,2,2,L|260:316,2,42.5,10|2|10,0:0|0:0|0:0,0:0:0:0:
332,192,19283,2,2,P|360:160|416:144,1,85,2|10,0:0|0:0,0:0:0:0:
256,192,19711,12,8,21211,0:0:0:0:
240,88,21640,5,4,0:0:0:0:
240,88,22068,1,8,0:0:0:0:
344,96,22283,2,0,B|336:144|312:176|272:192|224:192,1,170,10|0,0:0|0:0,0:0:0:0:
140,196,22926,1,8,0:0:0:0:
80,256,23140,1,0,0:0:0:0:
136,320,23354,5,8,0:0:0:0:
220,340,23568,2,0,B|260:344|312:332|352:264|340:228,2,170,2|0|0,0:0|0:0|0:0,0:0:0:0:
240,240,24640,2,0,P|256:184|296:160,1,85,8|8,0:0|0:0,0:0:0:0:
344,116,25068,5,4,0:0:0:0:
172,108,25497,2,0,P|84:116|20:188,1,170,2|0,0:0|0:0,0:0:0:0:
32,320,26354,1,8,0:0:0:0:
112,288,26568,1,0,0:0:0:0:
168,224,26783,5,2,0:0:0:0:
232,128,26997,1,0,0:0:0:0:
232,248,27211,1,8,0:0:0:0:
168,144,27426,2,0,P|168:104|208:72,1,85,2|0,0:0|0:0,0:0:0:0:
280,48,27854,1,0,0:0:0:0:
364,60,28068,1,8,0:0:0:0:
408,132,28283,2,0,B|456:218|381:304,1,170,2|0,0:0|0:0,0:0:0:0:
312,336,28926,2,0,P|265:351|224:344,1,85,8|0,0:0|0:0,0:0:0:0:
144,328,29354,5,8,0:0:0:0:
104,232,29568,1,8,0:0:0:0:
216,256,29783,1,0,0:0:0:0:
152,184,29997,2,2,B|152:120|176:104|96:120|56:32|144:-24|178:2|232:32|192:80,1,255,2|8,0:0|0:0,0:0:0:0:
244,120,30854,5,0,0:0:0:0:
328,112,31068,1,8,0:0:0:0:
284,40,31283,2,0,P|244:20|184:28,1,85,2|8,0:0|0:0,0:0:0:0:
172,100,31711,2,0,P|134:124|111:180,1,85,2|8,0:0|0:0,0:0:0:0:
188,204,32140,2,0,P|190:248|227:296,1,85,2|8,0:0|0:0,0:0:0:0:
292,256,32568,1,0,0:0:0:0:
352,196,32783,1,8,0:0:0:0:
328,116,32997,2,0,P|280:116|240:136,1,85,10|8,0:0|0:0,0:0:0:0:
160,140,33426,1,0,0:0:0:0:
204,68,33640,6,0,P|244:48|304:40,1,85,8|2,0:0|0:0,0:0:0:0:
368,40,34068,1,8,0:0:0:0:
444,80,34283,1,0,0:0:0:0:
472,160,34497,2,0,P|480:212|464:252,1,85,8|2,0:0|0:0,0:0:0:0:
400,284,34926,2,0,P|449:264|475:231,1,85,8|2,0:0|0:0,0:0:0:0:
472,160,35354,1,4,0:0:0:0:
308,120,35783,5,8,0:0:0:0:
228,112,35997,1,0,0:0:0:0:
156,160,36211,1,8,0:0:0:0:
164,244,36426,2,0,B|208:232|260:196|236:124|216:92,1,170,2|0,0:0|0:0,0:0:0:0:
160,56,37068,1,8,0:0:0:0:
76,76,37283,1,0,0:0:0:0:
32,148,37497,1,8,0:0:0:0:
32,232,37711,2,0,B|20:235|16:280|20:328|80:348|140:348,1,170,2|0,0:0|0:0,0:0:0:0:
200,332,38354,1,8,0:0:0:0:
248,264,38568,1,0,0:0:0:0:
212,188,38783,5,4,0:0:0:0:
44,180,39211,2,0,B|120:136|-4:132|12:24|100:-12|184:64,1,255,2|0,0:0|0:0,0:0:0:0:
228,84,40068,1,8,0:0:0:0:
368,100,40497,5,8,0:0:0:0:
416,168,40711,1,0,0:0:0:0:
392,252,40926,1,8,0:0:0:0:
312,276,41140,1,0,0:0:0:0:
236,240,41354,1,8,0:0:0:0:
220,156,41568,1,8,0:0:0:0:
284,100,41783,1,8,0:0:0:0:
220,48,41997,2,0,P|176:40|120:48,1,85,0|8,0:0|0:0,0:0:0:0:
124,128,42426,2,0,P|81:143|37:178,1,85,0|8,0:0|0:0,0:0:0:0:
204,324,43068,6,2,B|126:293|126:293|108:172,1,170,10|8,0:0|0:0,0:0:0:0:
124,128,43711,2,2,B|204:96|204:96|284:128|284:128|364:96|364:96|444:128,1,340,2|0,0:0|0:0,0:0:0:0:
464,208,44783,2,2,B|496:288|496:288|384:272,1,170,10|8,0:0|0:0,0:0:0:0:
332,252,45426,2,2,B|252:220|252:220|172:252|172:252|92:220|92:220|16:251,1,340,2|0,0:0|0:0,0:0:0:0:
172,320,46711,1,0,0:0:0:0:
256,336,46926,1,8,0:0:0:0:
336,312,47140,1,0,0:0:0:0:
468,208,47568,5,2,0:0:0:0:
396,252,47783,1,8,0:0:0:0:
312,252,47997,1,2,0:0:0:0:
232,228,48211,1,8,0:0:0:0:
180,160,48426,1,2,0:0:0:0:
232,92,48640,1,8,0:0:0:0:
312,116,48854,1,8,0:0:0:0:
368,176,49068,5,4,0:0:0:0:
248,160,49283,1,0,0:0:0:0:
288,48,49497,1,8,0:0:0:0:
400,84,49711,1,0,0:0:0:0:
456,184,49926,2,2,B|472:248|448:296|380:320|336:312,1,170,10|8,0:0|0:0,0:0:0:0:
292,316,50568,1,0,0:0:0:0:
208,308,50783,1,8,0:0:0:0:
132,272,50997,1,0,0:0:0:0:
68,216,51211,1,8,0:0:0:0:
68,216,51426,2,2,B|98:254|114:214|130:174|186:150|186:214|194:286|242:286|250:214|250:150|306:174|322:214|338:254|370:214,1,340,2|0,0:0|0:0,0:0:0:0:
432,156,52497,1,4,0:0:0:0:
332,292,52926,5,0,0:0:0:0:
260,336,53140,1,8,0:0:0:0:
176,328,53354,1,8,0:0:0:0:
100,288,53568,1,0,0:0:0:0:
64,212,53783,1,8,0:0:0:0:
92,132,53997,1,0,0:0:0:0:
353,160,54426,5,0,0:0:0:0:
195,275,54640,1,0,0:0:0:0:
255,88,54854,1,0,0:0:0:0:
316,275,55068,1,0,0:0:0:0:
158,160,55283,1,0,0:0:0:0:
353,160,55497,1,0,0:0:0:0:
195,275,55711,1,0,0:0:0:0:
255,88,55926,1,0,0:0:0:0:
360,224,56354,5,8,0:0:0:0:
276,220,56568,1,0,0:0:0:0:
224,152,56783,1,8,0:0:0:0:
156,204,56997,1,0,0:0:0:0:
116,280,57211,1,8,0:0:0:0:
172,344,57426,2,2,B|276:360|344:304,1,170,2|0,0:0|0:0,0:0:0:0:
408,268,58068,1,8,0:0:0:0:
464,204,58283,1,0,0:0:0:0:
408,44,58711,6,0,P|380:76|367:116,1,85
336,196,59140,2,2,B|239:235|200:183|242:132|308:144|311:208|216:239,1,255,2|8,0:0|0:0,0:0:0:0:
120,232,59997,5,8,0:0:0:0:
72,160,60211,1,8,0:0:0:0:
112,88,60426,1,8,0:0:0:0:
184,48,60640,1,8,0:0:0:0:
272,40,60854,1,8,0:0:0:0:
352,80,61068,1,8,0:0:0:0:
392,152,61283,1,8,0:0:0:0:
376,232,61497,1,8,0:0:0:0:
296,264,61711,1,8,0:0:0:0:
216,240,61926,1,8,0:0:0:0:
176,168,62140,1,8,0:0:0:0:
232,104,62354,1,8,0:0:0:0:
304,152,62568,1,8,0:0:0:0:
288,232,62783,5,8,0:0:0:0:
240,304,62997,1,2,0:0:0:0:
160,288,63211,1,8,0:0:0:0:
104,224,63426,1,2,0:0:0:0:
88,144,63640,2,2,P|102:103|140:83,1,85,10|2,0:0|0:0,0:0:0:0:
224,72,64068,1,8,0:0:0:0:
312,120,64283,2,10,B|272:208|352:208|312:304,1,170,2|2,0:0|0:0,0:0:0:0:
192,240,64926,2,2,P|313:207|435:239,1,255,10|2,0:0|0:0,0:0:0:0:
360,312,65783,1,8,0:0:0:0:
264,344,65997,5,2,0:0:0:0:
160,336,66211,2,2,B|112:320|80:280|72:240|88:200,1,170,10|10,0:0|0:0,0:0:0:0:
184,168,66854,2,2,P|216:195|256:208,1,85,2|10,0:0|0:0,0:0:0:0:
344,144,67283,2,2,P|312:116|272:104,1,85,2|10,0:0|0:0,0:0:0:0:
264,208,67711,2,2,B|240:256|248:312|288:336|320:352,1,170
416,320,68354,5,8,0:0:0:0:
472,232,68568,1,2,0:0:0:0:
424,144,68783,1,8,0:0:0:0:
488,64,68997,2,2,B|440:16|360:40|320:80|320:128|320:128|248:128,1,255,2|10,0:0|0:0,0:0:0:0:
72,112,70068,5,8,0:0:0:0:
152,176,70283,1,2,0:0:0:0:
256,192,70497,1,8,0:0:0:0:
440,112,70926,5,8,0:0:0:0:
360,176,71141,1,2,0:0:0:0:
256,192,71355,1,8,0:0:0:0:
256,360,71783,5,8,0:0:0:0:
172,228,71997,1,8,0:0:0:0:
340,228,72211,1,2,0:0:0:0:
256,80,72640,5,8,0:0:0:0:
312,168,72854,1,8,0:0:0:0:
200,168,73068,1,2,0:0:0:0:
352,240,73497,5,8,0:0:0:0:
288,288,73711,1,2,0:0:0:0:
208,320,73926,1,8,0:0:0:0:
64,232,74354,1,8,0:0:0:0:
64,144,74568,1,2,0:0:0:0:
120,80,74783,2,2,B|144:64|208:48|256:80|272:120,1,170,10|10,0:0|0:0,0:0:0:0:
184,168,75426,1,8,0:0:0:0:
128,256,75640,2,2,B|152:272|216:288|264:256|280:216,1,170,10|10,0:0|0:0,0:0:0:0:
312,128,76283,1,8,0:0:0:0:
376,48,76497,5,8,0:0:0:0:
464,104,76711,1,2,0:0:0:0:
464,208,76926,2,2,P|464:264|424:296,1,85,10|2,0:0|0:0,0:0:0:0:
360,328,77354,1,8,0:0:0:0:
264,352,77568,2,2,P|218:345|180:329,1,85,10|2,0:0|0:0,0:0:0:0:
104,272,77997,2,2,P|104:184|72:96,1,170,2|2,0:0|0:0,0:0:0:0:
128,16,78640,2,2,B|216:24|216:24|256:72|304:80|352:64|392:56,1,255,10|2,0:0|0:0,0:0:0:0:
464,24,79497,1,8,0:0:0:0:
416,112,79711,5,2,0:0:0:0:
328,168,79926,2,2,B|296:208|239:212|174:178|160:128,1,170,10|10,0:0|0:0,0:0:0:0:
144,64,80568,1,2,0:0:0:0:
104,160,80783,1,8,0:0:0:0:
144,256,80997,1,2,0:0:0:0:
224,320,81211,1,8,0:0:0:0:
328,328,81426,2,2,P|360:296|400:272,1,85,2|10,0:0|0:0,0:0:0:0:
472,136,82068,5,8,0:0:0:0:
400,64,82283,1,2,0:0:0:0:
376,160,82497,1,8,0:0:0:0:
286,112,82712,1,2,0:0:0:0:
288,216,82926,1,8,0:0:0:0:
188,196,83141,1,2,0:0:0:0:
192,296,83354,6,2,B|88:288|88:176,1,170,10|10,0:0|0:0,0:0:0:0:
104,80,83997,1,2,0:0:0:0:
192,32,84211,2,2,P|240:24|272:64,1,85,10|10,0:0|0:0,0:0:0:0:
192,128,84640,1,8,0:0:0:0:
320,128,84854,5,2,0:0:0:0:
320,256,85068,1,2,0:0:0:0:
192,256,85283,1,2,0:0:0:0:
192,128,85497,1,2,0:0:0:0:
277,150,85711,5,2,0:0:0:0:
297,213,85926,1,2,0:0:0:0:
234,233,86140,1,2,0:0:0:0:
214,170,86354,1,2,0:0:0:0:
256,192,86568,12,4,90211,0:0:0:0:
72,88,94068,5,8,0:0:0:0:
64,184,94283,1,0,0:0:0:0:
120,264,94497,2,0,P|152:296|224:312,1,85,8|0,0:0|0:0,0:0:0:0:
288,336,94926,1,8,0:0:0:0:
384,304,95140,2,0,P|432:272|448:224,1,85,0|8,0:0|0:0,0:0:0:0:
464,148,95568,1,0,0:0:0:0:
400,68,95783,1,8,0:0:0:0:
300,44,95997,2,0,P|252:40|216:80,1,85,0|8,0:0|0:0,0:0:0:0:
160,140,96426,1,0,0:0:0:0:
240,204,96640,1,8,0:0:0:0:
340,196,96854,2,0,P|360:160|336:104,1,85,0|8,0:0|0:0,0:0:0:0:
480,276,97497,6,2,P|424:332|326:349,1,170,10|10,0:0|0:0,0:0:0:0:
240,320,98140,2,0,P|244:264|280:232,1,85,0|8,0:0|0:0,0:0:0:0:
356,208,98568,5,0,0:0:0:0:
340,308,98783,1,8,0:0:0:0:
260,244,98997,1,0,0:0:0:0:
232,144,99211,1,8,0:0:0:0:
308,76,99426,1,0,0:0:0:0:
408,84,99640,1,8,0:0:0:0:
468,164,99854,1,8,0:0:0:0:
384,220,100068,1,8,0:0:0:0:
288,256,100283,2,2,B|140:163|212:259|284:355|134:260,1,255,2|10,0:0|0:0,0:0:0:0:
76,64,101354,5,8,0:0:0:0:
136,148,101568,1,0,0:0:0:0:
236,172,101783,1,8,0:0:0:0:
336,160,101997,2,2,P|244:75|102:18,1,255,2|10,0:0|0:0,0:0:0:0:
100,224,103068,1,8,0:0:0:0:
128,124,103283,1,0,0:0:0:0:
208,60,103497,1,8,0:0:0:0:
308,120,103711,2,2,B|356:136|388:232|348:288|236:360|164:272|132:216|164:144|220:112|220:112|268:216,1,552.5,2|10,0:0|0:0,0:0:0:0:
256,190,105426,1,0,0:0:0:0:
256,88,105640,5,8,0:0:0:0:
352,120,105854,1,0,0:0:0:0:
408,204,106068,2,0,L|492:268,1,85,0|8,0:0|0:0,0:0:0:0:
392,316,106497,1,8,0:0:0:0:
292,324,106711,1,0,0:0:0:0:
196,284,106926,1,8,0:0:0:0:
128,208,107140,2,0,P|104:176|96:116,1,85,0|4,0:0|0:0,0:0:0:0:
264,168,107783,5,8,0:0:0:0:
384,168,107997,1,8,0:0:0:0:
384,48,108211,1,0,0:0:0:0:
264,52,108426,2,0,L|344:124,1,85,0|8,0:0|0:0,0:0:0:0:
328,228,108854,1,8,0:0:0:0:
208,224,109068,1,0,0:0:0:0:
208,104,109283,2,0,L|147:164,1,85,0|8,0:0|0:0,0:0:0:0:
148,284,109711,1,0,0:0:0:0:
268,288,109926,1,8,0:0:0:0:
264,168,110140,1,0,0:0:0:0:
384,168,110354,1,8,0:0:0:0:
388,288,110568,2,0,L|308:360,1,85,0|4,0:0|0:0,0:0:0:0:
104,340,111211,6,2,P|56:228|104:100,1,255,10|2,0:0|0:0,0:0:0:0:
296,52,112283,1,0,0:0:0:0:
296,172,112497,1,8,0:0:0:0:
416,168,112711,2,0,L|348:108,1,85,0|8,0:0|0:0,0:0:0:0:
232,112,113140,1,8,0:0:0:0:
232,232,113354,1,8,0:0:0:0:
352,236,113568,1,0,0:0:0:0:
252,172,113783,1,8,0:0:0:0:
132,168,113997,1,0,0:0:0:0:
132,288,114211,1,8,0:0:0:0:
244,332,114426,2,8,P|288:344|344:304,1,85
412,148,115068,5,8,0:0:0:0:
336,80,115283,1,0,0:0:0:0:
236,56,115497,1,8,0:0:0:0:
136,80,115711,2,2,B|-5:182|110:151|226:120|82:224,1,255,2|10,0:0|0:0,0:0:0:0:
60,324,116568,1,0,0:0:0:0:
144,268,116783,1,8,0:0:0:0:
232,216,116997,1,0,0:0:0:0:
332,196,117211,1,8,0:0:0:0:
416,140,117426,2,2,B|352:80|256:128|256:128|160:80|96:140,1,340
20,324,118711,5,0,0:0:0:0:
36,224,118926,1,8,0:0:0:0:
116,160,119140,1,0,0:0:0:0:
204,212,119354,5,8,0:0:0:0:
104,236,119568,1,8,0:0:0:0:
48,152,119783,2,2,P|72:112|128:96,1,85,10|10,0:0|0:0,0:0:0:0:
192,152,120211,1,8,0:0:0:0:
104,96,120426,1,8,0:0:0:0:
200,64,120640,2,2,P|240:41|297:55,1,85,10|10,0:0|0:0,0:0:0:0:
364,100,121068,1,4,0:0:0:0:
444,288,121497,5,8,0:0:0:0:
344,284,121711,1,0,0:0:0:0:
244,256,121926,2,2,P|200:248|172:212,1,85,10|2,0:0|0:0,0:0:0:0:
116,136,122354,1,8,0:0:0:0:
168,48,122568,1,0,0:0:0:0:
72,84,122783,1,8,0:0:0:0:
172,108,122997,2,0,P|212:116|260:164,1,85,2|8,0:0|0:0,0:0:0:0:
328,80,123426,2,0,P|358:106|376:172,1,85,2|8,0:0|0:0,0:0:0:0:
476,144,123854,2,0,P|489:182|471:248,1,85,2|8,0:0|0:0,0:0:0:0:
416,300,124283,1,0,0:0:0:0:
320,332,124497,1,4,0:0:0:0:
80,336,124926,5,8,0:0:0:0:
180,312,125140,1,0,0:0:0:0:
264,256,125354,1,8,0:0:0:0:
324,176,125568,1,0,0:0:0:0:
296,76,125783,1,8,0:0:0:0:
204,32,125997,2,0,P|160:16|100:12,1,85,2|8,0:0|0:0,0:0:0:0:
64,192,126640,5,8,0:0:0:0:
80,312,126854,1,8,0:0:0:0:
200,328,127068,1,8,0:0:0:0:
256,224,127283,1,0,0:0:0:0:
312,328,127497,5,8,0:0:0:0:
432,312,127711,1,8,0:0:0:0:
448,192,127926,1,8,0:0:0:0:
208,192,128354,5,8,0:0:0:0:
208,88,128568,1,0,0:0:0:0:
312,88,128783,1,8,0:0:0:0:
312,192,128997,1,0,0:0:0:0:
256,144,129211,5,8,0:0:0:0:
152,144,129426,1,0,0:0:0:0:
152,248,129640,1,8,0:0:0:0:
256,248,129854,1,0,0:0:0:0:
360,248,130068,2,2,P|400:224|424:184,1,85,10|10,0:0|0:0,0:0:0:0:
264,56,130711,5,0,0:0:0:0:
160,72,130926,1,8,0:0:0:0:
104,176,131140,1,8,0:0:0:0:
208,160,131354,1,8,0:0:0:0:
256,344,131783,5,8,0:0:0:0:
256,344,131997,1,0,0:0:0:0:
312,256,132211,1,8,0:0:0:0:
200,256,132426,1,0,0:0:0:0:
360,176,132640,1,8,0:0:0:0:
144,184,132854,1,0,0:0:0:0:
400,80,133068,1,8,0:0:0:0:
256,24,133283,1,8,0:0:0:0:
224,96,133497,1,8,0:0:0:0:
296,144,133711,1,8,0:0:0:0:
176,184,133926,1,8,0:0:0:0:
344,232,134140,1,8,0:0:0:0:
128,288,134354,1,0,0:0:0:0:
328,312,134783,5,8,0:0:0:0:
416,256,134997,1,2,0:0:0:0:
368,168,135211,1,8,0:0:0:0:
432,88,135426,1,2,0:0:0:0:
328,88,135640,2,2,P|280:88|240:128,1,85,10|2,0:0|0:0,0:0:0:0:
160,160,136068,1,8,0:0:0:0:
136,256,136283,2,2,B|166:294|206:310|254:302|284:270,1,170
392,256,136926,2,2,B|405:206|394:164|359:131|293:120,1,170,10|10,0:0|0:0,0:0:0:0:
128,40,137783,1,8,0:0:0:0:
232,40,137997,5,2,0:0:0:0:
336,56,138211,2,2,P|416:80|456:168,1,170,10|10,0:0|0:0,0:0:0:0:
448,256,138854,2,2,P|424:296|384:312,1,85,2|10,0:0|0:0,0:0:0:0:
360,216,139283,2,2,P|328:184|344:128,1,85,2|10,0:0|0:0,0:0:0:0:
336,56,139711,2,2,P|424:80|464:176,1,170,2|2,0:0|0:0,0:0:0:0:
376,328,140568,5,2,0:0:0:0:
432,240,140783,1,8,0:0:0:0:
392,136,140997,2,2,B|346:144|346:144|319:125|268:116|227:141|201:185|201:185|143:203,1,255,2|10,0:0|0:0,0:0:0:0:
280,328,142068,5,8,0:0:0:0:
360,256,142283,1,2,0:0:0:0:
384,160,142497,1,8,0:0:0:0:
232,56,142926,5,8,0:0:0:0:
152,128,143141,1,2,0:0:0:0:
128,224,143355,1,8,0:0:0:0:
328,264,143783,5,8,0:0:0:0:
296,168,143997,1,2,0:0:0:0:
224,240,144211,1,8,0:0:0:0:
408,328,144640,5,8,0:0:0:0:
376,208,144854,1,2,0:0:0:0:
280,296,145068,1,8,0:0:0:0:
368,112,145497,5,8,0:0:0:0:
280,64,145711,1,8,0:0:0:0:
96,72,146354,5,8,0:0:0:0:
64,168,146568,1,2,0:0:0:0:
113,271,146783,2,2,B|192:224|200:304|275:262,1,170,10|10,0:0|0:0,0:0:0:0:
368,224,147426,1,2,0:0:0:0:
280,176,147640,2,2,B|319:92|375:164|406:77,1,170,10|10,0:0|0:0,0:0:0:0:
312,40,148283,1,8,0:0:0:0:
408,80,148497,5,8,0:0:0:0:
456,168,148711,1,2,0:0:0:0:
472,272,148926,2,2,P|440:320|384:344,1,85,10|2,0:0|0:0,0:0:0:0:
312,336,149354,1,8,0:0:0:0:
240,264,149568,1,2,0:0:0:0:
344,248,149783,1,8,0:0:0:0:
208,336,149997,2,2,B|152:273|120:353|57:282,1,170
24,184,150640,2,2,B|144:136|152:240|270:192,1,255,10|2,0:0|0:0,0:0:0:0:
320,104,151497,1,8,0:0:0:0:
424,96,151711,5,2,0:0:0:0:
464,192,151926,2,2,P|472:264|376:328,1,170,10|10,0:0|0:0,0:0:0:0:
304,336,152568,1,2,0:0:0:0:
208,304,152783,1,8,0:0:0:0:
184,208,152997,1,2,0:0:0:0:
112,280,153211,1,8,0:0:0:0:
8,280,153426,1,4,0:0:0:0:
160,144,153854,5,2,0:0:0:0:
172,133,153961,1,0,0:0:0:0:
184,123,154068,1,8,0:0:0:0:
197,113,154176,1,0,0:0:0:0:
209,103,154283,1,2,0:0:0:0:
222,93,154390,1,0,0:0:0:0:
234,83,154497,1,8,0:0:0:0:
436,48,154926,5,8,0:0:0:0:
424,148,155140,1,2,0:0:0:0:
384,244,155354,2,2,B|292:198|388:158|298:113,1,170,10|10,0:0|0:0,0:0:0:0:
168,52,155997,1,2,0:0:0:0:
92,120,156211,2,2,P|64:160|64:220,1,85,10|2,0:0|0:0,0:0:0:0:
100,288,156640,5,8,0:0:0:0:
188,236,156854,1,2,0:0:0:0:
256,160,157068,1,8,0:0:0:0:
304,72,157283,2,2,L|407:89,1,85,2|10,0:0|0:0,0:0:0:0:
464,152,157711,1,2,0:0:0:0:
448,252,157926,1,8,0:0:0:0:
352,280,158140,1,2,0:0:0:0:
256,240,158354,1,8,0:0:0:0:
256,192,158568,12,4,161783,0:0:0:0:
249,240,171854,6,2,P|223:207|184:192,1,85,0|8,0:0|0:0,0:0:0:0:
160,288,172283,1,0,0:0:0:0:
198,107,172497,2,2,B|232:96|288:112|312:160|320:200,2,170,10|10|10,0:0|0:0|0:0,0:0:0:0:
96,120,173568,1,0,0:0:0:0:
40,208,173783,1,8,0:0:0:0:
96,296,173997,5,0,0:0:0:0:
129,320,174104,1,0,0:0:0:0:
171,325,174211,1,0,0:0:0:0:
272,312,174426,2,2,P|320:312|352:280,1,85,2|10,0:0|0:0,0:0:0:0:
288,208,174854,1,0,0:0:0:0:
224,128,175068,2,2,P|257:103|298:105,1,85,2|10,0:0|0:0,0:0:0:0:
400,120,175497,1,8,0:0:0:0:
440,216,175711,5,0,0:0:0:0:
428,256,175818,1,0,0:0:0:0:
402,290,175925,1,0,0:0:0:0:
312,328,176140,1,0,0:0:0:0:
208,336,176354,1,8,0:0:0:0:
120,280,176568,1,0,0:0:0:0:
64,192,176783,1,8,0:0:0:0:
100,96,176997,1,8,0:0:0:0:
200,108,177211,5,8,0:0:0:0:
136,188,177426,1,0,0:0:0:0:
152,88,177640,1,8,0:0:0:0:
248,48,177854,1,8,0:0:0:0:
336,96,178068,1,8,0:0:0:0:
412,164,178283,2,2,B|432:184|452:236|431:288|388:312,2,170,2|2|2,0:0|0:0|0:0,0:0:0:0:
312,156,179354,5,8,0:0:0:0:
416,80,179783,5,8,0:0:0:0:
384,240,179997,1,0,0:0:0:0:
384,240,180211,1,8,0:0:0:0:
256,80,180426,1,0,0:0:0:0:
200,240,180640,1,8,0:0:0:0:
200,240,180854,1,0,0:0:0:0:
80,152,181068,1,8,0:0:0:0:
200,288,181283,1,0,0:0:0:0:
208,288,181390,1,0,0:0:0:0:
216,288,181497,1,8,0:0:0:0:
224,288,181604,1,0,0:0:0:0:
232,288,181711,1,0,0:0:0:0:
240,288,181818,1,0,0:0:0:0:
248,288,181926,1,8,0:0:0:0:
200,192,182140,5,0,0:0:0:0:
208,192,182247,1,0,0:0:0:0:
216,192,182354,1,8,0:0:0:0:
224,192,182461,1,0,0:0:0:0:
232,192,182568,1,0,0:0:0:0:
240,192,182676,1,0,0:0:0:0:
248,192,182783,1,8,0:0:0:0:
464,192,183211,5,8,0:0:0:0:
400,112,183426,1,8,0:0:0:0:
376,112,183533,1,0,0:0:0:0:
352,112,183640,1,0,0:0:0:0:
248,112,183854,2,2,P|208:128|176:168,1,85,10|10,0:0|0:0,0:0:0:0:
256,192,184283,12,4,185783,0:0:0:0:
312,192,186211,5,2,0:0:0:0:
256,256,186426,1,0,0:0:0:0:
200,192,186640,1,2,0:0:0:0:
256,128,186854,1,0,0:0:0:0:
312,192,187068,2,0,L|432:192,1,85,2|0,0:0|0:0,0:0:0:0:
400,24,187711,2,0,B|344:48|288:-8|224:32,1,170,2|0,0:0|0:0,0:0:0:0:
200,104,188354,2,0,B|328:56|328:144|464:80,1,255,2|0,0:0|0:0,0:0:0:0:
464,256,189426,5,0,0:0:0:0:
408,320,189640,2,0,B|315:267|419:235|343:176,1,170,2|2,0:0|0:0,0:0:0:0:
280,120,190283,2,0,P|240:88|176:88,1,85,0|2,0:0|0:0,0:0:0:0:
192,168,190711,2,0,P|150:167|119:195,1,85,0|2,0:0|0:0,0:0:0:0:
184,248,191140,2,0,B|255:333|263:243|335:329,1,170,0|0,0:0|0:0,0:0:0:0:
496,280,191997,5,0,0:0:0:0:
464,52,192426,2,2,B|373:91|400:158|465:160|499:106|458:46|370:102,1,255,2|8,0:0|0:0,0:0:0:0:
368,168,193497,6,0,L|280:256,1,85,2|0,0:0|0:0,0:0:0:0:
240,176,193926,2,0,L|320:96,1,85,2|0,0:0|0:0,0:0:0:0:
232,64,194354,2,0,L|152:144,1,85,2|0,0:0|0:0,0:0:0:0:
88,104,194783,2,0,L|160:32,1,85,2|0,0:0|0:0,0:0:0:0:
172,124,195211,2,0,L|84:212,1,85,2|0,0:0|0:0,0:0:0:0:
176,240,195640,2,0,L|256:160,1,85,2|0,0:0|0:0,0:0:0:0:
264,264,196068,2,0,L|328:328,1,85,2|0,0:0|0:0,0:0:0:0:
324,324,196497,5,8,0:0:0:0:
408,264,196711,1,0,0:0:0:0:
312,224,196926,1,8,0:0:0:0:
384,296,197140,1,0,0:0:0:0:
424,200,197354,1,8,0:0:0:0:
424,96,197568,1,0,0:0:0:0:
344,32,197783,1,8,0:0:0:0:
240,40,197997,1,8,0:0:0:0:
152,88,198211,6,0,L|80:240,1,127.5,8|0,0:0|0:0,0:0:0:0:
80,352,198854,2,0,L|232:232,1,170,0|0,0:0|0:0,0:0:0:0:
232,232,199390,1,0,0:0:0:0:
256,216,199497,1,8,0:0:0:0:
280,200,199604,1,0,0:0:0:0:
304,184,199711,1,0,0:0:0:0:
392,128,199926,5,10,0:0:0:0:
456,200,200140,2,2,P|456:240|424:280,1,85,2|10,0:0|0:0,0:0:0:0:
352,344,200568,1,2,0:0:0:0:
248,336,200783,1,8,0:0:0:0:
152,304,200997,1,2,0:0:0:0:
72,240,201211,2,2,P|47:204|52:154,1,85,10|2,0:0|0:0,0:0:0:0:
32,64,201640,1,8,0:0:0:0:
224,96,202068,6,2,B|264:88|340:51|340:51|416:88|464:96,1,255,10|2,0:0|0:0,0:0:0:0:
308,232,203140,6,2,L|237:279,2,85,2|10|2,0:0|0:0|0:0,0:0:0:0:
380,160,203783,1,8,0:0:0:0:
352,64,203997,1,2,0:0:0:0:
256,28,204211,1,8,0:0:0:0:
160,60,204426,1,2,0:0:0:0:
132,160,204640,2,2,L|76:264,2,85,10|2|2,0:0|0:0|0:0,0:0:0:0:
216,104,205283,5,2,0:0:0:0:
316,124,205497,1,8,0:0:0:0:
384,200,205711,1,2,0:0:0:0:
368,300,205926,1,8,0:0:0:0:
268,328,206140,5,2,0:0:0:0:
172,292,206354,1,10,0:0:0:0:
120,204,206568,2,2,P|92:168|76:112,2,85,2|10|2,0:0|0:0|0:0,0:0:0:0:
216,240,207211,1,8,0:0:0:0:
316,220,207426,2,2,P|357:212|391:187,1,85,2|10,0:0|0:0,0:0:0:0:
460,112,207854,1,2,0:0:0:0:
384,44,208068,1,8,0:0:0:0:
280,44,208283,1,2,0:0:0:0:
180,44,208497,1,8,0:0:0:0:
240,124,208711,1,2,0:0:0:0:
136,128,208926,1,8,0:0:0:0:
240,124,209140,1,2,0:0:0:0:
328,176,209354,1,8,0:0:0:0:
408,240,209568,2,10,P|436:276|448:324,1,85,10|10,0:0|0:0,0:0:0:0:
344,320,209997,5,2,0:0:0:0:
264,260,210211,1,8,0:0:0:0:
184,196,210426,2,2,B|98:193|142:131|34:131,1,170,2|2,0:0|0:0,0:0:0:0:
104,56,211068,1,8,0:0:0:0:
208,52,211283,2,2,P|259:54|311:85,1,85,2|10,0:0|0:0,0:0:0:0:
380,112,211711,1,2,0:0:0:0:
169,129,212140,5,2,0:0:0:0:
289,90,212354,1,2,0:0:0:0:
363,192,212568,1,2,0:0:0:0:
289,293,212783,1,2,0:0:0:0:
169,254,212997,1,2,0:0:0:0:
256,192,213211,1,2,0:0:0:0:
256,192,213426,12,4,215354,0:0:0:0:
280,304,215783,5,8,0:0:0:0:
196,300,215997,1,0,0:0:0:0:
128,248,216211,1,8,0:0:0:0:
156,80,216640,2,2,P|236:48|348:48,1,170,10|10,0:0|0:0,0:0:0:0:
464,132,217497,5,8,0:0:0:0:
452,216,217711,1,0,0:0:0:0:
392,276,217926,1,8,0:0:0:0:
264,164,218354,2,2,P|182:182|128:246,1,170,10|10,0:0|0:0,0:0:0:0:
300,232,219211,5,8,0:0:0:0:
420,184,219426,1,0,0:0:0:0:
404,312,219640,1,8,0:0:0:0:
236,324,220068,2,2,P|172:268|156:156,1,170,10|10,0:0|0:0,0:0:0:0:
220,32,220926,5,8,0:0:0:0:
304,36,221140,1,0,0:0:0:0:
388,40,221354,1,8,0:0:0:0:
236,116,221783,2,2,P|186:102|127:115,2,85,8|0|8,0:0|0:0|0:0,0:0:0:0:
292,152,222426,5,0,0:0:0:0:
332,100,222640,2,2,P|348:68|404:36,2,85,8|0|8,0:0|0:0|0:0,0:0:0:0:
220,228,223497,2,2,P|180:260|124:268,2,85,8|0|8,0:0|0:0|0:0,0:0:0:0:
340,108,224354,6,2,P|388:44|508:44,1,170,8|8,0:0|0:0,0:0:0:0:
476,200,225211,1,8,0:0:0:0:
424,268,225426,1,0,0:0:0:0:
344,292,225640,5,8,0:0:0:0:
172,192,226068,2,2,P|140:160|108:136,2,85,8|0|8,0:0|0:0|0:0,0:0:0:0:
200,256,226711,2,2,L|192:328,2,42.5,0|0|8,0:0|0:0|0:0,0:0:0:0:
240,204,227140,2,2,P|264:172|309:155,2,85,2|10|2,0:0|0:0|0:0,0:0:0:0:
256,192,227783,12,4,229068,0:0:0:0:
160,168,229497,5,0,0:0:0:0:
152,64,229711,1,8,0:0:0:0:
160,168,229926,1,4,0:0:0:0:
160,168,230354,5,0,0:0:0:0:
264,104,230568,1,8,0:0:0:0:
160,168,230783,1,4,0:0:0:0:
160,168,231211,5,0,0:0:0:0:
288,216,231426,1,8,0:0:0:0:
160,168,231640,1,4,0:0:0:0:
160,168,232068,5,0,0:0:0:0:
200,320,232283,1,8,0:0:0:0:
160,168,232497,1,4,0:0:0:0:
160,168,232926,5,0,0:0:0:0:
208,288,233140,1,8,0:0:0:0:
256,168,233354,1,0,0:0:0:0:
357,247,233568,1,8,0:0:0:0:
336,120,233783,1,0,0:0:0:0:
463,138,233997,1,8,0:0:0:0:
256,192,234211,12,4,239354,0:0:0:0:
