osu file format v14

[General]
AudioFilename: 24K () - (Superfly).mp3
AudioLeadIn: 0
PreviewTime: 69133
Countdown: 0
SampleSet: Soft
StackLeniency: 0.3
Mode: 0
LetterboxInBreaks: 0
WidescreenStoryboard: 0

[Editor]
DistanceSpacing: 1.4
BeatDivisor: 8
GridSize: 4
TimelineZoom: 2.300001

[Metadata]
Title:SUPERFLY
TitleUnicode:날라리
Artist:24K
ArtistUnicode:투포케이
Creator:DeRandom Otaku
Version:LIT
Source:
Tags:Trap Choeun Entertainment K-pop Kpop 코리 기수 정욱 휘 창선 진홍 홍섭 병호 석준 성오 대일 Cory Kisu Jeunguk Hui Changsun Jinhong Hongseob Byungho Seokjun Sungoh Daeil cool c00l Firetruck Neoskylove Akitoshi Corinn
BeatmapID:1181126
BeatmapSetID:558362

[Difficulty]
HPDrainRate:6
CircleSize:4
OverallDifficulty:8.5
ApproachRate:9.3
SliderMultiplier:3.59999990463257
SliderTickRate:2

[Events]
//Background and Video events
0,0,"BG.jpg",0,0
//Break Periods
2,150162,159356
//Storyboard Layer 0 (Background)
//Storyboard Layer 1 (Fail)
//Storyboard Layer 2 (Pass)
//Storyboard Layer 3 (Foreground)
//Storyboard Sound Samples

[TimingPoints]
740,621.761658031088,4,2,1,50,1,0
740,-133.333333333333,4,2,1,50,0,0
9444,-166.666666666667,4,2,1,50,0,0
10066,-100,4,2,1,40,0,0
10377,-100,4,2,1,50,0,0
10688,-111.111111111111,4,2,2,60,0,0
18149,-83.3333333333333,4,2,2,60,0,0
20636,-83.3333333333333,4,2,1,70,0,1
20947,-83.3333333333333,4,2,1,70,0,1
30584,-83.3333333333333,4,2,1,60,0,0
31206,-125,4,2,1,45,0,0
44263,-166.666666666667,4,2,1,45,0,0
45429,-166.666666666667,4,2,1,5,0,0
45506,-125,4,2,1,45,0,0
50480,-111.111111111111,4,2,2,55,0,0
60429,-100,4,2,2,65,0,0
70377,-83.3333333333333,4,2,1,70,0,1
80170,-83.3333333333333,4,2,1,70,0,0
80325,-83.3333333333333,4,2,1,75,0,1
90273,-117.647058823529,4,2,1,40,0,0
100221,-117.647058823529,4,2,1,40,0,0
110170,-117.647058823529,4,2,2,50,0,0
120118,-100,4,2,2,60,0,0
130066,-83.3333333333333,4,2,1,70,0,1
139859,-83.3333333333333,4,2,1,70,0,0
140014,-83.3333333333333,4,2,1,75,0,1
149962,-83.3333333333333,4,2,1,75,0,0
159910,-100,4,2,2,60,0,0
169859,-83.3333333333333,4,2,1,70,0,1
179496,-83.3333333333333,4,2,1,70,0,0
179729,-83.3333333333333,4,2,1,5,0,0
179807,-83.3333333333333,4,2,1,75,0,1
189600,-83.3333333333333,4,2,1,75,0,0

[Colours]
Combo1 : 156,22,83
Combo2 : 0,128,255
Combo3 : 146,255,36
Combo4 : 242,82,13

[HitObjects]
115,92,740,6,0,P|181:85|263:89,1,135.000001573563,6|0,2:3|0:0,0:0:0:0:
344,91,1206,1,2,3:0:0:0:
250,88,1361,2,0,P|258:131|265:167,1,67.5000007867813,10|0,0:0|0:0,0:0:0:0:
276,248,1672,2,0,L|195:259,1,67.5000007867813,2|0,3:0|0:0,0:0:0:0:
115,272,1983,6,0,P|110:235|111:201,1,67.5000007867813,0|2,0:0|3:0,0:0:0:0:
181,141,2294,2,0,P|114:162|47:127,1,135.000001573563,2|10,3:0|0:0,0:0:0:0:
122,68,2760,1,0,0:0:0:0:
181,141,2916,2,0,L|189:170,6,16.8750001966953,2|2|2|2|2|2|2,3:0|3:0|3:0|3:0|3:0|3:0|3:0,3:3:0:0:
202,201,3227,5,0,0:0:0:0:
268,134,3382,1,2,3:0:0:0:
334,200,3537,2,0,P|341:233|336:269,1,67.5000007867813,2|2,3:0|3:0,0:0:0:0:
322,359,3848,1,10,0:0:0:0:
322,359,4004,1,0,0:0:0:0:
337,267,4159,2,0,L|428:272,1,67.5000007867813,2|0,3:0|0:0,0:0:0:0:
483,218,4470,6,0,P|490:185|485:152,1,67.5000007867813,0|2,0:0|3:0,0:0:0:0:
470,58,4781,1,2,3:0:0:0:
392,110,4936,1,0,0:0:0:0:
303,75,5092,1,10,0:0:0:0:
303,75,5170,1,2,3:0:0:0:
303,75,5247,1,2,3:0:0:0:
233,139,5403,2,0,L|241:209,1,67.5000007867813,2|2,3:0|3:0,0:0:0:0:
316,263,5714,6,0,P|251:255|188:287,1,135.000001573563,2|0,3:0|0:0,0:0:0:0:
110,336,6180,1,0,3:0:0:0:
28,288,6335,2,0,P|32:255|43:207,1,67.5000007867813,10|0,0:0|0:0,0:0:0:0:
59,128,6646,2,0,P|92:132|125:139,1,67.5000007867813,2|0,3:0|0:0,0:0:0:0:
216,164,6957,5,0,0:0:0:0:
191,72,7113,1,2,3:0:0:0:
125,139,7268,2,0,P|124:198|125:284,1,135.000001573563,0|10,3:0|0:0,0:0:0:0:
191,341,7734,1,0,0:0:0:0:
246,263,7890,2,0,L|277:267,6,16.8750001966953,2|2|2|2|2|2|2,3:0|3:0|3:0|3:0|3:0|3:0|3:0,3:3:0:0:
311,272,8201,5,0,0:0:0:0:
311,272,8356,1,0,0:0:0:0:
258,346,8512,2,0,L|165:339,1,67.5000007867813,0|2,0:0|3:0,0:0:0:0:
124,273,8822,2,0,L|129:205,1,67.5000007867813,10|0,0:0|0:0,0:0:0:0:
197,139,9133,2,0,L|264:144,1,67.5000007867813,2|0,3:0|0:0,0:0:0:0:
355,156,9444,6,0,P|358:119|355:96,2,53.9999969215394,2|2|2,3:0|3:0|3:0,0:0:0:0:
355,156,10066,2,0,L|392:162,14,22.4999994039536,2|2|2|2|2|2|2|2|2|2|2|2|2|2|2,3:0|3:0|3:0|3:0|3:0|3:0|3:0|3:0|3:0|3:0|3:0|3:0|3:0|3:0|3:0,0:0:0:0:
465,92,10688,6,0,P|486:167|449:245,1,161.999990764618,4|8,2:3|0:0,0:0:0:0:
379,323,11154,1,2,3:0:0:0:
299,159,11309,2,0,P|334:152|380:161,1,80.9999953823091,8|0,0:0|0:0,0:0:0:0:
255,333,11620,2,0,P|220:340|174:331,1,80.9999953823091,4|0,3:0|0:0,0:0:0:0:
70,210,11931,5,8,0:0:0:0:
217,244,12087,1,2,3:0:0:0:
65,290,12242,2,0,B|61:252|61:252|69:210,1,80.9999953823091,8|0,0:0|0:0,0:0:0:0:
168,108,12553,1,8,0:0:0:0:
168,108,12708,1,0,3:0:0:0:
217,244,12864,1,8,0:0:0:0:
69,210,13019,1,2,3:0:0:0:
69,210,13097,1,2,3:0:0:0:
69,210,13175,6,0,B|61:252|61:252|65:290,1,80.9999953823091,4|4,3:0|3:0,0:0:0:0:
217,244,13486,1,8,0:0:0:0:
168,108,13641,1,2,3:0:0:0:
217,244,13796,2,0,P|255:237|297:216,1,80.9999953823091,8|0,0:0|0:0,0:0:0:0:
168,108,14107,2,0,P|130:115|88:136,1,80.9999953823091,8|0,0:0|0:0,0:0:0:0:
310,110,14418,6,0,L|288:29,1,80.9999953823091,4|4,3:0|3:0,0:0:0:0:
293,219,14729,1,8,0:0:0:0:
407,90,14885,1,0,0:0:0:0:
424,246,15040,1,8,0:0:0:0:
310,110,15195,1,0,0:0:0:0:
286,257,15351,2,0,L|197:256,1,80.9999953823091,2|0,3:0|0:0,0:0:0:0:
71,152,15662,5,4,3:0:0:0:
71,152,15817,1,2,3:0:0:0:
236,95,15973,1,8,0:0:0:0:
71,152,16128,1,2,3:0:0:0:
65,181,16205,1,2,3:0:0:0:
62,212,16283,1,8,0:2:0:0:
63,242,16361,1,2,3:0:0:0:
68,272,16438,1,2,3:0:0:0:
256,192,16594,5,8,0:0:0:0:
443,272,16750,1,2,3:0:0:0:
448,242,16827,1,2,3:0:0:0:
449,212,16905,1,8,0:2:0:0:
446,181,16983,1,2,3:0:0:0:
441,152,17061,2,0,P|439:123|442:96,1,40.4999976911546,2|2,3:0|3:0,0:0:0:0:
443,12,17216,1,8,0:0:0:0:
327,142,17372,5,0,0:0:0:0:
443,272,17527,1,8,0:2:0:0:
415,285,17604,1,2,3:0:0:0:
386,293,17682,1,2,3:0:0:0:
356,296,17760,1,2,3:0:0:0:
326,295,17837,1,8,0:0:0:0:
441,152,17993,1,0,0:0:0:0:
222,84,18149,5,8,0:0:0:0:
215,110,18226,1,2,3:0:0:0:
209,136,18304,1,8,0:0:0:0:
203,162,18382,1,2,3:0:0:0:
197,189,18460,5,8,0:0:0:0:
187,150,18537,1,2,3:0:0:0:
177,110,18615,1,8,0:0:0:0:
167,71,18693,1,2,3:0:0:0:
157,32,18771,5,8,0:0:0:0:
150,85,18848,1,2,3:0:0:0:
143,139,18926,1,8,0:0:0:0:
135,192,19004,1,2,3:0:0:0:
128,246,19081,6,0,P|97:242|71:235,1,53.9999969215394,8|2,0:0|3:0,0:0:0:0:
326,295,19237,2,0,P|357:291|383:283,1,53.9999969215394,8|2,0:0|3:0,0:0:0:0:
346,344,20636,6,0,L|231:340,1,107.999993843079,4|0,3:0|0:0,0:0:0:0:
470,192,20947,1,0,0:0:0:0:
483,188,21258,5,8,0:0:0:0:
292,93,21413,1,0,0:0:0:0:
346,344,21569,1,0,0:0:0:0:
364,358,21879,6,0,P|364:308|333:251,1,107.999993843079,0|0,0:0|0:0,0:0:0:0:
66,230,22190,1,4,3:0:0:0:
154,304,22346,2,0,P|202:329|256:330,1,107.999993843079,0|8,0:0|0:0,0:0:0:0:
332,33,22657,1,0,0:0:0:0:
256,120,22813,2,0,P|231:168|231:222,1,107.999993843079,0|0,0:0|0:0,0:0:0:0:
351,14,23123,5,4,3:0:0:0:
154,304,23434,1,0,0:0:0:0:
172,310,23745,5,8,0:0:0:0:
90,113,23900,1,0,0:0:0:0:
67,350,24056,1,4,3:0:0:0:
52,362,24366,6,0,L|62:252,1,107.999993843079,0|0,0:0|0:0,0:0:0:0:
194,72,24677,1,4,3:0:0:0:
256,225,24833,1,0,0:0:0:0:
318,72,24988,1,8,0:0:0:0:
318,72,25066,1,0,3:0:0:0:
318,72,25144,1,0,3:0:0:0:
154,192,25299,2,0,L|169:298,1,107.999993843079,4|0,3:0|0:0,0:0:0:0:
362,207,25610,5,12,3:0:0:0:
154,192,25765,1,2,0:0:0:0:
383,203,25921,1,2,0:0:0:0:
169,298,26076,1,2,0:0:0:0:
318,72,26232,5,10,0:0:0:0:
256,300,26387,1,0,0:0:0:0:
211,67,26543,2,0,B|265:64|265:64|328:73,1,107.999993843079,0|0,0:0|0:0,0:0:0:0:
80,239,26853,6,0,L|87:110,1,107.999993843079,2|2,0:0|0:0,0:0:0:0:
256,300,27164,1,4,3:0:0:0:
50,226,27320,2,0,L|57:97,1,107.999993843079,0|8,0:0|0:0,0:0:0:0:
256,300,27631,1,0,0:0:0:0:
17,211,27786,2,0,L|24:82,1,107.999993843079,2|2,0:0|0:0,0:0:0:0:
262,192,28097,6,0,L|256:299,1,107.999993843079,4|0,3:0|0:0,0:0:0:0:
354,153,28408,1,4,3:0:0:0:
164,338,28563,1,0,0:0:0:0:
370,163,28719,1,8,0:0:0:0:
148,328,28874,1,0,0:0:0:0:
386,173,29030,2,0,L|380:65,1,107.999993843079,4|0,3:0|0:0,0:0:0:0:
346,260,29341,6,0,P|399:267|449:245,1,107.999993843079,2|2,0:0|3:0,0:0:0:0:
256,85,29651,2,0,P|203:78|153:100,1,107.999993843079,0|0,1:0|1:0,0:0:0:0:
46,274,29962,1,4,3:0:0:0:
46,274,30040,1,0,3:0:0:0:
46,274,30118,1,4,3:0:0:0:
216,172,30273,1,0,0:0:0:0:
112,347,30429,1,0,0:0:0:0:
154,99,30584,5,2,0:0:0:0:
154,99,31206,2,0,P|218:84|299:99,1,143.999996185303,8|0,1:0|1:0,0:0:0:0:
389,131,31672,1,0,1:0:0:0:
305,238,31828,6,0,B|288:188|288:188|296:77,1,143.999996185303,4|0,1:3|1:0,0:0:0:0:
389,131,32294,1,0,3:0:0:0:
305,238,32449,2,0,P|272:247|222:247,1,71.9999980926514,8|0,1:0|0:0,0:0:0:0:
133,238,32760,2,0,L|126:324,2,71.9999980926514,0|0|0,0:0|0:0|1:0,0:0:0:0:
195,157,33227,5,0,0:0:0:0:
234,248,33382,2,0,P|267:229|293:199,1,71.9999980926514,0|0,1:0|0:0,0:0:0:0:
195,157,33693,2,0,P|162:176|136:206,1,71.9999980926514,8|0,1:0|1:0,0:0:0:0:
97,293,34004,1,0,1:0:0:0:
97,293,34159,1,0,1:0:0:0:
234,248,34315,6,0,P|302:259|385:290,1,143.999996185303,0|2,1:0|1:3,0:0:0:0:
462,330,34781,1,2,1:3:0:0:
366,212,34936,2,0,L|372:284,1,71.9999980926514,8|0,1:0|1:0,0:0:0:0:
489,240,35247,2,0,L|483:168,1,71.9999980926514,0|0,1:0|0:0,0:0:0:0:
482,67,35558,6,0,B|375:79|375:79|338:97,1,143.999996185303,0|0,1:0|1:0,0:0:0:0:
261,155,36024,1,0,0:0:0:0:
161,171,36180,2,0,P|151:131|147:91,1,71.9999980926514,8|0,1:0|1:0,0:0:0:0:
261,155,36491,2,0,P|256:190|247:225,1,71.9999980926514,0|0,1:0|1:0,0:0:0:0:
165,285,36802,6,0,B|238:277|238:277|320:300,1,143.999996185303,4|0,1:3|1:0,0:0:0:0:
401,323,37268,1,4,3:0:0:0:
492,282,37423,2,0,B|500:206|500:206|481:141,1,143.999996185303,8|4,1:0|3:0,0:0:0:0:
445,47,37889,1,4,3:0:0:0:
380,165,38045,6,0,P|341:171|298:169,1,71.9999980926514,4|2,3:0|0:0,0:0:0:0:
226,111,38356,2,0,P|191:111|155:117,1,71.9999980926514,0|0,1:0|0:0,0:0:0:0:
84,199,38667,1,8,1:0:0:0:
190,222,38822,1,0,1:0:0:0:
156,117,38978,1,0,1:0:0:0:
84,199,39133,1,0,1:0:0:0:
159,93,39289,6,0,B|205:82|205:82|304:94,1,143.999996185303,4|0,1:3|1:0,0:0:0:0:
397,124,39755,1,0,1:0:0:0:
304,164,39910,2,0,P|298:117|303:82,1,71.9999980926514,0|0,0:0|1:0,0:0:0:0:
397,124,40221,2,0,P|403:171|398:206,1,71.9999980926514,0|0,1:0|1:0,0:0:0:0:
400,195,40843,6,0,P|396:232|399:275,1,71.9999980926514,0|0,0:0|0:0,0:0:0:0:
398,267,41465,1,2,0:0:0:0:
492,238,41620,1,2,0:0:0:0:
304,292,41776,6,0,P|268:283|233:265,1,71.9999980926514,6|2,2:3|0:0,0:0:0:0:
375,169,42087,2,0,P|340:178|308:194,1,71.9999980926514,0|4,1:0|3:0,0:0:0:0:
492,238,42398,2,0,P|502:203|504:167,1,71.9999980926514,0|2,1:0|0:0,0:0:0:0:
387,99,42708,2,0,P|376:133|374:169,1,71.9999980926514,6|2,2:3|0:0,0:0:0:0:
373,315,43019,5,4,3:0:0:0:
373,315,43175,1,2,0:0:0:0:
492,238,43330,1,0,1:0:0:0:
492,238,43486,1,2,0:0:0:0:
374,169,43641,2,0,L|295:179,1,71.9999980926514,8|2,1:0|1:2,0:0:0:0:
301,324,43952,2,0,L|380:314,1,71.9999980926514,0|2,1:0|0:0,0:0:0:0:
244,254,44263,6,0,L|172:264,1,53.9999969215394,0|0,0:0|0:0,0:0:0:0:
250,170,44574,2,0,L|322:180,1,53.9999969215394,0|0,0:0|0:0,0:0:0:0:
239,288,44885,2,0,L|167:298,1,53.9999969215394,0|0,0:0|0:0,0:0:0:0:
261,140,45196,2,0,L|355:156,1,80.9999953823091
374,158,45506,6,0,P|382:120|382:86,1,71.9999980926514,2|2,0:0|0:0,0:0:0:0:
240,67,45817,2,0,P|232:102|231:138,1,71.9999980926514,2|2,0:0|0:0,0:0:0:0:
277,265,46128,1,8,1:0:0:0:
277,265,46284,1,0,1:0:0:0:
374,158,46439,1,0,1:0:0:0:
231,138,46594,1,2,0:0:0:0:
422,223,46750,6,0,P|452:180|425:94,1,143.999996185303,4|0,3:0|0:0,0:0:0:0:
231,138,47216,1,4,3:0:0:0:
470,288,47372,2,0,P|500:245|473:159,1,143.999996185303,8|4,0:0|3:0,0:0:0:0:
279,203,47838,1,0,0:0:0:0:
428,97,47993,6,0,L|413:9,1,71.9999980926514,4|0,0:0|0:0,0:0:0:0:
355,151,48304,2,0,L|340:63,1,71.9999980926514,4|0,0:0|0:0,0:0:0:0:
279,203,48615,2,0,L|264:115,1,71.9999980926514,4|0,0:0|0:0,0:0:0:0:
244,28,48926,1,2,0:0:0:0:
244,28,49081,1,2,0:0:0:0:
137,200,49237,6,0,P|198:191|291:209,1,143.999996185303,0|0,1:0|1:0,0:0:0:0:
379,218,49703,1,0,0:0:0:0:
270,276,49859,2,0,L|281:185,1,71.9999980926514,0|0,0:0|1:0,0:0:0:0:
294,104,50170,1,0,1:0:0:0:
294,104,50325,1,0,1:0:0:0:
321,339,50480,6,0,P|276:357|191:293,1,161.999990764618,8|8,0:0|0:0,0:0:0:0:
242,41,51102,2,0,P|287:23|372:87,1,161.999990764618,8|8,0:0|0:0,0:0:0:0:
115,241,51724,6,0,B|115:162|115:162|143:78,1,161.999990764618,8|8,0:0|0:0,0:0:0:0:
396,241,52346,2,0,B|423:162|423:162|423:83,1,161.999990764618,8|8,0:0|0:0,0:0:0:0:
331,309,52967,6,0,P|359:328|408:335,1,80.9999953823091,8|0,0:0|0:0,0:0:0:0:
396,241,53278,1,8,0:0:0:0:
331,309,53434,1,0,0:0:0:0:
283,228,53589,2,0,P|280:184|284:141,1,80.9999953823091,8|0,0:0|0:0,0:0:0:0:
290,34,53900,1,8,0:0:0:0:
371,137,54056,1,0,0:0:0:0:
196,128,54211,5,8,0:0:0:0:
290,34,54366,1,0,0:0:0:0:
283,228,54522,2,0,P|247:238|191:243,1,80.9999953823091,8|0,0:0|0:0,0:0:0:0:
371,137,54833,2,0,P|411:141|450:151,1,80.9999953823091,8|0,0:0|0:0,0:0:0:0:
299,306,55144,2,0,B|283:272|283:272|283:228,1,80.9999953823091,8|0,0:0|0:0,0:0:0:0:
283,67,55455,5,12,0:0:0:0:
371,137,55610,1,0,0:0:0:0:
283,47,55765,1,8,0:0:0:0:
195,137,55920,1,0,0:0:0:0:
283,27,56076,2,0,L|370:37,1,80.9999953823091,8|0,0:0|0:0,0:0:0:0:
195,137,56387,2,0,L|108:147,1,80.9999953823091,8|0,0:0|0:0,0:0:0:0:
261,185,56698,6,0,P|275:149|269:104,1,80.9999953823091,8|0,0:0|0:0,0:0:0:0:
47,99,57009,2,0,P|33:135|39:180,1,80.9999953823091,8|0,0:0|0:0,0:0:0:0:
93,308,57320,2,0,B|173:306|173:306|181:313|181:313|261:310,1,161.999990764618,8|8,0:0|0:0,0:0:0:0:
384,305,57786,1,0,0:0:0:0:
254,230,57942,6,0,L|253:319,1,80.9999953823091,8|0,0:0|0:0,0:0:0:0:
384,305,58252,1,8,0:0:0:0:
324,369,58408,1,0,0:0:0:0:
254,230,58563,2,0,P|213:233|171:241,1,80.9999953823091,8|0,0:0|0:0,0:0:0:0:
384,305,58874,2,0,P|425:302|467:294,1,80.9999953823091,8|0,0:0|0:0,0:0:0:0:
402,157,59185,5,8,0:0:0:0:
384,305,59341,1,2,3:0:0:0:
254,230,59496,1,8,0:0:0:0:
272,82,59651,1,2,3:0:0:0:
254,230,59807,6,0,L|256:265,6,20.2499988455773,2|2|2|2|2|2|2,3:0|3:0|3:0|3:0|3:0|3:0|3:0,0:0:0:0:
183,260,60118,2,0,L|185:295,6,20.2499988455773,0|2|2|2|2|2|2,3:0|3:0|3:0|3:0|3:0|3:0|3:0,0:0:0:0:
112,290,60429,6,0,B|108:160|108:160|143:205,1,179.999995231628,4|8,2:3|0:0,0:0:0:0:
256,354,60895,1,2,3:0:0:0:
256,107,61050,2,0,L|256:17,1,89.9999976158142,8|0,0:0|0:0,0:0:0:0:
256,264,61361,2,0,L|256:354,1,89.9999976158142,4|0,3:0|0:0,0:0:0:0:
393,117,61672,5,8,0:0:0:0:
393,298,61828,1,2,3:0:0:0:
464,81,61983,2,0,P|432:46|385:37,1,89.9999976158142,8|0,0:0|0:0,0:0:0:0:
256,264,62294,1,8,0:0:0:0:
393,117,62449,1,0,3:0:0:0:
393,298,62605,1,8,0:0:0:0:
256,83,62760,1,2,3:0:0:0:
256,83,62838,1,2,3:0:0:0:
256,83,62916,5,4,3:0:0:0:
256,264,63071,1,4,3:0:0:0:
393,117,63227,2,0,P|431:123|483:153,1,89.9999976158142,8|2,0:0|3:0,0:0:0:0:
256,264,63537,2,0,P|218:258|166:228,1,89.9999976158142,8|0,0:0|0:0,0:0:0:0:
398,226,63848,1,8,0:0:0:0:
161,201,64004,1,0,0:0:0:0:
397,137,64159,6,0,B|405:183|405:183|396:237,1,89.9999976158142,4|2,3:0|3:0,0:0:0:0:
161,201,64470,2,0,B|153:155|153:155|162:101,1,89.9999976158142,8|0,0:0|0:0,0:0:0:0:
383,101,64781,1,8,0:0:0:0:
172,234,64936,1,2,3:0:0:0:
425,308,65092,1,8,0:0:0:0:
439,313,65403,5,4,3:0:0:0:
331,178,65558,1,2,3:0:0:0:
301,335,65714,1,8,0:0:0:0:
411,178,65869,1,2,3:0:0:0:
404,145,65946,1,2,3:0:0:0:
384,117,66024,1,8,0:0:0:0:
355,101,66102,1,2,3:0:0:0:
322,97,66179,1,2,3:0:0:0:
172,234,66335,5,8,0:0:0:0:
322,371,66491,1,2,3:0:0:0:
355,367,66568,1,2,3:0:0:0:
384,351,66646,1,8,0:0:0:0:
404,323,66724,1,2,3:0:0:0:
411,290,66802,2,0,P|408:260|403:231,1,44.9999988079071,2|2,3:0|3:0,0:0:0:0:
384,117,66957,1,8,0:0:0:0:
172,234,67113,5,0,0:0:0:0:
384,117,67268,1,8,0:2:0:0:
368,87,67345,1,2,3:0:0:0:
343,64,67423,1,2,3:0:0:0:
312,52,67501,1,2,3:0:0:0:
278,51,67578,1,8,0:0:0:0:
342,262,67734,1,0,0:0:0:0:
65,208,67890,5,8,0:0:0:0:
62,230,67967,1,2,3:0:0:0:
64,252,68045,1,8,0:0:0:0:
69,274,68123,1,2,3:0:0:0:
79,294,68201,5,8,0:0:0:0:
111,284,68278,1,2,3:0:0:0:
144,278,68356,1,8,0:0:0:0:
178,277,68434,1,2,3:0:0:0:
211,283,68511,5,8,0:0:0:0:
244,287,68589,1,2,3:0:0:0:
278,283,68667,1,8,0:0:0:0:
310,274,68745,1,2,3:0:0:0:
342,262,68822,6,0,L|333:187,1,44.9999988079071,8|2,0:0|3:0,0:0:0:0:
203,76,68978,2,0,L|197:120,1,44.9999988079071,8|2,0:0|3:0,0:0:0:0:
197,120,70377,6,0,P|140:120|84:87,1,107.999993843079,4|0,3:0|0:0,0:0:0:0:
378,39,70688,1,0,0:0:0:0:
396,32,70999,5,8,0:0:0:0:
197,120,71154,1,0,0:0:0:0:
427,247,71309,1,0,0:0:0:0:
455,258,71620,6,0,L|459:139,1,107.999993843079,0|0,0:0|0:0,0:0:0:0:
338,332,71931,1,4,3:0:0:0:
231,142,72087,2,0,L|227:261,1,107.999993843079,0|8,0:0|0:0,0:0:0:0:
128,56,72398,1,0,0:0:0:0:
24,246,72553,2,0,L|28:127,1,107.999993843079,0|0,0:0|0:0,0:0:0:0:
222,340,72864,5,4,3:0:0:0:
128,56,73175,1,0,0:0:0:0:
122,40,73486,5,8,0:0:0:0:
137,255,73641,1,0,0:0:0:0:
325,150,73796,1,4,3:0:0:0:
345,143,74107,6,0,P|399:135|456:168,1,107.999993843079,0|0,0:0|0:0,0:0:0:0:
256,232,74418,1,4,3:0:0:0:
306,18,74574,1,0,0:0:0:0:
389,230,74729,1,8,0:0:0:0:
389,230,74807,1,0,3:0:0:0:
389,230,74885,1,0,3:0:0:0:
243,66,75040,2,0,L|131:77,1,107.999993843079,4|0,3:0|0:0,0:0:0:0:
210,268,75351,5,12,3:0:0:0:
243,66,75506,1,2,0:0:0:0:
312,345,75662,1,2,0:0:0:0:
345,143,75817,1,2,0:0:0:0:
190,280,75973,5,10,0:0:0:0:
438,343,76128,1,0,0:0:0:0:
345,143,76284,2,0,B|356:88|356:88|386:38,1,107.999993843079,4|2,3:0|0:0,0:0:0:0:
190,280,76594,6,0,P|138:291|82:281,1,107.999993843079,2|2,0:0|0:0,0:0:0:0:
242,72,76905,1,4,3:0:0:0:
296,278,77061,2,0,P|244:289|188:279,1,107.999993843079,0|10,0:0|0:0,0:0:0:0:
348,70,77372,1,2,0:0:0:0:
402,276,77528,2,0,P|350:287|294:277,1,107.999993843079,2|2,0:0|0:0,0:0:0:0:
135,192,77838,5,4,3:0:0:0:
348,154,77993,1,0,0:0:0:0:
135,192,78149,1,4,3:0:0:0:
402,276,78304,1,0,0:0:0:0:
228,98,78460,1,8,0:0:0:0:
204,353,78615,1,0,0:0:0:0:
348,154,78771,2,0,B|348:103|348:103|336:48,1,107.999993843079,4|2,3:0|0:0,0:0:0:0:
123,299,79081,6,0,B|123:248|123:248|135:193,1,107.999993843079,2|2,0:0|0:0,0:0:0:0:
217,21,79392,1,8,0:0:0:0:
234,252,79548,1,8,0:0:0:0:
75,114,79703,1,4,3:0:0:0:
75,114,79781,1,0,3:0:0:0:
75,114,79859,1,12,3:0:0:0:
311,127,80014,1,0,0:0:0:0:
76,241,80170,1,0,0:0:0:0:
344,52,80325,6,0,P|380:84|383:162,1,107.999993843079,4|0,3:0|0:0,0:0:0:0:
363,349,80636,1,0,0:0:0:0:
362,365,80947,5,8,0:0:0:0:
311,127,81102,1,0,0:0:0:0:
260,365,81258,2,0,B|209:365|209:365|149:344,1,107.999993843079,4|2,3:0|3:0,0:0:0:0:
311,127,81569,6,0,B|362:127|362:127|422:148,1,107.999993843079,0|2,0:0|3:0,0:0:0:0:
260,365,81879,1,4,3:0:0:0:
131,127,82035,2,0,B|131:76|131:76|152:16,1,107.999993843079,0|8,0:0|0:0,0:0:0:0:
350,209,82346,1,0,0:0:0:0:
155,346,82501,2,0,B|104:346|104:346|44:325,1,107.999993843079,4|0,3:0|0:0,0:0:0:0:
350,209,82812,6,0,P|351:268|350:324,1,107.999993843079,4|2,3:0|0:0,0:0:0:0:
225,192,83123,1,2,0:0:0:0:
475,192,83278,1,4,3:0:0:0:
351,347,83434,5,10,0:0:0:0:
351,96,83589,1,0,0:0:0:0:
203,295,83745,2,0,B|203:242|203:242|227:188,1,107.999993843079,4|2,3:0|0:0,0:0:0:0:
475,192,84056,6,0,B|497:242|497:242|497:295,1,107.999993843079,2|2,0:0|0:0,0:0:0:0:
351,76,84366,1,4,3:0:0:0:
203,295,84522,2,0,B|150:295|150:295|99:272,1,107.999993843079,0|4,0:0|3:0,0:0:0:0:
190,85,84833,1,2,0:0:0:0:
203,295,84988,1,4,3:0:0:0:
59,141,85144,1,2,0:0:0:0:
351,76,85299,6,0,L|342:194,1,107.999993843079,4|2,3:0|0:0,0:0:0:0:
92,380,85610,2,0,L|101:262,1,107.999993843079,2|2,0:0|0:0,0:0:0:0:
328,299,85921,5,8,0:0:0:0:
103,241,86076,1,0,0:0:0:0:
343,185,86232,2,0,P|398:196|449:216,1,107.999993843079,4|2,3:0|0:0,0:0:0:0:
103,241,86543,6,0,L|114:99,1,107.999993843079,0|2,0:0|3:0,0:0:0:0:
278,40,86853,1,4,3:0:0:0:
68,270,87009,2,0,L|79:128,1,107.999993843079,0|8,0:0|0:0,0:0:0:0:
278,40,87320,1,0,0:0:0:0:
33,299,87475,2,0,L|44:157,1,107.999993843079,4|2,3:0|0:0,0:0:0:0:
278,40,87786,6,0,L|267:182,1,107.999993843079,4|0,3:0|0:0,0:0:0:0:
255,316,88097,1,4,3:0:0:0:
399,122,88252,1,0,0:0:0:0:
159,100,88408,1,8,0:0:0:0:
384,241,88563,1,0,0:0:0:0:
144,218,88719,2,0,P|91:214|32:210,1,107.999993843079,4|2,3:0|0:0,0:0:0:0:
255,316,89030,5,2,0:0:0:0:
399,122,89185,1,8,0:0:0:0:
144,218,89341,1,8,0:0:0:0:
144,218,89418,1,0,0:0:0:0:
144,218,89496,1,0,1:0:0:0:
384,241,89651,1,4,3:0:0:0:
159,100,89807,1,12,3:0:0:0:
255,316,89962,1,0,0:0:0:0:
277,74,90118,1,2,0:0:0:0:
115,296,90273,6,0,P|80:268|80:166,1,152.999998865128,6|2,3:2|3:0,0:0:0:0:
79,167,90895,1,2,3:0:0:0:
115,296,91050,2,0,P|152:284|186:261,1,76.4999994325638,2|0,3:0|0:0,0:0:0:0:
220,178,91361,6,0,L|239:333,1,152.999998865128,2|2,3:0|3:0,0:0:0:0:
463,278,91983,2,0,L|444:123,1,152.999998865128,2|2,3:0|3:0,0:0:0:0:
444,126,92605,1,2,3:0:0:0:
463,278,92760,6,0,B|416:285|416:285|388:282|388:282|362:296|362:296|295:309,1,152.999998865128,2|2,3:0|3:0,0:0:0:0:
315,305,93382,1,2,3:0:0:0:
463,278,93537,2,0,P|454:238|435:206,1,76.4999994325638,2|0,3:0|0:0,0:0:0:0:
343,199,93848,6,0,L|479:127,1,152.999998865128,2|2,3:0|3:0,0:0:0:0:
478,127,95092,1,0,0:0:0:0:
343,199,95247,6,0,P|331:149|331:45,1,152.999998865128,2|2,3:0|3:0,0:0:0:0:
331,48,95869,1,2,3:0:0:0:
343,199,96024,2,0,P|312:207|264:208,1,76.4999994325638,2|0,3:0|0:0,0:0:0:0:
207,134,96335,6,0,P|219:204|206:297,1,152.999998865128,2|2,3:0|3:0,0:0:0:0:
346,350,96957,2,0,P|334:280|347:187,1,152.999998865128,2|2,3:0|3:0,0:0:0:0:
343,199,97579,1,2,3:0:0:0:
346,350,97734,6,0,B|296:347|272:360|272:360|240:353|189:364,1,152.999998865128,2|2,3:0|3:0,0:0:0:0:
195,363,98356,1,2,3:0:0:0:
346,350,98512,2,0,P|338:313|322:274,1,76.4999994325638,2|0,3:0|0:0,0:0:0:0:
238,245,98822,6,0,B|317:246|317:246|383:212,1,152.999998865128,2|2,3:0|3:0,0:0:0:0:
383,213,99910,1,0,0:0:0:0:
353,136,100066,1,0,0:0:0:0:
238,245,100221,6,0,L|250:338,1,76.4999994325638,2|2,0:0|0:0,0:0:0:0:
353,136,100532,2,0,L|341:43,1,76.4999994325638,2|2,0:0|0:0,0:0:0:0:
384,213,100843,2,0,P|428:198|459:174,1,76.4999994325638,10|2,0:0|3:0,0:0:0:0:
343,60,101154,1,2,0:0:0:0:
347,220,101309,1,2,3:0:0:0:
450,55,101465,6,2,B|412:49|412:49|357:58,1,76.4999994325638,4|4,3:0|3:0,0:0:0:0:
267,142,101776,2,2,B|228:148|228:148|191:139,1,76.4999994325638,0|4,1:0|3:0,0:0:0:0:
74,60,102087,2,0,P|76:129|74:220,1,152.999998865128,10|4,0:0|3:0,0:0:0:0:
68,332,102553,1,2,0:0:0:0:
74,214,102708,6,0,L|154:222,1,76.4999994325638,4|4,3:0|3:0,0:0:0:0:
204,304,103019,2,0,L|284:296,1,76.4999994325638,4|2,3:0|0:0,0:0:0:0:
408,282,103330,1,10,0:0:0:0:
334,204,103486,1,2,3:0:0:0:
280,296,103641,1,2,0:0:0:0:
334,204,103796,1,2,3:0:0:0:
408,282,103952,6,0,P|439:270|478:246,1,76.4999994325638,4|4,3:0|3:0,0:0:0:0:
368,136,104263,2,0,P|347:168|333:203,1,76.4999994325638,4|4,3:0|3:0,0:0:0:0:
280,296,104574,2,0,P|201:285|124:259,1,152.999998865128,8|4,2:0|3:0,0:0:0:0:
27,192,105040,1,2,0:0:0:0:
131,121,105195,6,0,L|128:176,1,50.9999996217092,2|0,0:0|0:0,0:0:0:0:
132,77,105506,2,0,L|131:128,1,50.9999996217092,2|0,0:0|0:0,0:0:0:0:
140,19,105817,2,2,B|211:0|211:46|297:15,1,152.999998865128,8|2,0:0|0:0,0:0:0:0:
400,10,106284,1,2,0:0:0:0:
354,107,106439,6,2,P|354:164|421:239,1,152.999998865128,4|0,3:0|1:0,0:0:0:0:
459,137,106905,1,2,0:0:0:0:
354,107,107061,2,2,P|317:111|276:125,1,76.4999994325638,8|2,0:0|0:0,0:0:0:0:
256,246,107372,2,2,P|219:242|178:228,1,76.4999994325638,4|4,3:0|3:0,0:0:0:0:
98,84,107683,6,2,B|113:130|113:130|103:240,1,152.999998865128,4|2,3:0|3:0,0:0:0:0:
89,356,108149,1,0,0:0:0:0:
182,230,108304,2,2,L|190:145,1,76.4999994325638,10|0,0:0|1:0,0:0:0:0:
30,145,108615,2,2,L|22:230,1,76.4999994325638,0|0,0:0|0:0,0:0:0:0:
182,230,108926,5,0,1:0:0:0:
30,145,109081,1,2,0:0:0:0:
189,153,109237,1,0,1:0:0:0:
22,221,109392,1,2,0:0:0:0:
252,104,109548,2,2,P|219:79|172:74,1,76.4999994325638,8|2,0:0|3:0,0:0:0:0:
255,291,109859,2,2,P|292:283|321:259,1,76.4999994325638,0|2,1:0|3:0,0:0:0:0:
468,138,110170,6,0,P|470:214|466:291,1,152.999998865128,8|8,0:0|0:0,0:0:0:0:
255,291,110791,2,0,P|253:215|258:121,1,152.999998865128,8|8,0:0|0:0,0:0:0:0:
468,138,111413,5,8,0:0:0:0:
467,154,111724,1,8,0:0:0:0:
332,248,112035,1,8,0:0:0:0:
333,232,112346,1,8,0:0:0:0:
189,42,112657,6,0,P|142:42|100:51,1,76.4999994325638,8|0,0:0|0:0,0:0:0:0:
80,136,112967,2,0,P|73:173|74:211,1,76.4999994325638,8|0,0:0|0:0,0:0:0:0:
165,261,113278,2,0,P|92:250|27:297,1,152.999998865128,8|8,0:0|0:0,0:0:0:0:
118,357,113745,1,0,0:0:0:0:
165,261,113900,6,0,P|163:216|156:177,1,76.4999994325638,8|0,0:0|0:0,0:0:0:0:
244,79,114211,2,0,P|246:124|253:163,1,76.4999994325638,8|0,0:0|0:0,0:0:0:0:
263,292,114522,2,0,B|354:291|327:325|413:325,1,152.999998865128,8|8,0:0|0:0,0:0:0:0:
506,285,114988,1,0,0:0:0:0:
400,209,115144,6,0,B|400:160|400:160|409:123,1,76.4999994325638,12|0,0:0|0:0,0:0:0:0:
506,285,115455,1,8,0:0:0:0:
411,326,115610,1,0,0:0:0:0:
305,168,115765,1,8,0:0:0:0:
400,209,115920,1,0,0:0:0:0:
226,192,116076,2,0,P|226:150|250:105,1,76.4999994325638,8|0,0:0|0:0,0:0:0:0:
322,264,116387,5,8,0:0:0:0:
305,168,116543,1,0,0:0:0:0:
261,318,116698,2,0,P|294:340|344:344,1,76.4999994325638,8|0,0:0|0:0,0:0:0:0:
226,192,117009,2,0,P|188:198|157:219,1,76.4999994325638,8|0,0:0|0:0,0:0:0:0:
58,290,117320,1,8,0:0:0:0:
58,290,117475,1,0,0:0:0:0:
173,294,117631,6,0,P|166:257|156:220,1,76.4999994325638,8|0,0:0|0:0,0:0:0:0:
119,121,117942,1,8,0:0:0:0:
156,220,118097,1,0,0:0:0:0:
119,121,118252,2,0,P|160:111|210:115,1,76.4999994325638,8|0,0:0|0:0,0:0:0:0:
283,192,118563,2,0,P|321:192|358:182,1,76.4999994325638,8|0,0:0|0:0,0:0:0:0:
466,51,118874,5,8,0:0:0:0:
307,97,119030,1,2,3:0:0:0:
199,228,119185,1,8,0:0:0:0:
358,182,119341,1,2,3:0:0:0:
194,112,119496,6,0,L|165:117,6,19.1249998581409,2|2|2|2|2|2|2,0:0|0:0|0:0|0:0|0:0|0:0|0:0,0:0:0:0:
130,181,119807,2,0,L|101:186,6,19.1249998581409,2|2|2|2|2|2|2,0:0|0:0|0:0|0:0|0:0|0:0|0:0,0:0:0:0:
66,250,120118,6,0,P|40:215|98:106,1,179.999995231628,4|8,2:3|0:0,0:0:0:0:
223,23,120584,1,2,3:0:0:0:
199,205,120739,2,0,P|154:196|110:184,1,89.9999976158142,8|0,0:0|0:0,0:0:0:0:
223,23,121050,2,0,P|268:32|312:44,1,89.9999976158142,4|0,3:0|0:0,0:0:0:0:
413,192,121361,5,8,0:0:0:0:
336,50,121517,1,2,3:0:0:0:
311,209,121672,2,0,B|306:254|306:254|314:309,1,89.9999976158142,2|0,3:0|0:0,0:0:0:0:
495,248,121983,1,8,0:0:0:0:
311,209,122138,1,2,3:0:0:0:
390,373,122294,1,8,0:0:0:0:
419,156,122449,1,2,3:0:0:0:
419,156,122527,1,2,3:0:0:0:
419,156,122605,5,4,3:0:0:0:
312,299,122760,1,4,3:0:0:0:
495,248,122916,1,8,0:0:0:0:
495,248,123071,1,2,3:0:0:0:
311,209,123227,2,0,P|262:209|213:225,1,89.9999976158142,8|0,0:0|0:0,0:0:0:0:
59,260,123537,1,8,0:0:0:0:
223,312,123693,1,0,0:0:0:0:
111,96,123848,5,4,3:0:0:0:
59,260,124004,1,2,3:0:0:0:
185,64,124159,2,0,P|151:26|110:15,1,89.9999976158142,10|0,0:0|0:0,0:0:0:0:
223,221,124470,1,8,0:0:0:0:
329,59,124626,1,2,3:0:0:0:
111,96,124781,1,10,0:0:0:0:
93,103,125092,5,4,3:0:0:0:
301,155,125247,1,2,3:0:0:0:
75,110,125403,1,8,2:3:0:0:
319,148,125558,1,2,3:0:0:0:
321,125,125635,1,2,3:0:0:0:
323,103,125713,1,8,3:2:0:0:
326,80,125791,1,2,3:0:0:0:
328,58,125868,1,2,3:0:0:0:
305,278,126024,5,4,3:0:0:0:
471,194,126180,1,2,3:0:0:0:
455,169,126257,1,2,3:0:0:0:
432,150,126335,1,8,3:2:0:0:
405,137,126413,1,2,3:0:0:0:
376,132,126490,1,2,3:0:0:0:
346,136,126568,1,2,3:0:0:0:
319,148,126646,1,4,3:0:0:0:
142,246,126802,5,0,0:0:0:0:
226,63,126957,1,8,0:2:0:0:
259,71,127034,1,2,3:0:0:0:
287,89,127112,1,2,3:0:0:0:
308,116,127190,1,2,3:0:0:0:
319,148,127267,1,4,3:0:0:0:
320,360,127423,1,0,0:0:0:0:
142,246,127579,5,6,3:0:0:0:
138,212,127656,1,2,3:0:0:0:
146,180,127734,1,4,3:0:0:0:
166,153,127812,1,2,3:0:0:0:
195,135,127890,5,6,3:0:0:0:
161,138,127967,1,2,3:0:0:0:
129,130,128045,1,4,3:0:0:0:
102,110,128123,1,2,3:0:0:0:
84,81,128201,5,6,3:0:0:0:
87,114,128278,1,2,3:0:0:0:
79,146,128356,1,4,3:0:0:0:
60,173,128434,1,2,3:0:0:0:
43,201,128512,6,0,P|76:200|102:195,1,44.9999988079071,6|2,3:0|3:0,0:0:0:0:
217,48,128667,2,0,P|195:48|173:51,1,44.9999988079071,4|2,3:0|3:0,0:0:0:0:
200,154,130066,6,0,B|200:97|200:97|219:42,1,107.999993843079,4|0,3:0|0:0,0:0:0:0:
336,339,130377,1,0,0:0:0:0:
340,349,130688,5,8,0:0:0:0:
352,67,130843,1,0,0:0:0:0:
408,298,130999,1,0,0:0:0:0:
415,309,131309,6,0,P|461:284|494:241,1,107.999993843079,0|0,0:0|0:0,0:0:0:0:
256,192,131620,1,4,3:0:0:0:
421,339,131776,2,0,P|467:313|500:270,1,107.999993843079,0|8,0:0|0:0,0:0:0:0:
240,183,132087,1,0,0:0:0:0:
426,368,132242,2,0,P|472:342|505:299,1,107.999993843079,0|0,0:0|0:0,0:0:0:0:
224,174,132553,5,4,3:0:0:0:
96,352,132864,1,0,0:0:0:0:
86,368,133175,5,8,0:0:0:0:
296,262,133330,1,0,0:0:0:0:
26,262,133486,1,4,3:0:0:0:
12,262,133796,6,0,L|22:154,1,107.999993843079,0|0,0:0|0:0,0:0:0:0:
171,55,134107,1,4,3:0:0:0:
256,242,134263,1,0,0:0:0:0:
341,55,134418,1,8,0:0:0:0:
341,55,134496,1,0,3:0:0:0:
341,55,134574,1,0,3:0:0:0:
256,242,134729,1,4,3:0:0:0:
171,55,134885,1,0,0:0:0:0:
408,193,135040,6,0,P|419:148|419:75,1,107.999993843079,12|2,3:0|0:0,0:0:0:0:
104,193,135351,2,0,P|93:148|93:75,1,107.999993843079,2|2,0:0|0:0,0:0:0:0:
402,221,135662,1,10,0:0:0:0:
110,221,135817,1,0,0:0:0:0:
256,40,135973,1,4,3:0:0:0:
256,243,136128,1,2,0:0:0:0:
91,87,136284,6,0,B|65:128|65:128|54:140|54:140|24:187,1,107.999993843079,2|2,0:0|0:0,0:0:0:0:
256,40,136594,1,4,3:0:0:0:
480,176,136750,2,0,B|457:140|457:140|446:128|446:128|421:87,1,107.999993843079,0|10,0:0|0:0,0:0:0:0:
256,313,137061,1,2,0:0:0:0:
256,40,137216,2,0,L|256:151,1,107.999993843079,2|2,0:0|0:0,0:0:0:0:
379,326,137527,5,4,3:0:0:0:
133,326,137683,1,0,0:0:0:0:
405,290,137838,1,4,3:0:0:0:
107,290,137993,1,0,0:0:0:0:
256,40,138149,1,8,0:0:0:0:
256,313,138304,1,0,0:0:0:0:
342,91,138460,2,0,P|391:103|441:152,1,107.999993843079,4|2,3:0|0:0,0:0:0:0:
78,140,138771,6,0,P|118:104|170:91,1,107.999993843079,2|2,0:0|0:0,0:0:0:0:
434,141,139081,1,8,0:0:0:0:
177,215,139237,1,8,0:0:0:0:
405,290,139392,1,4,3:0:0:0:
405,290,139470,1,0,3:0:0:0:
405,290,139548,1,12,3:0:0:0:
177,215,139703,1,0,0:0:0:0:
434,141,139859,1,0,0:0:0:0:
158,334,140014,6,0,B|109:334|109:334|99:339|99:339|42:339,1,107.999993843079,4|0,3:0|0:0,0:0:0:0:
170,91,140325,1,0,0:0:0:0:
172,75,140636,5,8,0:0:0:0:
323,230,140791,1,0,0:0:0:0:
98,110,140947,2,0,P|89:63|119:12,1,107.999993843079,4|2,3:0|3:0,0:0:0:0:
158,334,141258,6,0,B|105:324|110:351|43:330,1,107.999993843079,0|2,0:0|3:0,0:0:0:0:
172,75,141569,1,4,3:0:0:0:
158,334,141724,2,0,B|168:281|141:286|162:219,1,107.999993843079,0|8,0:0|0:0,0:0:0:0:
417,348,142035,1,0,0:0:0:0:
158,334,142190,2,0,B|211:344|206:317|273:338,1,107.999993843079,4|0,3:0|0:0,0:0:0:0:
462,119,142501,6,0,B|409:109|414:136|355:117,1,107.999993843079,4|2,3:0|0:0,0:0:0:0:
152,113,142812,1,2,0:0:0:0:
390,29,142967,1,4,3:0:0:0:
313,248,143123,5,10,0:0:0:0:
252,33,143278,1,0,0:0:0:0:
442,211,143434,2,0,L|434:324,1,107.999993843079,4|2,3:0|0:0,0:0:0:0:
159,221,143745,6,0,L|151:113,1,107.999993843079,2|2,0:0|0:0,0:0:0:0:
390,29,144056,1,4,3:0:0:0:
128,253,144211,2,0,L|120:145,1,107.999993843079,0|4,0:0|3:0,0:0:0:0:
390,29,144522,1,2,0:0:0:0:
97,285,144677,2,0,L|89:177,1,107.999993843079,4|2,3:0|0:0,0:0:0:0:
310,348,144988,6,0,P|256:359|201:347,1,107.999993843079,4|2,3:0|0:0,0:0:0:0:
379,124,145299,2,0,P|433:113|488:125,1,107.999993843079,2|2,0:0|0:0,0:0:0:0:
178,339,145610,5,8,0:0:0:0:
430,204,145765,1,0,0:0:0:0:
152,330,145921,2,0,B|141:279|141:279|158:216,1,107.999993843079,4|2,3:0|0:0,0:0:0:0:
481,284,146232,6,0,P|427:295|372:283,1,107.999993843079,0|2,0:0|3:0,0:0:0:0:
218,49,146543,1,4,3:0:0:0:
376,284,146698,2,0,P|323:295|270:285,1,107.999993843079,0|8,0:0|0:0,0:0:0:0:
113,52,147009,1,0,0:0:0:0:
271,286,147164,2,0,P|218:296|165:286,1,107.999993843079,4|2,3:0|0:0,0:0:0:0:
8,55,147475,5,4,3:0:0:0:
220,210,147631,1,0,0:0:0:0:
113,52,147786,1,4,3:0:0:0:
8,210,147942,1,0,0:0:0:0:
218,49,148097,1,8,0:0:0:0:
113,210,148252,1,0,0:0:0:0:
323,46,148408,2,0,B|376:46|376:46|429:66,1,107.999993843079,4|2,3:0|0:0,0:0:0:0:
496,102,148641,1,0,0:0:0:0:
496,102,148719,6,0,B|502:157|502:157|492:213,1,107.999993843079,0|2,0:0|0:0,0:0:0:0:
281,358,149030,2,0,B|275:303|275:303|285:247,1,107.999993843079,8|8,0:0|0:0,0:0:0:0:
323,46,149341,1,4,3:0:0:0:
323,46,149418,1,0,0:0:0:0:
323,46,149496,1,12,3:0:0:0:
387,281,149651,1,0,0:0:0:0:
218,119,149807,1,2,0:0:0:0:
492,208,149962,5,4,0:0:0:0:
285,257,159910,6,0,L|186:264,1,89.9999976158142,4|0,3:0|0:0,0:0:0:0:
79,262,160221,1,0,0:0:0:0:
137,354,160377,1,2,3:0:0:0:
285,257,160532,2,0,P|310:225|322:170,1,89.9999976158142,8|0,0:0|0:0,0:0:0:0:
244,40,160843,1,4,3:0:0:0:
244,40,160999,6,0,P|244:113|326:178,1,179.999995231628,0|2,0:0|3:0,0:0:0:0:
431,95,161465,2,0,P|390:73|342:73,1,89.9999976158142,0|2,0:0|0:0,0:0:0:0:
151,109,161776,1,8,0:0:0:0:
151,109,161931,1,8,0:0:0:0:
244,40,162087,1,8,0:0:0:0:
240,223,162242,1,2,3:0:0:0:
240,223,162320,1,2,3:0:0:0:
240,223,162398,5,6,3:0:0:0:
244,40,162553,1,4,3:0:0:0:
151,109,162708,2,0,L|56:115,1,89.9999976158142,8|2,0:0|3:0,0:0:0:0:
240,223,163019,2,0,P|325:223|400:165,1,179.999995231628,8|8,0:0|0:0,0:0:0:0:
285,90,163486,1,0,0:0:0:0:
240,223,163641,6,0,B|240:268|240:268|255:314,1,89.9999976158142,4|2,3:0|3:0,0:0:0:0:
413,255,163952,2,0,B|413:210|413:210|398:164,1,89.9999976158142,8|0,0:0|0:0,0:0:0:0:
268,335,164263,1,4,3:0:0:0:
415,284,164418,1,2,3:0:0:0:
240,223,164574,1,8,0:0:0:0:
220,219,164885,5,6,3:0:0:0:
399,167,165040,1,2,3:0:0:0:
200,215,165195,1,8,0:0:0:0:
419,171,165351,1,2,3:0:0:0:
415,148,165428,1,2,3:0:0:0:
411,126,165506,1,8,0:0:0:0:
408,104,165584,1,2,3:0:0:0:
404,82,165661,1,2,3:0:0:0:
180,211,165817,5,8,0:0:0:0:
439,175,165973,1,2,3:0:0:0:
435,152,166050,1,2,3:0:0:0:
431,130,166128,1,8,0:0:0:0:
427,108,166206,1,2,3:0:0:0:
423,86,166283,1,2,3:0:0:0:
420,64,166361,1,2,3:0:0:0:
416,41,166439,1,8,0:0:0:0:
160,207,166594,5,2,3:0:0:0:
459,179,166750,1,8,0:0:0:0:
455,156,166827,1,2,3:0:0:0:
451,134,166905,1,2,3:0:0:0:
448,112,166983,1,2,3:0:0:0:
444,90,167060,1,8,0:0:0:0:
140,203,167216,1,2,3:0:0:0:
340,355,167372,5,8,0:0:0:0:
377,366,167449,1,2,3:0:0:0:
416,364,167527,1,8,0:0:0:0:
452,348,167605,1,2,3:0:0:0:
479,320,167682,5,8,0:0:0:0:
494,284,167760,1,2,3:0:0:0:
496,245,167838,1,8,0:0:0:0:
483,208,167916,1,2,3:0:0:0:
459,179,167993,5,8,0:0:0:0:
436,217,168070,1,2,3:0:0:0:
401,245,168148,1,8,0:0:0:0:
358,256,168226,1,2,3:0:0:0:
313,250,168304,6,0,B|312:224|312:224|316:192,1,44.9999988079071,8|2,0:0|3:0,3:3:0:0:
456,33,168460,2,0,B|457:59|457:59|453:91,1,44.9999988079071,8|2,0:0|3:0,3:3:0:0:
336,288,169859,5,4,3:0:0:0:
128,128,170170,1,0,0:0:0:0:
384,128,170480,1,8,0:0:0:0:
176,288,170791,1,0,0:0:0:0:
256,37,171102,6,0,L|256:149,1,107.999993843079,0|0,0:0|0:0,0:0:0:0:
360,355,171413,1,4,3:0:0:0:
360,355,171569,2,0,P|409:327|438:258,1,107.999993843079,0|8,0:0|0:0,0:0:0:0:
152,355,171879,1,0,0:0:0:0:
152,355,172035,2,0,P|103:327|74:258,1,107.999993843079,0|0,0:0|0:0,0:0:0:0:
256,57,172346,5,4,3:0:0:0:
256,37,172657,1,0,0:0:0:0:
336,288,172812,1,0,0:0:0:0:
128,128,172967,1,8,0:0:0:0:
384,128,173123,1,0,0:0:0:0:
176,288,173278,1,4,3:0:0:0:
256,37,173434,1,0,0:0:0:0:
256,306,173589,6,0,L|256:189,1,107.999993843079,0|0,0:0|0:0,0:0:0:0:
360,355,173900,1,4,3:0:0:0:
152,355,174056,1,0,0:0:0:0:
360,124,174211,1,8,0:0:0:0:
360,124,174289,1,0,3:0:0:0:
360,124,174366,1,0,3:0:0:0:
152,124,174522,1,4,3:0:0:0:
128,138,174833,6,0,B|128:84|128:84|153:27,1,107.999993843079,12|2,3:0|0:0,0:0:0:0:
384,138,175144,2,0,B|384:84|384:84|359:27,1,107.999993843079,2|2,0:0|0:0,0:0:0:0:
256,278,175455,1,10,0:0:0:0:
256,294,175765,1,4,3:0:0:0:
256,112,175921,1,2,0:0:0:0:
95,239,176076,6,0,L|210:233,1,107.999993843079,2|2,0:0|0:0,0:0:0:0:
417,227,176387,1,4,3:0:0:0:
98,162,176543,2,0,L|213:156,1,107.999993843079,0|2,0:0|0:0,0:0:0:0:
419,149,176854,1,2,0:0:0:0:
99,83,177009,2,0,L|214:77,1,107.999993843079,2|2,0:0|0:0,0:0:0:0:
415,305,177320,5,4,3:0:0:0:
206,156,177475,1,0,0:0:0:0:
417,227,177631,1,4,3:0:0:0:
203,234,177786,1,0,0:0:0:0:
419,149,177942,1,8,0:0:0:0:
200,312,178097,1,0,0:0:0:0:
421,71,178252,2,0,P|467:88|496:142,1,107.999993843079,4|2,3:0|0:0,0:0:0:0:
129,226,178563,6,0,P|154:179|203:159,1,107.999993843079,2|2,0:0|0:0,0:0:0:0:
415,305,178874,1,8,0:0:0:0:
203,234,179030,1,8,0:0:0:0:
419,149,179185,1,4,3:0:0:0:
419,149,179263,1,0,3:0:0:0:
419,149,179341,1,12,3:0:0:0:
188,345,179496,2,0,B|203:233|203:233|251:288,1,161.999990764618
188,345,179807,6,0,P|134:344|83:313,1,107.999993843079,4|0,3:0|0:0,0:0:0:0:
303,207,180118,2,0,P|249:207|202:234,1,107.999993843079
389,345,180429,1,8,0:0:0:0:
399,360,180739,1,4,3:0:0:0:
474,132,180895,1,2,3:0:0:0:
241,159,181050,6,0,B|241:107|241:107|265:52,1,107.999993843079,0|2,0:0|3:0,0:0:0:0:
474,132,181361,1,4,3:0:0:0:
241,159,181517,2,0,B|189:159|189:159|134:135,1,107.999993843079,0|8,0:0|0:0,0:0:0:0:
367,35,181828,1,0,0:0:0:0:
219,262,181983,2,0,B|219:210|219:210|243:155,1,107.999993843079,4|0,3:0|0:0,0:0:0:0:
500,334,182294,6,0,P|455:359|394:359,1,107.999993843079,4|2,3:0|0:0,0:0:0:0:
219,262,182605,1,2,0:0:0:0:
431,277,182760,1,4,3:0:0:0:
209,276,182916,1,10,0:0:0:0:
319,79,183071,1,0,0:0:0:0:
439,290,183227,1,4,3:0:0:0:
320,60,183382,1,2,0:0:0:0:
199,290,183537,6,0,P|150:267|110:223,1,107.999993843079,2|2,0:0|0:0,0:0:0:0:
321,41,183848,1,4,3:0:0:0:
314,296,184004,1,0,0:0:0:0:
429,45,184159,1,4,3:0:0:0:
429,45,184237,1,0,0:0:0:0:
429,45,184315,1,2,0:0:0:0:
422,300,184470,2,0,B|303:296,1,107.999993843079,4|2,3:0|0:0,0:0:0:0:
87,192,184781,6,0,B|87:237|87:237|90:248|90:248|90:299,1,107.999993843079,4|2,3:0|0:0,0:0:0:0:
256,126,185092,2,0,L|256:16,1,107.999993843079,2|2,0:0|0:0,0:0:0:0:
425,192,185403,2,0,B|425:237|425:237|422:248|422:248|422:299,1,107.999993843079,8|0,0:0|0:0,0:0:0:0:
256,126,185714,1,4,3:0:0:0:
357,31,185869,1,2,0:0:0:0:
208,192,186024,6,0,P|176:142|193:71,1,107.999993843079,0|2,0:0|3:0,0:0:0:0:
425,190,186335,1,4,3:0:0:0:
179,288,186491,2,0,P|177:235|208:192,1,107.999993843079,0|8,0:0|0:0,0:0:0:0:
310,39,186802,1,0,0:0:0:0:
255,258,186957,1,4,3:0:0:0:
425,190,187113,1,2,0:0:0:0:
180,95,187268,6,0,P|122:111|73:139,1,107.999993843079,4|0,3:0|0:0,0:0:0:0:
340,258,187579,1,4,3:0:0:0:
256,32,187734,1,0,0:0:0:0:
172,258,187890,1,8,0:0:0:0:
376,130,188045,1,0,0:0:0:0:
136,130,188201,1,4,3:0:0:0:
340,258,188356,1,2,0:0:0:0:
256,32,188512,6,0,L|256:144,1,107.999993843079,4|2,3:0|0:0,0:0:0:0:
256,345,188822,1,8,0:0:0:0:
376,130,188978,1,8,0:0:0:0:
136,130,189134,1,4,3:0:0:0:
136,130,189211,1,0,0:0:0:0:
136,130,189289,1,12,3:0:0:0:
256,345,189444,1,0,0:0:0:0:
256,84,189600,1,2,0:0:0:0:
