osu file format v14

[General]
AudioFilename: 24K () - (Superfly).mp3
AudioLeadIn: 0
PreviewTime: 69133
Countdown: 0
SampleSet: Soft
StackLeniency: 0.4
Mode: 0
LetterboxInBreaks: 0
WidescreenStoryboard: 0

[Editor]
DistanceSpacing: 1.4
BeatDivisor: 8
GridSize: 32
TimelineZoom: 4.599998

[Metadata]
Title:SUPERFLY
TitleUnicode:날라리
Artist:24K
ArtistUnicode:투포케이
Creator:DeRandom Otaku
Version:Hyper
Source:
Tags:Trap Choeun Entertainment K-pop Kpop 코리 기수 정욱 휘 창선 진홍 홍섭 병호 석준 성오 대일 Cory Kisu Jeunguk Hui Changsun Jinhong Hongseob Byungho Seokjun Sungoh Daeil cool c00l Firetruck Neoskylove Akitoshi Corinn
BeatmapID:1184884
BeatmapSetID:558362

[Difficulty]
HPDrainRate:5
CircleSize:3.7
OverallDifficulty:7
ApproachRate:8
SliderMultiplier:3
SliderTickRate:2

[Events]
//Background and Video events
0,0,"BG.jpg",0,0
//Break Periods
2,150162,159160
//Storyboard Layer 0 (Background)
//Storyboard Layer 1 (Fail)
//Storyboard Layer 2 (Pass)
//Storyboard Layer 3 (Foreground)
//Storyboard Sound Samples

[TimingPoints]
740,621.761658031088,4,2,1,50,1,0
740,-133.333333333333,4,2,1,50,0,0
10688,-111.111111111111,4,2,2,60,0,0
18149,-100,4,2,2,60,0,0
20636,-83.3333333333333,4,2,1,70,0,1
20947,-83.3333333333333,4,2,1,70,0,1
30584,-100,4,2,1,60,0,0
31206,-125,4,2,1,45,0,0
45506,-125,4,2,1,45,0,0
50480,-111.111111111111,4,2,2,55,0,0
60429,-100,4,2,2,65,0,0
70377,-83.3333333333333,4,2,1,70,0,1
80170,-83.3333333333333,4,2,1,70,0,0
80325,-83.3333333333333,4,2,1,75,0,1
90273,-117.647058823529,4,2,1,50,0,0
110170,-111.111111111111,4,2,2,50,0,0
120118,-100,4,2,2,60,0,0
130066,-83.3333333333333,4,2,1,70,0,1
139859,-83.3333333333333,4,2,1,70,0,0
140014,-83.3333333333333,4,2,1,75,0,1
149962,-83.3333333333333,4,2,1,75,0,0
159910,-100,4,2,2,60,0,0
169859,-83.3333333333333,4,2,1,70,0,1
179496,-83.3333333333333,4,2,1,70,0,0
179729,-83.3333333333333,4,2,1,5,0,0
179807,-83.3333333333333,4,2,1,75,0,1
189600,-83.3333333333333,4,2,1,75,0,0

[Colours]
Combo1 : 156,22,83
Combo2 : 0,128,255
Combo3 : 146,255,36
Combo4 : 242,82,13

[HitObjects]
137,80,740,6,0,P|127:137|126:206,1,112.500004291535,6|0,2:3|0:0,0:0:0:0:
127,270,1206,1,2,3:0:0:0:
214,235,1361,2,0,L|277:241,1,56.2500021457673,10|0,0:0|0:0,0:0:0:0:
315,305,1672,2,0,L|370:299,1,56.2500021457673,2|0,3:0|0:0,0:0:0:0:
450,298,1983,6,0,B|451:244|449:174,2,112.500004291535,0|2|10,0:0|3:0|0:0,0:0:0:0:
292,311,2916,2,0,B|251:309|251:309|198:318,1,84.3750032186509,2|2,3:0|3:0,3:3:0:0:
169,321,3227,6,0,P|161:293|160:267,1,56.2500021457673,0|2,0:0|3:0,0:0:0:0:
211,206,3537,2,0,P|162:222|96:209,1,112.500004291535,2|10,3:0|0:0,0:0:0:0:
11,179,4004,1,0,0:0:0:0:
80,139,4159,2,0,P|84:104|84:80,1,56.2500021457673,2|0,3:0|0:0,0:0:0:0:
31,23,4470,6,0,L|159:33,1,112.500004291535,0|2,0:0|3:0,0:0:0:0:
196,113,4936,1,0,0:0:0:0:
267,47,5092,2,0,L|267:8,2,28.1250010728836,10|2|2,0:0|3:0|3:0,0:0:0:0:
310,113,5403,2,0,P|340:118|375:118,1,56.2500021457673,2|2,3:0|3:0,0:0:0:0:
475,55,5714,6,0,L|464:181,1,112.500004291535,2|0,3:0|0:0,0:0:0:0:
491,245,6180,1,0,3:0:0:0:
400,298,6335,2,0,P|356:290|337:282,1,56.2500021457673,10|0,0:0|0:0,0:0:0:0:
280,241,6646,2,0,P|252:244|225:253,1,56.2500021457673,2|0,3:0|0:0,0:0:0:0:
149,273,6957,6,0,P|140:218|154:159,1,112.500004291535,0|0,0:0|3:0,0:0:0:0:
256,42,7579,1,10,0:0:0:0:
361,158,7890,2,0,B|402:171|401:150|458:165,1,84.3750032186509,2|2,3:0|3:0,3:3:0:0:
483,167,8201,6,0,L|480:227,2,56.2500021457673,0|0|0,0:0|0:0|0:0,0:0:0:0:
325,156,8822,2,0,L|322:212,1,56.2500021457673,10|0,0:0|0:0,0:0:0:0:
243,212,9133,2,0,L|240:155,1,56.2500021457673,2|0,3:0|0:0,0:0:0:0:
211,82,9444,6,0,P|155:82|90:85,1,112.500004291535,2|2,3:0|3:0,0:0:0:0:
240,155,10066,2,0,P|279:122|212:2,1,168.750006437302,2|2,3:0|3:0,0:0:0:0:
211,82,10688,5,4,2:3:0:0:
383,158,10999,2,0,L|375:238,1,67.4999979400636,8|2,0:0|3:0,0:0:0:0:
370,327,11309,2,0,P|322:348|226:349,1,134.999995880127,8|4,0:0|3:0,0:0:0:0:
80,242,11931,6,0,P|49:248|8:264,2,67.4999979400636,8|2|8,0:0|3:0|0:0,0:0:0:0:
175,233,12398,1,0,0:0:0:0:
270,224,12553,2,0,P|301:218|342:202,2,67.4999979400636,8|0|8,0:0|3:0|0:0,0:0:0:0:
278,128,13020,1,2,3:0:0:0:
278,128,13097,1,2,3:0:0:0:
278,128,13175,6,0,L|286:39,1,67.4999979400636,4|4,3:0|3:0,0:0:0:0:
191,36,13486,2,0,L|183:125,1,67.4999979400636,8|2,0:0|3:0,0:0:0:0:
183,208,13796,2,0,L|196:342,1,134.999995880127,8|8,0:0|0:0,0:0:0:0:
344,227,14418,6,0,P|309:230|269:241,1,67.4999979400636,4|4,3:0|3:0,0:0:0:0:
263,332,14729,2,0,P|230:340|196:342,1,67.4999979400636,8|0,0:0|0:0,0:0:0:0:
154,257,15040,2,0,P|120:259|87:267,2,67.4999979400636,8|0|2,0:0|0:0|3:0,0:0:0:0:
344,227,15662,6,0,P|337:182|327:155,1,67.4999979400636,4|2,3:0|3:0,0:0:0:0:
317,67,15973,2,0,P|350:71|382:81,1,67.4999979400636,8|2,0:0|3:0,0:0:0:0:
470,109,16284,2,0,P|465:146|469:188,1,67.4999979400636,8|2,0:2|3:0,0:0:0:0:
492,269,16594,1,8,0:0:0:0:
409,346,16750,1,2,3:0:0:0:
409,346,16828,1,2,3:0:0:0:
409,346,16905,6,0,L|336:360,1,67.4999979400636,8|2,0:2|3:0,0:0:0:0:
275,291,17216,2,0,L|208:278,1,67.4999979400636,8|0,0:0|0:0,0:0:0:0:
115,262,17527,2,0,L|127:195,1,67.4999979400636,8|2,0:2|3:0,0:0:0:0:
151,103,17838,1,8,0:0:0:0:
151,103,18149,6,0,L|194:104,3,37.5,8|2|8|2,0:0|3:0|0:0|3:0,0:0:0:0:
225,66,18460,2,0,L|268:67,3,37.5,8|2|8|2,0:0|3:0|0:0|3:0,0:0:0:0:
314,73,18771,1,8,0:0:0:0:
308,99,18848,1,2,3:0:0:0:
305,125,18926,1,8,0:0:0:0:
308,152,19004,1,2,3:0:0:0:
315,178,19081,2,0,L|358:179,3,37.5,8|2|8|2,0:0|3:0|0:0|3:0,0:0:0:0:
409,200,20636,6,0,B|409:294|409:294|354:363,1,179.999994506836,4|0,3:0|0:0,0:0:0:0:
355,361,21258,1,8,0:0:0:0:
272,278,21413,1,0,0:0:0:0:
188,361,21569,1,0,0:0:0:0:
188,127,21879,6,0,P|277:127|343:186,1,179.999994506836,0|4,0:0|3:0,0:0:0:0:
373,298,22346,2,0,P|373:209|432:143,1,179.999994506836,0|0,0:0|0:0,0:0:0:0:
481,249,22812,2,0,L|468:342,1,89.9999972534181,0|0,0:0|0:0,0:0:0:0:
431,143,23123,5,4,3:0:0:0:
256,298,23434,1,0,0:0:0:0:
81,143,23745,2,0,P|127:143|183:115,1,89.9999972534181,8|0,0:0|0:0,0:0:0:0:
256,50,24056,1,4,3:0:0:0:
256,50,24366,6,0,B|381:72|381:72|426:112,1,179.999994506836,0|4,0:0|3:0,0:0:0:0:
325,176,24833,2,0,B|200:154|200:154|155:114,1,179.999994506836,0|0,0:0|3:0,0:0:0:0:
57,62,25299,2,0,P|45:111|50:158,1,89.9999972534181,4|0,3:0|0:0,0:0:0:0:
59,324,25610,6,0,B|107:301|107:301|241:301,1,179.999994506836,12|2,3:0|0:0,0:0:0:0:
233,301,26232,1,10,0:0:0:0:
315,218,26387,1,0,0:0:0:0:
231,134,26543,1,0,0:0:0:0:
450,53,26853,6,0,B|405:145|475:144|425:235,1,179.999994506836,2|4,0:0|3:0,0:0:0:0:
486,332,27320,2,0,B|394:377|395:307|304:357,1,179.999994506836,0|0,0:0|0:0,0:0:0:0:
197,379,27786,2,0,P|195:326|181:285,1,89.9999972534181,2|2,0:0|0:0,0:0:0:0:
145,159,28097,6,0,L|240:168,1,89.9999972534181,4|0,3:0|0:0,0:0:0:0:
364,99,28408,1,4,3:0:0:0:
364,99,28563,1,0,0:0:0:0:
245,89,28719,2,0,L|150:80,1,89.9999972534181,8|0,0:0|0:0,0:0:0:0:
38,153,29030,1,4,3:0:0:0:
155,80,29185,1,0,0:0:0:0:
40,64,29341,6,0,B|45:125|45:125|35:166,1,89.9999972534181,2|2,0:0|3:0,0:0:0:0:
21,268,29651,1,0,1:0:0:0:
151,331,29807,1,0,1:0:0:0:
120,235,29962,1,4,3:0:0:0:
120,235,30040,1,0,3:0:0:0:
120,235,30118,1,4,3:0:0:0:
139,130,30273,2,0,P|183:135|232:147,1,89.9999972534181
391,198,30584,5,2,0:0:0:0:
391,198,31206,2,0,P|391:149|359:77,1,120,8|0,1:0|1:0,0:0:0:0:
321,13,31672,1,0,1:0:0:0:
217,116,31828,6,0,P|159:116|98:92,1,120,4|0,1:3|1:0,0:0:0:0:
18,82,32294,1,0,3:0:0:0:
18,82,32449,2,0,L|26:161,1,60,8|0,1:0|0:0,0:0:0:0:
37,224,32760,2,0,B|67:217|67:217|110:221,1,60,0|0,0:0|0:0,0:0:0:0:
179,228,33071,6,0,P|241:234|311:224,1,120,0|0,1:0|1:0,0:0:0:0:
381,218,33537,1,0,0:0:0:0:
381,218,33693,2,0,L|386:289,2,60,8|0|0,1:0|1:0|1:0,0:0:0:0:
440,158,34159,1,0,1:0:0:0:
364,85,34315,6,0,B|324:85|324:85|239:112,1,120,0|2,1:0|1:3,0:0:0:0:
167,140,34781,1,2,1:3:0:0:
95,184,34936,2,0,P|83:144|87:111,1,60,8|0,1:0|1:0,0:0:0:0:
167,140,35247,2,0,P|179:180|175:213,1,60,0|0,1:0|0:0,0:0:0:0:
173,282,35558,6,0,L|298:283,1,120,0|0,1:0|1:0,0:0:0:0:
371,251,36024,1,0,0:0:0:0:
311,191,36180,2,0,P|311:145|359:89,1,120,8|0,1:0|1:0,0:0:0:0:
437,124,36646,1,0,1:0:0:0:
311,191,36802,6,0,L|184:180,1,120,4|0,1:3|1:0,0:0:0:0:
113,148,37268,1,4,3:0:0:0:
158,75,37423,2,0,P|194:121|191:180,1,120,8|4,1:0|3:0,0:0:0:0:
119,227,37890,1,4,3:0:0:0:
158,75,38045,6,0,L|224:84,1,60,4|2,3:0|0:0,0:0:0:0:
301,83,38356,2,0,L|360:74,1,60,0|0,1:0|0:0,0:0:0:0:
437,41,38667,2,0,B|445:71|445:71|444:102,1,60,8|0,1:0|1:0,0:0:0:0:
392,163,38978,2,0,B|391:191|391:191|399:221,1,60,0|0,1:0|1:0,0:0:0:0:
500,303,39289,6,0,P|440:300|389:328,1,120,4|0,1:3|1:0,0:0:0:0:
314,358,39755,1,0,1:0:0:0:
314,358,39910,2,0,L|241:349,1,60,0|0,0:0|1:0,0:0:0:0:
171,338,40221,2,0,L|98:329,1,60,0|0,1:0|1:0,0:0:0:0:
111,330,40843,5,0,0:0:0:0:
293,48,41465,2,0,L|355:59,1,60,2|2,0:0|0:0,0:0:0:0:
469,97,41776,6,0,P|470:65|475:34,2,60,6|2|0,2:3|0:0|1:0,0:0:0:0:
470,181,42242,1,4,3:0:0:0:
470,265,42398,2,0,L|396:258,1,60,0|2,1:0|0:0,0:0:0:0:
326,259,42708,2,0,L|266:264,1,60,6|2,2:3|0:0,0:0:0:0:
151,264,43019,6,0,P|151:212|163:134,1,120,4|0,3:0|1:0,0:0:0:0:
194,67,43486,1,2,0:0:0:0:
258,120,43641,2,0,P|294:103|324:83,1,60,8|2,1:0|1:2,0:0:0:0:
362,25,43952,2,0,P|389:37|415:52,1,60,0|2,1:0|0:0,0:0:0:0:
492,86,44263,6,0,P|476:140|468:226,1,120,0|0,0:0|0:0,0:0:0:0:
464,287,44729,1,0,0:0:0:0:
390,246,44885,2,0,L|316:250,1,60,0|0,0:0|0:0,0:0:0:0:
246,256,45195,1,0,0:0:0:0:
246,256,45506,6,0,P|251:216|260:189,2,60,2|2|2,0:0|0:0|0:0,0:0:0:0:
186,315,45973,1,2,0:0:0:0:
133,249,46128,2,0,P|128:209|119:182,2,60,8|0|0,1:0|1:0|1:0,0:0:0:0:
100,326,46594,1,2,0:0:0:0:
246,256,46750,6,0,B|323:266|323:266|360:293,1,120,4|0,3:0|0:0,0:0:0:0:
422,343,47216,1,4,3:0:0:0:
357,290,47372,2,0,B|372:228|372:228|418:192,1,120,8|4,0:0|3:0,0:0:0:0:
488,149,47838,1,0,0:0:0:0:
368,67,47993,5,4,0:0:0:0:
282,211,48304,1,4,0:0:0:0:
368,67,48615,1,4,0:0:0:0:
204,24,48926,2,0,P|190:61|192:97,1,60,2|2,0:0|0:0,0:0:0:0:
234,152,49237,6,0,L|104:170,1,120,0|0,1:0|1:0,0:0:0:0:
61,233,49703,1,0,0:0:0:0:
133,275,49859,2,0,P|133:330|77:389,1,120,0|0,0:0|1:0,0:0:0:0:
11,364,50325,1,0,1:0:0:0:
133,275,50480,6,0,L|272:289,1,134.999995880127,8|8,0:0|0:0,0:0:0:0:
319,106,51102,2,0,L|180:92,1,134.999995880127,8|8,0:0|0:0,0:0:0:0:
346,192,51724,6,0,P|396:154|402:73,1,134.999995880127,8|8,0:0|0:0,0:0:0:0:
246,180,52346,2,0,P|254:245|306:286,1,134.999995880127,8|8,0:0|0:0,0:0:0:0:
284,98,52967,6,0,P|239:89|201:103,1,67.4999979400636,8|0,0:0|0:0,0:0:0:0:
181,176,53278,2,0,P|226:185|264:171,1,67.4999979400636,8|0,0:0|0:0,0:0:0:0:
338,157,53589,2,0,P|362:116|332:36,1,134.999995880127,8|8,0:0|0:0,0:0:0:0:
245,44,54056,1,0,0:0:0:0:
245,44,54211,6,0,P|265:80|292:102,2,67.4999979400636,8|0|8,0:0|0:0|0:0,0:0:0:0:
66,108,54833,2,0,L|71:184,1,67.4999979400635,8|0,0:0|0:0,0:0:0:0:
84,295,55144,1,8,0:0:0:0:
87,300,55299,1,0,0:0:0:0:
209,241,55455,6,0,P|247:247|282:269,1,67.4999979400636,12|0,0:0|0:0,0:0:0:0:
357,300,55765,2,0,P|372:270|376:236,1,67.4999979400636,8|0,0:0|0:0,0:0:0:0:
383,142,56076,2,0,L|306:148,1,67.4999979400636,8|0,0:0|0:0,0:0:0:0:
248,80,56387,2,0,L|171:86,1,67.4999979400636,8|0,0:0|0:0,0:0:0:0:
91,117,56698,6,0,P|98:158|91:198,1,67.4999979400636,8|0,0:0|0:0,0:0:0:0:
31,253,57009,2,0,P|93:233|161:269,2,134.999995880127,8|8|8,0:0|0:0|0:0,0:0:0:0:
88,328,57786,1,0,0:0:0:0:
154,260,57942,6,0,P|161:225|157:187,1,67.4999979400636,8|0,0:0|0:0,0:0:0:0:
148,99,58252,1,8,0:0:0:0:
148,99,58408,1,0,0:0:0:0:
232,141,58563,2,0,B|329:132|329:132|364:104,1,134.999995880127,8|8,0:0|0:0,0:0:0:0:
409,36,59030,1,0,0:0:0:0:
487,82,59185,6,0,L|478:179,1,67.4999979400636,8|2,0:0|3:0,0:0:0:0:
387,200,59496,2,0,L|396:297,1,67.4999979400636,8|2,0:0|3:0,0:0:0:0:
468,328,59807,2,0,B|429:312|390:320|390:320|323:344|323:344|284:356|223:330,1,236.249992790222,2|2,3:0|3:0,0:0:0:0:
203,330,60429,6,0,B|208:277|208:277|235:248|235:248|242:176,1,150,4|8,2:3|0:0,0:0:0:0:
189,98,60895,1,2,3:0:0:0:
328,146,61050,2,0,B|440:146|440:146|483:134,1,150,8|4,0:0|3:0,0:0:0:0:
312,3,61672,6,0,P|286:27|268:74,1,75,8|2,0:0|3:0,0:0:0:0:
328,146,61983,2,0,P|312:180|285:205,1,75,8|2,0:0|3:0,0:0:0:0:
168,208,62294,2,0,P|239:223|288:288,1,150,8|8,0:0|0:0,0:0:0:0:
203,346,62760,1,2,3:0:0:0:
203,346,62838,1,2,3:0:0:0:
203,346,62916,6,0,L|117:344,1,75,4|4,3:0|3:0,0:0:0:0:
35,262,63227,2,0,L|121:264,1,75,8|2,0:0|3:0,0:0:0:0:
273,196,63537,2,0,B|287:155|276:85|276:85|316:121,1,150,8|8,0:0|0:0,0:0:0:0:
378,186,64004,1,0,0:0:0:0:
286,269,64159,6,0,L|273:196,1,75,4|2,3:0|3:0,0:0:0:0:
378,186,64470,2,0,L|391:259,1,75,8|0,0:0|0:0,0:0:0:0:
334,348,64781,2,0,P|389:311|459:354,1,150,8|8,0:0|0:0,0:0:0:0:
256,279,65403,6,0,P|256:233|267:195,1,75,4|2,3:0|3:0,0:0:0:0:
279,101,65714,2,0,P|233:101|195:112,1,75,8|2,0:0|3:0,0:0:0:0:
100,118,66024,2,0,P|94:70|100:38,2,75,8|2|8,0:0|3:0|0:0,0:0:0:0:
128,237,66491,1,2,3:0:0:0:
128,237,66569,1,2,3:0:0:0:
128,237,66646,6,0,L|54:252,2,75,8|2|8,0:0|3:0|0:0,0:0:0:0:
231,215,67113,1,0,0:0:0:0:
334,237,67268,2,0,L|408:252,1,75,8|2,0:2|3:0,0:0:0:0:
428,148,67579,2,0,L|354:133,1,75,8|0,0:0|0:0,0:0:0:0:
250,117,67890,6,0,P|224:113|205:113,3,37.5,8|2|8|2,0:0|3:0|0:0|3:0,0:0:0:0:
162,129,68201,2,0,P|143:128|124:124,3,37.5,8|2|8|2,0:0|3:0|0:0|3:0,0:0:0:0:
72,123,68512,1,8,0:0:0:0:
76,149,68589,1,2,3:0:0:0:
79,176,68667,1,8,0:0:0:0:
81,202,68745,1,2,3:0:0:0:
83,229,68822,2,0,P|64:228|45:224,3,37.5,8|2|8|2,0:0|3:0|0:0|3:0,0:0:0:0:
248,222,70377,6,0,P|299:222|370:117,1,179.999994506836,4|0,3:0|0:0,0:0:0:0:
370,126,70999,1,8,0:0:0:0:
457,202,71154,1,0,0:0:0:0:
503,94,71309,1,0,0:0:0:0:
274,45,71620,6,0,P|249:104|287:220,1,179.999994506836,0|4,0:0|3:0,0:0:0:0:
375,292,72087,2,0,P|400:233|362:117,1,179.999994506836,0|0,0:0|0:0,0:0:0:0:
274,45,72553,2,0,L|176:55,1,89.9999972534181,0|0,0:0|0:0,0:0:0:0:
370,126,72864,5,4,3:0:0:0:
137,152,73175,1,0,0:0:0:0:
370,126,73486,2,0,P|414:132|457:160,1,89.9999972534181,8|0,0:0|0:0,0:0:0:0:
374,242,73796,1,4,3:0:0:0:
374,242,74107,6,0,B|313:267|244:242|244:242|270:281,1,179.999994506836,0|4,0:0|3:0,0:0:0:0:
368,345,74574,2,0,B|429:320|498:345|498:345|472:306,1,179.999994506836,0|0,0:0|3:0,0:0:0:0:
374,242,75040,2,0,P|374:194|390:145,1,89.9999972534181,4|0,3:0|0:0,0:0:0:0:
270,282,75351,6,0,B|220:276|180:282|180:282|131:264|83:265,1,179.999994506836,12|2,3:0|0:0,0:0:0:0:
92,264,75973,1,10,0:0:0:0:
174,181,76128,1,0,0:0:0:0:
257,97,76284,1,4,3:0:0:0:
257,97,76594,6,0,P|355:97|419:162,1,179.999994506836,2|4,0:0|3:0,0:0:0:0:
371,259,77061,2,0,P|273:259|209:194,1,179.999994506836,0|2,0:0|0:0,0:0:0:0:
142,101,77527,2,0,P|95:92|44:103,1,89.9999972534181,2|2,0:0|0:0,0:0:0:0:
96,221,77838,5,4,3:0:0:0:
96,221,77993,1,0,0:0:0:0:
215,207,78149,2,0,P|261:207|305:224,1,89.9999972534181,4|0,3:0|0:0,0:0:0:0:
257,330,78460,2,0,P|211:330|167:313,1,89.9999972534181,8|0,0:0|0:0,0:0:0:0:
96,221,78771,2,0,L|106:131,1,89.9999972534181,4|2,3:0|0:0,0:0:0:0:
121,15,79081,5,2,0:0:0:0:
121,15,79237,1,2,0:0:0:0:
208,91,79392,2,0,P|254:91|297:71,1,89.9999972534181,8|8,0:0|0:0,0:0:0:0:
396,17,79703,1,4,3:0:0:0:
396,17,79781,1,0,3:0:0:0:
396,17,79859,1,12,3:0:0:0:
484,92,80014,2,0,L|472:183,1,89.9999972534181,0|0,0:0|0:0,0:0:0:0:
327,251,80325,6,0,P|360:202|483:186,1,179.999994506836,4|0,3:0|0:0,0:0:0:0:
472,181,80947,1,8,0:0:0:0:
389,98,81102,1,0,0:0:0:0:
305,181,81258,2,0,P|266:176|220:157,1,89.9999972534181,4|2,3:0|3:0,0:0:0:0:
151,60,81569,6,0,B|181:251,1,179.999994506836,0|4,0:0|3:0,0:0:0:0:
103,327,82035,2,0,B|73:136,1,179.999994506836,0|0,0:0|0:0,0:0:0:0:
151,60,82501,2,0,P|202:59|254:71,1,89.9999972534181,4|0,3:0|0:0,0:0:0:0:
75,149,82812,5,4,3:0:0:0:
305,192,83123,1,2,0:0:0:0:
75,235,83434,1,10,0:0:0:0:
119,342,83589,1,0,0:0:0:0:
162,234,83745,2,0,P|118:225|75:235,1,89.9999972534181,4|2,3:0|0:0,0:0:0:0:
119,342,84056,6,0,B|201:342|201:298|303:298,1,179.999994506836,2|4,0:0|3:0,0:0:0:0:
335,191,84522,2,0,B|253:191|253:235|151:235,1,179.999994506836,0|2,0:0|0:0,0:0:0:0:
47,261,84988,2,0,P|47:201|75:156,1,89.9999972534181,4|2,3:0|0:0,0:0:0:0:
119,342,85299,6,0,P|222:327|302:291,1,179.999994506836,4|2,3:0|0:0,0:0:0:0:
291,297,85921,1,8,0:0:0:0:
359,202,86076,1,0,0:0:0:0:
241,202,86232,2,0,P|241:158|268:111,1,89.9999972534181,4|2,3:0|0:0,0:0:0:0:
366,64,86543,6,0,P|291:91|202:46,1,179.999994506836,0|4,0:0|3:0,0:0:0:0:
125,136,87009,2,0,P|165:213|139:297,1,179.999994506836,0|0,0:0|0:0,0:0:0:0:
31,346,87475,2,0,P|24:302|37:256,1,89.9999972534181,4|2,3:0|0:0,0:0:0:0:
63,37,87786,5,4,3:0:0:0:
63,37,87942,1,0,0:0:0:0:
125,136,88097,2,0,P|175:127|213:105,1,89.9999972534181,4|0,3:0|0:0,0:0:0:0:
309,48,88408,2,0,P|353:54|392:75,1,89.9999972534181,8|0,0:0|0:0,0:0:0:0:
317,165,88719,2,0,L|332:258,1,89.9999972534181,4|2,3:0|0:0,0:0:0:0:
348,370,89030,5,2,0:0:0:0:
348,370,89185,1,8,0:0:0:0:
331,254,89341,2,0,P|280:266|248:284,1,89.9999972534181,8|0,0:0|1:0,0:0:0:0:
168,369,89651,1,4,3:0:0:0:
168,369,89729,1,0,0:0:0:0:
168,369,89807,1,12,3:0:0:0:
56,334,89962,2,0,L|60:243,1,89.9999972534181,0|2,0:0|0:0,0:0:0:0:
77,115,90273,6,0,L|206:129,1,127.50000243187,6|2,3:2|3:0,0:0:0:0:
358,37,90895,1,2,3:0:0:0:
358,37,91050,2,0,P|364:70|361:104,1,63.7500012159348,2|0,3:0|0:0,0:0:0:0:
294,159,91361,6,0,P|360:146|423:183,1,127.50000243187,2|2,3:0|3:0,0:0:0:0:
395,349,91983,2,0,P|329:362|266:325,1,127.50000243187,2|2,3:0|3:0,0:0:0:0:
108,275,92605,5,2,3:0:0:0:
139,191,92760,2,0,P|157:146|161:54,2,127.50000243187,2|2|2,3:0|3:0|3:0,0:0:0:0:
72,357,93537,2,0,L|148:356,1,63.7500012159348,2|0,3:0|0:0,0:0:0:0:
242,359,93848,6,0,L|242:296|242:217,1,127.50000243187,2|2,3:0|3:0,0:0:0:0:
452,66,95092,1,0,0:0:0:0:
452,66,95247,6,0,B|463:132|463:132|449:193,1,127.50000243187,2|2,3:0|3:0,0:0:0:0:
283,122,95869,1,2,3:0:0:0:
283,122,96024,2,0,L|364:123,1,63.7500012159348,2|0,3:0|0:0,0:0:0:0:
356,211,96335,6,0,L|213:211,1,127.50000243187,2|2,3:0|3:0,0:0:0:0:
169,41,96957,2,0,L|312:41,1,127.50000243187,2|2,3:0|3:0,0:0:0:0:
356,211,97579,1,2,3:0:0:0:
442,233,97734,6,0,P|459:292|457:366,2,127.50000243187,2|2|2,3:0|3:0|3:0,0:0:0:0:
266,201,98512,2,0,P|267:169|281:129,1,63.7500012159348,2|0,3:0|0:0,0:0:0:0:
339,21,98822,6,0,P|277:39|203:36,1,127.50000243187,2|2,3:0|3:0,0:0:0:0:
214,37,99910,1,0,0:0:0:0:
124,37,100066,1,0,0:0:0:0:
35,37,100221,6,0,L|42:110,1,63.7500012159348,2|2,0:0|0:0,0:0:0:0:
130,101,100532,2,0,L|123:28,1,63.7500012159348,2|2,0:0|0:0,0:0:0:0:
214,37,100843,2,0,L|221:110,1,63.7500012159348,10|2,0:0|3:0,0:0:0:0:
235,188,101154,1,2,0:0:0:0:
235,188,101309,1,2,3:0:0:0:
304,73,101465,5,4,3:0:0:0:
220,100,101620,1,4,3:0:0:0:
235,188,101776,2,2,P|232:228|223:263,1,63.7500012159348,0|4,1:0|3:0,0:0:0:0:
154,303,102087,2,0,P|216:297|284:331,1,127.50000243187,10|4,0:0|3:0,0:0:0:0:
354,362,102553,1,2,0:0:0:0:
432,319,102708,5,4,3:0:0:0:
432,319,102864,2,0,P|431:268|424:244,2,63.7500012159348,4|4|2,3:0|3:0|0:0,0:0:0:0:
354,362,103330,1,10,0:0:0:0:
354,362,103486,1,2,3:0:0:0:
275,323,103641,2,0,P|276:272|283:248,1,63.7500012159348,2|2,0:0|3:0,0:0:0:0:
287,157,103952,6,0,P|251:160|219:175,1,63.7500012159348,4|4,3:0|3:0,0:0:0:0:
147,214,104263,2,0,P|115:212|85:200,1,63.7500012159348,4|4,3:0|3:0,0:0:0:0:
137,127,104574,2,0,P|180:85|257:67,1,127.50000243187,8|4,2:0|3:0,0:0:0:0:
332,74,105040,1,2,0:0:0:0:
429,132,105195,6,0,L|425:187,1,42.5000008106232,2|0,0:0|0:0,0:0:0:0:
305,169,105506,2,0,L|309:224,1,42.5000008106232,2|0,0:0|0:0,0:0:0:0:
346,324,105817,2,2,L|214:342,1,127.50000243187,8|2,0:0|0:0,0:0:0:0:
128,347,106284,1,2,0:0:0:0:
29,291,106439,6,2,B|24:228|24:228|32:153,1,127.50000243187,4|0,3:0|1:0,0:0:0:0:
51,63,106905,1,2,0:0:0:0:
126,131,107061,2,2,P|189:127|260:128,2,127.50000243187,8|4|4,0:0|3:0|3:0,0:0:0:0:
31,164,107838,5,0,0:0:0:0:
94,226,107993,2,0,P|92:266|81:307,1,63.7500012159348,2|0,3:0|0:0,0:0:0:0:
150,361,108304,2,2,P|181:360|213:353,1,63.7500012159348,10|0,0:0|1:0,0:0:0:0:
314,342,108615,2,2,L|309:266,1,63.7500012159348,0|0,0:0|0:0,0:0:0:0:
212,243,108926,6,0,L|226:164,1,63.7500012159348,0|2,1:0|0:0,0:0:0:0:
244,95,109237,1,0,1:0:0:0:
158,119,109392,1,2,0:0:0:0:
223,180,109548,2,2,L|304:187,1,63.7500012159348,8|2,0:0|3:0,0:0:0:0:
379,109,109859,1,0,1:0:0:0:
379,109,110170,6,0,L|240:95,1,134.999995880127,8|8,0:0|0:0,0:0:0:0:
193,278,110792,2,0,L|332:292,1,134.999995880127,8|8,0:0|0:0,0:0:0:0:
166,192,111414,6,0,P|116:230|110:311,1,134.999995880127,8|8,0:0|0:0,0:0:0:0:
266,204,112036,2,0,P|258:139|206:98,1,134.999995880127,8|8,0:0|0:0,0:0:0:0:
228,286,112657,6,0,P|273:295|311:281,1,67.4999979400636,8|0,0:0|0:0,0:0:0:0:
331,208,112968,2,0,P|286:199|248:213,1,67.4999979400636,8|0,0:0|0:0,0:0:0:0:
174,227,113279,2,0,P|150:268|180:348,1,134.999995880127,8|8,0:0|0:0,0:0:0:0:
267,340,113746,1,0,0:0:0:0:
267,340,113901,6,0,P|247:304|220:282,2,67.4999979400636,8|0|8,0:0|0:0|0:0,0:0:0:0:
455,316,114523,2,0,B|451:281|451:281|453:222,1,67.4999979400635,8|0,0:0|0:0,0:0:0:0:
495,164,114833,1,8,0:0:0:0:
478,70,114989,1,0,0:0:0:0:
364,144,115145,6,0,P|328:152|295:144,1,67.4999979400636,12|0,0:0|0:0,0:0:0:0:
210,112,115455,2,0,P|203:144|211:177,1,67.4999979400636,8|0,0:0|0:0,0:0:0:0:
223,270,115765,2,0,L|142:279,1,67.4999979400636,8|0,0:0|0:0,0:0:0:0:
191,365,116076,2,0,L|272:356,1,67.4999979400636,8|0,0:0|0:0,0:0:0:0:
353,355,116388,6,0,P|352:320|366:278,1,67.4999979400636,8|0,0:0|0:0,0:0:0:0:
429,223,116699,2,0,P|367:243|299:207,2,134.999995880127,8|8|8,0:0|0:0|0:0,0:0:0:0:
372,148,117476,1,0,0:0:0:0:
306,215,117632,6,0,P|299:250|303:288,1,67.4999979400636,8|0,0:0|0:0,0:0:0:0:
308,375,117942,1,8,0:0:0:0:
308,375,118098,1,0,0:0:0:0:
226,327,118253,2,0,B|160:306|158:350|77:320,1,134.999995880127,8|8,0:0|0:0,0:0:0:0:
36,248,118720,1,0,0:0:0:0:
129,238,118875,6,0,B|138:202|138:202|138:141,1,67.4999979400636,8|2,0:0|3:0,0:0:0:0:
208,53,119185,2,0,B|208:84|208:84|217:120,1,67.4999979400636,8|2,0:0|3:0,0:0:0:0:
243,211,119497,2,0,B|299:182|299:182|352:193|352:193|401:179|401:179|464:211,1,236.249992790222,2|2,0:0|0:0,0:0:0:0:
462,210,120119,6,0,P|462:284|403:337,1,150,4|8,2:3|0:0,0:0:0:0:
310,368,120585,1,2,3:0:0:0:
192,319,120740,2,0,B|122:301|122:301|46:318,1,150,8|4,0:0|3:0,0:0:0:0:
45,107,121362,6,0,P|83:100|124:109,1,75,8|2,0:0|3:0,0:0:0:0:
190,182,121672,2,0,P|226:188|263:181,1,75,2|0,3:0|0:0,0:0:0:0:
401,121,121983,2,0,P|401:194|448:256,1,150,8|8,0:0|0:0,0:0:0:0:
472,356,122450,1,2,3:0:0:0:
472,356,122528,1,2,3:0:0:0:
472,356,122606,6,0,L|386:354,1,75,4|4,3:0|3:0,0:0:0:0:
322,279,122917,2,0,L|236:277,1,75,8|2,0:0|3:0,0:0:0:0:
102,216,123227,2,0,P|102:151|150:79,1,150,8|8,0:0|0:0,0:0:0:0:
231,22,123694,1,0,0:0:0:0:
310,89,123848,6,0,P|316:129|313:173,1,75,4|2,3:0|3:0,0:0:0:0:
300,267,124159,2,0,P|260:273|216:270,1,75,10|0,0:0|0:0,0:0:0:0:
141,333,124471,2,0,P|177:271|140:210,1,150,8|10,0:0|0:0,0:0:0:0:
289,61,125093,6,0,P|335:61|373:72,1,75,4|2,3:0|3:0,0:0:0:0:
362,173,125404,2,0,P|325:181|288:180,1,75,8|2,2:3|3:0,0:0:0:0:
184,186,125714,2,0,P|184:225|196:263,2,75,8|2|4,3:2|3:0|3:0,0:0:0:0:
259,108,126181,1,2,3:0:0:0:
259,108,126259,1,2,3:0:0:0:
259,108,126336,6,0,L|333:93,2,75,8|2|4,3:2|3:0|3:0,0:0:0:0:
183,180,126803,1,0,0:0:0:0:
95,123,126958,2,0,L|21:108,1,75,8|2,0:2|3:0,0:0:0:0:
14,213,127269,2,0,L|88:228,1,75,4|0,3:0|0:0,0:0:0:0:
184,186,127579,6,0,L|246:189,3,37.5,6|2|4|2,3:0|3:0|3:0|3:0,0:0:0:0:
258,225,127890,2,0,L|295:222,3,37.5,6|2|4|2,3:0|3:0|3:0|3:0,0:0:0:0:
348,219,128201,1,6,3:0:0:0:
347,192,128278,1,2,3:0:0:0:
360,169,128356,1,4,3:0:0:0:
382,154,128434,1,2,3:0:0:0:
408,151,128512,2,0,L|405:114,3,37.5,6|2|4|2,3:0|3:0|3:0|3:0,0:0:0:0:
257,110,130067,6,0,P|206:110|135:215,1,179.999994506836,4|0,3:0|0:0,0:0:0:0:
134,205,130689,1,8,0:0:0:0:
189,307,130844,1,0,0:0:0:0:
72,307,130999,1,0,0:0:0:0:
306,307,131310,6,0,P|331:248|293:132,1,179.999994506836,0|4,0:0|3:0,0:0:0:0:
184,140,131777,2,0,P|159:199|197:315,1,179.999994506836,0|0,0:0|0:0,0:0:0:0:
306,306,132243,2,0,L|404:296,1,89.9999972534181,0|0,0:0|0:0,0:0:0:0:
189,306,132554,5,4,3:0:0:0:
256,81,132865,1,0,0:0:0:0:
306,306,133176,2,0,P|350:300|393:272,1,89.9999972534181,8|0,0:0|0:0,0:0:0:0:
309,190,133486,1,4,3:0:0:0:
309,190,133797,6,0,B|263:144|263:144|143:144,1,179.999994506836,0|4,0:0|3:0,0:0:0:0:
46,203,134263,2,0,B|92:249|92:249|212:249,1,179.999994506836,0|0,0:0|3:0,0:0:0:0:
309,190,134730,2,0,P|309:142|293:93,1,89.9999972534181,4|0,3:0|0:0,0:0:0:0:
130,60,135040,6,0,P|198:101|299:101,1,179.999994506836,12|2,3:0|0:0,0:0:0:0:
296,101,135663,1,10,0:0:0:0:
296,217,135818,1,0,0:0:0:0:
296,334,135974,1,4,3:0:0:0:
296,101,136284,6,0,P|198:101|134:166,1,179.999994506836,2|4,0:0|3:0,0:0:0:0:
107,266,136750,2,0,P|205:266|269:201,1,179.999994506836,0|2,0:0|0:0,0:0:0:0:
296,101,137217,2,0,P|336:101|382:126,1,89.9999972534181,2|2,0:0|0:0,0:0:0:0:
494,218,137528,5,4,3:0:0:0:
494,218,137683,1,0,0:0:0:0:
347,237,137838,2,0,P|307:237|261:212,1,89.9999972534181,4|0,3:0|0:0,0:0:0:0:
296,101,138149,2,0,P|336:101|382:126,1,89.9999972534181,8|0,0:0|0:0,0:0:0:0:
494,218,138461,2,0,L|483:314,1,89.9999972534181,4|2,3:0|0:0,0:0:0:0:
347,237,138771,5,2,0:0:0:0:
347,237,138927,1,2,0:0:0:0:
379,123,139081,2,0,P|340:102|296:101,1,89.9999972534181,8|8,0:0|0:0,0:0:0:0:
177,100,139393,1,4,3:0:0:0:
177,100,139471,1,0,3:0:0:0:
177,100,139549,1,12,3:0:0:0:
236,200,139704,2,0,L|247:289,1,89.9999972534181,0|0,0:0|0:0,0:0:0:0:
80,336,140015,6,0,B|154:289|154:289|246:289,1,179.999994506836,4|0,3:0|0:0,0:0:0:0:
246,289,140637,1,8,0:0:0:0:
358,258,140792,1,0,0:0:0:0:
470,226,140947,2,0,P|470:185|449:136,1,89.9999972534181,4|2,3:0|3:0,0:0:0:0:
368,56,141259,6,0,P|280:56|215:122,1,179.999994506836,0|4,0:0|3:0,0:0:0:0:
217,233,141724,2,0,P|280:294|367:293,1,179.999994506836,0|0,0:0|0:0,0:0:0:0:
451,210,142191,2,0,P|451:164|434:123,1,89.9999972534181,4|0,3:0|0:0,0:0:0:0:
368,294,142502,5,4,3:0:0:0:
155,192,142813,1,2,0:0:0:0:
368,90,143123,1,10,0:0:0:0:
415,197,143279,1,0,0:0:0:0:
456,90,143435,2,0,P|412:81|368:90,1,89.9999972534181,4|2,3:0|0:0,0:0:0:0:
256,124,143746,6,0,B|256:191|256:191|272:229|272:229|272:308,1,179.999994506836,2|4,0:0|3:0,0:0:0:0:
176,368,144211,2,0,B|176:301|176:301|160:263|160:263|160:184,1,179.999994506836,0|2,0:0|0:0,0:0:0:0:
256,124,144678,2,0,P|316:124|361:152,1,89.9999972534181,4|2,3:0|0:0,0:0:0:0:
426,281,144989,6,0,P|337:280|288:212,1,179.999994506836,4|2,3:0|0:0,0:0:0:0:
288,211,145611,1,8,0:0:0:0:
370,128,145766,1,0,0:0:0:0:
286,44,145922,2,0,P|242:44|195:71,1,89.9999972534181,4|2,3:0|0:0,0:0:0:0:
93,110,146233,6,0,P|56:185|90:273,1,179.999994506836,0|4,0:0|3:0,0:0:0:0:
172,193,146698,2,0,P|253:161|332:198,1,179.999994506836,0|0,0:0|0:0,0:0:0:0:
416,281,147165,2,0,P|443:239|453:198,1,89.9999972534181,4|2,3:0|0:0,0:0:0:0:
377,28,147476,5,4,3:0:0:0:
377,28,147632,1,0,0:0:0:0:
352,141,147786,2,0,L|261:129,1,89.9999972534181,4|0,3:0|0:0,0:0:0:0:
145,129,148097,2,0,L|55:140,1,89.9999972534181,8|0,0:0|0:0,0:0:0:0:
53,258,148408,2,0,L|142:246,1,89.9999972534181,4|2,3:0|0:0,0:0:0:0:
260,239,148720,5,0,0:0:0:0:
260,239,148875,1,2,0:0:0:0:
374,214,149031,2,0,P|374:168|351:124,1,89.9999972534181,8|8,0:0|0:0,0:0:0:0:
256,66,149341,1,4,3:0:0:0:
256,66,149419,1,0,0:0:0:0:
256,66,149497,1,12,3:0:0:0:
174,147,149651,2,0,P|128:147|84:124,1,89.9999972534181,0|2,0:0|0:0,0:0:0:0:
160,9,149962,5,4,0:0:0:0:
425,303,159910,6,0,B|355:303|355:303|272:326,1,150,4|0,3:0|0:0,0:0:0:0:
184,379,160377,1,2,3:0:0:0:
197,256,160532,2,0,P|197:189|137:123,1,150,8|4,0:0|3:0,0:0:0:0:
69,53,160999,6,0,P|140:80|224:55,1,150,0|2,0:0|3:0,0:0:0:0:
311,25,161465,2,0,P|350:19|399:31,1,75,0|2,0:0|0:0,0:0:0:0:
350,144,161776,2,0,B|241:137|241:137|196:158,1,150,8|8,0:0|0:0,0:0:0:0:
123,222,162242,1,2,3:0:0:0:
123,222,162320,1,2,3:0:0:0:
123,222,162398,6,0,L|129:299,1,75,6|4,3:0|3:0,0:0:0:0:
217,323,162708,2,0,L|212:249,1,75,8|2,0:0|3:0,0:0:0:0:
186,49,163019,2,0,P|271:49|349:65,1,150,8|8,0:0|0:0,0:0:0:0:
429,13,163486,1,0,0:0:0:0:
485,100,163641,6,0,L|473:201,2,75,4|2|8,3:0|3:0|0:0,0:0:0:0:
296,192,164263,2,0,L|308:293,1,75,4|2,3:0|3:0,0:0:0:0:
394,322,164574,1,8,0:0:0:0:
201,237,164885,6,0,L|121:246,2,75,6|2|8,3:0|3:0|0:0,0:0:0:0:
296,192,165351,1,2,3:0:0:0:
201,147,165506,2,0,P|136:137|80:60,1,150,8|8,0:0|0:0,0:0:0:0:
183,45,165973,1,2,3:0:0:0:
183,45,166050,1,2,3:0:0:0:
183,45,166128,6,0,L|269:53,1,75,8|2,0:0|3:0,0:0:0:0:
276,154,166439,2,0,L|201:147,1,75,8|2,0:0|3:0,0:0:0:0:
83,75,166750,2,0,B|67:126|67:126|72:235,1,150,8|8,0:0|0:0,0:0:0:0:
125,335,167216,1,2,3:0:0:0:
232,282,167372,6,0,P|254:279|271:281,3,37.5,8|2|8|2,0:0|3:0|0:0|3:0,0:0:0:0:
320,291,167683,2,0,P|338:292|357:289,3,37.5,8|2|8|2,0:0|3:0|0:0|3:0,0:0:0:0:
409,287,167993,1,8,0:0:0:0:
399,262,168071,1,2,3:0:0:0:
395,235,168149,1,8,0:0:0:0:
398,209,168227,1,2,3:0:0:0:
406,183,168304,2,0,P|407:165|404:146,3,37.5,8|2|8|2,0:0|3:0|0:0|3:0,3:3:0:0:
406,225,169859,5,4,3:0:0:0:
172,225,170170,1,0,0:0:0:0:
406,139,170480,1,8,0:0:0:0:
172,139,170791,1,0,0:0:0:0:
406,139,171102,6,0,B|419:229|419:229|404:325,1,179.999994506836,0|4,0:0|3:0,0:0:0:0:
287,318,171569,2,0,B|300:230|300:230|287:140,1,179.999994506836
252,27,172035,2,0,P|213:44|161:46,1,89.9999972534181,0|0,0:0|0:0,0:0:0:0:
345,68,172346,5,4,3:0:0:0:
345,68,172657,2,0,L|437:92,1,89.9999972534181,0|0,0:0|0:0,0:0:0:0:
489,192,172967,1,8,0:0:0:0:
373,192,173123,1,0,0:0:0:0:
432,294,173278,1,4,3:0:0:0:
373,192,173434,1,0,0:0:0:0:
432,90,173589,6,0,P|358:117|248:122,1,179.999994506836,0|4,0:0|3:0,0:0:0:0:
233,7,174056,2,0,P|229:96|199:181,1,179.999994506836,0|0,0:0|3:0,0:0:0:0:
174,295,174522,2,0,P|218:291|266:302,1,89.9999972534181,4|0,3:0|0:0,0:0:0:0:
198,181,174833,6,0,L|97:195,1,89.9999972534181,12|2,3:0|0:0,0:0:0:0:
110,76,175144,2,0,L|211:90,1,89.9999972534181,2|2,0:0|0:0,0:0:0:0:
304,139,175455,2,0,P|382:140|459:64,1,179.999994506836,10|4,0:0|3:0,0:0:0:0:
346,29,175921,1,2,0:0:0:0:
304,139,176076,6,0,L|319:329,1,179.999994506836,2|4,0:0|3:0,0:0:0:0:
199,318,176543,2,0,L|213:138,1,179.999994506836,0|2,0:0|0:0,0:0:0:0:
256,28,177009,2,0,P|302:25|351:30,1,89.9999972534181,2|2,0:0|0:0,0:0:0:0:
213,138,177320,6,0,L|120:122,1,89.9999972534181,4|0,3:0|0:0,0:0:0:0:
7,106,177631,1,4,3:0:0:0:
124,123,177786,1,0,0:0:0:0:
36,259,177942,2,0,L|42:368,1,89.9999972534181,8|0,0:0|0:0,0:0:0:0:
153,355,178252,2,0,L|147:246,1,89.9999972534181,4|2,3:0|0:0,0:0:0:0:
124,123,178563,5,2,0:0:0:0:
226,64,178719,2,0,P|270:59|314:67,2,89.9999972534181,2|8|8,0:0|0:0|0:0,0:0:0:0:
268,192,179185,1,4,3:0:0:0:
268,192,179263,1,0,3:0:0:0:
268,192,179341,1,12,3:0:0:0:
314,68,179496,2,0,B|373:90|373:90|449:89,1,134.999995880127
507,47,179807,6,0,P|498:90|509:144,1,89.9999972534181,4|0,3:0|0:0,0:0:0:0:
403,193,180118,2,0,P|412:236|401:290,1,89.9999972534181,0|0,0:0|0:0,0:0:0:0:
295,238,180429,2,0,P|287:177|358:85,1,179.999994506836,8|4,0:0|3:0,0:0:0:0:
403,193,180895,1,2,3:0:0:0:
295,238,181050,6,0,B|203:238|203:238|119:197,1,179.999994506836,0|4,0:0|3:0,0:0:0:0:
100,315,181517,2,0,B|179:353|179:353|271:353,1,179.999994506836,0|0,0:0|0:0,0:0:0:0:
377,303,181983,2,0,B|422:303|422:303|470:333,1,89.9999972534181,4|0,3:0|0:0,0:0:0:0:
295,238,182294,6,0,B|209:212|209:212|123:241,1,179.999994506836,4|2,3:0|0:0,0:0:0:0:
22,301,182760,1,4,3:0:0:0:
124,241,182916,2,0,P|124:198|101:150,1,89.9999972534181,10|0,0:0|0:0,0:0:0:0:
53,49,183227,1,4,3:0:0:0:
105,156,183382,1,2,0:0:0:0:
166,56,183537,6,0,P|256:80|318:141,1,179.999994506836,2|4,0:0|3:0,0:0:0:0:
256,239,184004,2,0,P|166:215|104:154,1,179.999994506836,0|2,0:0|0:0,0:0:0:0:
49,52,184470,1,4,3:0:0:0:
166,56,184626,1,2,0:0:0:0:
105,156,184781,6,0,P|90:197|89:252,1,89.9999972534181,4|2,3:0|0:0,0:0:0:0:
203,267,185092,2,0,P|217:225|219:171,1,89.9999972534181,2|2,0:0|0:0,0:0:0:0:
213,62,185403,2,0,L|306:76,1,89.9999972534181,8|0,0:0|0:0,0:0:0:0:
309,193,185714,2,0,L|216:179,1,89.9999972534181,4|2,3:0|0:0,0:0:0:0:
105,156,186024,6,0,L|111:351,1,179.999994506836,0|4,0:0|3:0,0:0:0:0:
226,360,186491,2,0,L|220:165,1,179.999994506836,0|0,0:0|0:0,0:0:0:0:
213,62,186957,1,4,3:0:0:0:
213,62,187113,1,2,0:0:0:0:
309,193,187268,6,0,P|358:181|400:149,1,89.9999972534181,4|0,3:0|0:0,0:0:0:0:
468,71,187579,1,4,3:0:0:0:
468,71,187734,1,0,0:0:0:0:
323,56,187890,1,8,0:0:0:0:
323,56,188045,1,0,0:0:0:0:
390,159,188201,1,4,3:0:0:0:
390,159,188356,1,2,0:0:0:0:
236,142,188512,6,0,P|215:182|215:245,1,89.9999972534181,4|2,3:0|0:0,0:0:0:0:
251,335,188822,1,8,0:0:0:0:
343,260,188978,1,8,0:0:0:0:
412,353,189133,1,4,3:0:0:0:
412,353,189211,1,0,0:0:0:0:
412,353,189289,1,12,3:0:0:0:
343,260,189444,1,0,0:0:0:0:
456,229,189600,1,2,0:0:0:0:
