osu file format v14

[General]
AudioFilename: 24K () - (Superfly).mp3
AudioLeadIn: 0
PreviewTime: 69133
Countdown: 0
SampleSet: Soft
StackLeniency: 0.3
Mode: 0
LetterboxInBreaks: 0
WidescreenStoryboard: 0

[Editor]
DistanceSpacing: 1
BeatDivisor: 4
GridSize: 32
TimelineZoom: 1.300001

[Metadata]
Title:SUPERFLY
TitleUnicode:날라리
Artist:24K
ArtistUnicode:투포케이
Creator:DeRandom Otaku
Version:Firetruck's Normal
Source:
Tags:Trap Choeun Entertainment K-pop Kpop 코리 기수 정욱 휘 창선 진홍 홍섭 병호 석준 성오 대일 Cory Kisu Jeunguk Hui Changsun Jinhong Hongseob Byungho Seokjun Sungoh Daeil cool c00l Firetruck Neoskylove Akitoshi Corinn
BeatmapID:1187597
BeatmapSetID:558362

[Difficulty]
HPDrainRate:4
CircleSize:3.3
OverallDifficulty:4
ApproachRate:5
SliderMultiplier:2.2
SliderTickRate:2

[Events]
//Background and Video events
0,0,"BG.jpg",0,0
//Break Periods
2,90273,99021
2,149962,158710
//Storyboard Layer 0 (Background)
//Storyboard Layer 1 (Fail)
//Storyboard Layer 2 (Pass)
//Storyboard Layer 3 (Foreground)
//Storyboard Sound Samples

[TimingPoints]
740,621.761658031088,4,2,1,50,1,0
740,-100,4,2,1,50,0,0
9444,-100,4,2,1,50,0,0
10066,-100,4,2,1,40,0,0
10377,-100,4,2,1,50,0,0
10688,-100,4,2,2,60,0,0
18149,-100,4,2,2,60,0,0
20636,-100,4,2,1,70,0,1
20947,-100,4,2,1,70,0,1
30584,-100,4,2,1,60,0,0
31206,-100,4,2,1,45,0,0
50480,-100,4,2,2,55,0,0
70377,-100,4,2,1,70,0,1
80170,-100,4,2,1,70,0,0
80325,-100,4,2,1,75,0,1
90273,-100,4,2,1,50,0,0
110170,-100,4,2,2,50,0,0
120118,-100,4,2,2,60,0,0
130066,-100,4,2,1,70,0,1
139859,-100,4,2,1,70,0,0
140014,-100,4,2,1,75,0,1
149962,-100,4,2,1,75,0,0
159910,-100,4,2,2,60,0,0
169859,-100,4,2,1,70,0,1
179496,-100,4,2,1,70,0,0
179729,-100,4,2,1,5,0,0
179807,-100,4,2,1,75,0,1
189600,-100,4,2,1,75,0,0

[Colours]
Combo1 : 156,22,83
Combo2 : 0,128,255
Combo3 : 146,255,36
Combo4 : 242,82,13

[HitObjects]
52,160,740,6,0,P|104:149|163:157,1,110,6|0,2:3|0:0,0:0:0:0:
210,178,1206,1,2,3:0:0:0:
210,178,1361,2,0,P|265:188|320:177,1,110,10|2,0:0|3:0,0:0:0:0:
419,135,1983,1,0,0:0:0:0:
444,242,2294,1,2,3:0:0:0:
373,326,2605,2,0,P|317:317|266:326,1,110,10|2,0:0|3:0,3:3:0:0:
161,289,3227,6,0,B|176:239|150:234|166:178,1,110,0|2,0:0|3:0,0:0:0:0:
174,125,3693,1,2,3:0:0:0:
174,125,3848,2,0,P|228:114|284:124,1,110,10|2,0:0|3:0,0:0:0:0:
372,185,4470,2,0,P|384:241|373:294,2,110,0|2|10,0:0|3:0|0:0,0:0:0:0:
385,75,5403,1,2,3:0:0:0:
281,123,5714,6,0,B|242:120|242:120|212:124|212:124|153:119,1,110,2|0,3:0|0:0,0:0:0:0:
116,125,6180,1,0,3:0:0:0:
116,125,6335,2,0,L|104:238,1,110,10|2,0:0|3:0,0:0:0:0:
159,329,6957,1,0,0:0:0:0:
253,271,7268,1,0,3:0:0:0:
352,317,7579,2,0,P|405:307|461:318,1,110,10|2,0:0|3:0,3:3:0:0:
503,216,8201,6,0,L|485:106,1,110
474,53,8667,1,2,3:0:0:0:
474,53,8822,2,0,P|421:64|367:55,1,110,10|2,0:0|3:0,0:0:0:0:
257,36,9444,1,2,3:0:0:0:
162,92,9755,2,0,P|137:107|121:126,1,55,2|0,3:0|0:0,0:0:0:0:
112,180,10066,1,2,3:0:0:0:
101,289,10377,1,2,3:0:0:0:
199,240,10688,6,0,P|256:228|312:240,1,110,4|8,2:3|0:0,0:0:0:0:
367,328,11309,2,0,P|310:340|254:328,1,110,8|4,0:0|3:0,0:0:0:0:
199,240,11931,2,0,L|226:179,2,55,8|2|8,0:0|3:0|0:0,0:0:0:0:
178,291,12398,1,0,0:0:0:0:
178,291,12553,2,0,P|123:280|66:291,1,110,8|8,0:0|0:0,0:0:0:0:
30,186,13175,6,0,P|20:136|36:77,1,110,4|8,3:0|0:0,0:0:0:0:
126,139,13796,2,0,P|136:189|120:248,1,110,8|8,0:0|0:0,0:0:0:0:
63,339,14418,2,0,L|12:366,2,55,4|4|8,3:0|3:0|0:0,0:0:0:0:
118,341,14885,1,0,0:0:0:0:
118,341,15040,2,0,P|173:350|229:341,1,110,8|2,0:0|3:0,0:0:0:0:
308,267,15662,6,0,L|314:152,1,110,4|8,3:0|0:0,0:0:0:0:
417,119,16284,2,0,L|411:234,1,110,8|8,0:2|0:0,0:0:0:0:
308,267,16905,2,0,L|240:262,1,55,8|2,0:2|3:0,0:0:0:0:
204,289,17216,2,0,L|136:284,1,55,8|0,0:0|0:0,0:0:0:0:
104,317,17527,2,0,P|114:262|105:210,1,110,8|8,0:2|0:0,0:0:0:0:
94,99,18149,6,0,L|162:104,1,55,8|8,0:0|0:0,0:0:0:0:
198,77,18460,2,0,L|266:82,1,55,8|8,0:0|0:0,0:0:0:0:
298,49,18771,2,0,P|352:40|410:51,2,110,8|8|0,0:0|0:0|0:0,0:0:0:0:
298,49,20636,6,0,P|284:106|289:157,1,110,4|0,3:0|0:0,0:0:0:0:
377,223,21258,2,0,L|431:222,2,55,8|0|0,0:0|0:0|0:0,0:0:0:0:
306,307,21879,2,0,P|252:297|198:307,1,110,0|4,0:0|3:0,0:0:0:0:
155,271,22346,2,0,P|167:220|156:163,1,110,0|0,0:0|0:0,0:0:0:0:
145,109,22812,1,0,0:0:0:0:
230,40,23123,6,0,P|284:29|340:38,1,110,4|0,3:0|0:0,0:0:0:0:
444,63,23745,2,0,L|482:7,2,55,8|0|4,0:0|0:0|3:0,0:0:0:0:
399,163,24366,2,0,P|388:218|399:272,1,110,0|4,0:0|3:0,0:0:0:0:
386,324,24833,2,0,P|329:314|276:324,1,110,0|0,0:0|3:0,0:0:0:0:
228,348,25299,2,0,L|200:288,1,55,4|0,3:0|0:0,0:0:0:0:
178,249,25610,6,0,P|125:260|70:251,1,110,12|2,3:0|0:0,0:0:0:0:
24,150,26232,2,0,L|-2:88,2,55,10|0|0,0:0|0:0|0:0,0:0:0:0:
70,251,26853,2,0,P|123:239|177:248,1,110,2|4,0:0|3:0,0:0:0:0:
226,275,27320,2,0,P|279:286|333:277,1,110,0|0,0:0|0:0,0:0:0:0:
386,260,27786,1,2,0:0:0:0:
492,231,28097,6,0,L|495:113,1,110,4|4,3:0|3:0,0:0:0:0:
388,150,28719,2,0,L|385:268,1,110,8|4,0:0|3:0,0:0:0:0:
297,326,29341,2,0,P|239:318|186:329,2,110,2|0|4,0:0|1:0|3:0,0:0:0:0:
385,259,30273,1,0,0:0:0:0:
372,149,30584,5,2,0:0:0:0:
395,41,30895,2,0,B|359:37|359:37|330:41|330:41|284:35,1,110,0|8,0:0|1:0,0:0:0:0:
175,26,31517,1,0,1:0:0:0:
199,133,31828,2,0,P|209:189|193:243,2,110,4|0|8,1:3|1:0|1:0,0:0:0:0:
175,26,32760,1,0,0:0:0:0:
96,102,33071,5,0,1:0:0:0:
199,133,33382,2,0,L|312:159,1,110,0|8,1:0|1:0,0:0:0:0:
405,109,34004,1,0,1:0:0:0:
463,202,34315,2,0,B|482:240|482:240|487:268|487:268|505:308,2,110,0|2|8,1:0|1:3|1:0,0:0:0:0:
405,109,35247,1,0,1:0:0:0:
316,174,35558,5,0,1:0:0:0:
225,111,35869,2,0,P|170:103|118:113,2,110,0|8|0,1:0|1:0|1:0,0:0:0:0:
316,174,36802,2,0,P|305:230|319:281,1,110,4|0,1:3|1:0,0:0:0:0:
418,326,37423,2,0,P|429:270|415:219,1,110,8|4,1:0|3:0,0:0:0:0:
316,174,38045,6,0,B|278:167|278:167|251:169|251:169|200:161,1,110,4|0,3:0|1:0,0:0:0:0:
188,53,38667,2,0,B|226:46|226:46|253:48|253:48|304:40,1,110,8|0,1:0|1:0,0:0:0:0:
407,37,39289,1,4,1:3:0:0:
453,136,39600,1,0,1:0:0:0:
414,238,39910,2,0,P|405:296|417:348,1,110,0|0,0:0|1:0,0:0:0:0:
416,346,41465,2,0,B|353:340,1,55,2|2,0:0|0:0,0:0:0:0:
309,360,41776,6,0,P|319:308|308:251,1,110,6|0,2:3|1:0,0:0:0:0:
286,145,42398,2,0,P|234:155|177:143,1,110,0|6,1:0|2:3,0:0:0:0:
81,91,43019,1,4,3:0:0:0:
49,196,43330,1,0,1:0:0:0:
87,298,43641,2,0,P|140:311|194:299,1,110,8|0,1:0|1:0,0:0:0:0:
193,299,45506,6,0,L|239:193,1,110,2|2,0:0|0:0,0:0:0:0:
295,104,46128,1,8,1:0:0:0:
348,200,46439,1,0,1:0:0:0:
236,198,46750,2,0,B|200:196|200:196|166:200|166:200|123:197,2,110,4|0|8,3:0|0:0|0:0,0:0:0:0:
348,200,47683,1,4,3:0:0:0:
338,90,47993,6,0,L|274:77,1,55,4|0,0:0|0:0,0:0:0:0:
234,56,48304,2,0,L|170:43,1,55,4|0,0:0|0:0,0:0:0:0:
142,88,48615,2,0,L|125:204,1,110,4|2,0:0|0:0,0:0:0:0:
204,275,49237,2,0,P|258:285|312:278,2,110,0|0|0,1:0|1:0|0:0,0:0:0:0:
126,196,50170,1,0,1:0:0:0:
126,86,50480,6,0,L|240:77,1,110,8|8,0:0|0:0,0:0:0:0:
326,140,51102,2,0,L|440:131,1,110,8|8,0:0|0:0,0:0:0:0:
505,216,51724,2,0,P|512:275|502:327,2,110,8|8|8,0:0|0:0|0:0,0:0:0:0:
435,131,52657,1,8,0:0:0:0:
335,84,52967,6,0,L|266:80,1,55,8|0,0:0|0:0,0:0:0:0:
232,52,53278,2,0,P|242:109|229:162,1,110,8|8,0:0|0:0,0:0:0:0:
214,268,53900,1,8,0:0:0:0:
115,218,54211,2,0,P|61:207|6:219,2,110,8|8|8,0:0|0:0|0:0,0:0:0:0:
214,268,55144,1,8,0:0:0:0:
312,316,55455,6,0,L|369:302,1,55,12|0,0:0|0:0,0:0:0:0:
393,255,55765,2,0,L|450:241,1,55,8|0,0:0|0:0,0:0:0:0:
491,210,56076,2,0,P|481:161|488:100,1,110,8|8,0:0|0:0,0:0:0:0:
394,42,56698,2,0,P|340:52|286:40,2,110,8|8|8,0:0|0:0|0:0,0:0:0:0:
487,101,57631,1,8,0:0:0:0:
461,207,57942,5,8,0:0:0:0:
428,311,58252,2,0,P|372:299|316:312,1,110,8|8,0:0|0:0,0:0:0:0:
213,286,58874,1,8,0:0:0:0:
106,314,59185,2,0,L|100:259,1,55,8|2,0:0|3:0,0:0:0:0:
91,204,59496,2,0,P|141:184|170:136,1,110,8|2,0:0|3:0,0:0:0:0:
199,31,60118,1,0,3:0:0:0:
295,84,60429,6,0,B|348:68|348:93|408:80,1,110,4|8,2:3|0:0,0:0:0:0:
478,161,61050,2,0,P|467:215|481:269,1,110,8|4,0:0|3:0,0:0:0:0:
388,329,61672,2,0,P|335:319|281:329,2,110,8|8|8,0:0|0:0|0:0,0:0:0:0:
480,267,62605,1,8,0:0:0:0:
443,163,62916,6,0,L|419:113,1,55,4|4,3:0|3:0,0:0:0:0:
391,65,63227,2,0,P|336:76|282:65,1,110,8|8,0:0|0:0,0:0:0:0:
178,33,63848,1,8,0:0:0:0:
104,114,64159,2,0,L|34:207,2,110,4|8|8,3:0|0:0|0:0,0:0:0:0:
178,33,65092,1,8,0:0:0:0:
283,65,65403,5,4,3:0:0:0:
390,39,65714,2,0,L|499:13,2,110,8|8|8,0:0|0:0|0:0,0:0:0:0:
283,65,66646,2,0,B|237:53|231:75|175:61,1,110,8|8,0:0|0:0,0:0:0:0:
66,85,67268,2,0,P|75:135|57:195,1,110,8|8,0:2|0:0,0:0:0:0:
256,192,67890,12,8,68978,0:0:0:0:
50,52,70377,6,0,P|103:41|163:52,1,110,4|0,3:0|0:0,0:0:0:0:
267,57,70999,2,0,L|306:15,2,55,8|0|0,0:0|0:0|0:0,0:0:0:0:
229,160,71620,2,0,P|218:214|229:269,1,110,0|4,0:0|3:0,0:0:0:0:
248,319,72087,2,0,P|303:309|358:318,1,110,0|0,0:0|0:0,0:0:0:0:
407,336,72553,1,0,0:0:0:0:
479,253,72864,6,0,P|470:202|483:146,1,110,4|0,3:0|0:0,0:0:0:0:
422,53,73486,2,0,L|452:-9,2,55,8|0|4,0:0|0:0|3:0,0:0:0:0:
321,96,74107,2,0,B|270:82|271:107|209:94,1,110,0|4,0:0|3:0,0:0:0:0:
157,86,74574,2,0,P|164:141|149:196,1,110,0|0,0:0|3:0,0:0:0:0:
143,247,75040,2,0,L|197:268,1,55,4|0,3:0|0:0,0:0:0:0:
244,288,75351,6,0,P|294:276|352:287,1,110,12|2,3:0|0:0,0:0:0:0:
452,328,75973,2,0,L|485:375,2,55,10|0|4,0:0|0:0|3:0,0:0:0:0:
436,219,76594,2,0,L|436:104,1,110,2|4,0:0|3:0,0:0:0:0:
432,53,77061,2,0,P|380:65|325:54,1,110,0|2,0:0|0:0,0:0:0:0:
271,40,77527,1,2,0:0:0:0:
210,131,77838,6,0,P|221:183|209:237,1,110,4|4,3:0|3:0,0:0:0:0:
98,238,78460,2,0,P|87:186|99:132,1,110,8|4,0:0|3:0,0:0:0:0:
210,131,79081,2,0,B|246:126|246:126|284:132|284:132|337:129,2,110,2|8|4,0:0|0:0|3:0,0:0:0:0:
99,131,80014,1,0,0:0:0:0:
155,225,80325,6,0,B|145:281|145:281|153:337,1,110,4|0,3:0|0:0,0:0:0:0:
250,283,80947,2,0,L|313:282,2,55,8|0|4,0:0|0:0|3:0,0:0:0:0:
155,225,81569,2,0,L|141:113,1,110,0|4,0:0|3:0,0:0:0:0:
134,61,82035,2,0,P|194:65|243:43,1,110,0|0,0:0|0:0,0:0:0:0:
288,21,82501,2,0,L|341:56,1,55,4|0,3:0|0:0,0:0:0:0:
378,83,82812,6,0,P|369:144|383:193,1,110,4|2,3:0|0:0,0:0:0:0:
428,289,83434,2,0,L|481:304,2,55,10|0|4,0:0|0:0|3:0,0:0:0:0:
321,318,84056,2,0,B|264:331|261:305|210:326,1,110,2|4,0:0|3:0,0:0:0:0:
160,342,84522,2,0,P|173:288|164:231,1,110,0|2,0:0|0:0,0:0:0:0:
155,180,84988,2,0,L|189:120,1,55,4|2,3:0|0:0,0:0:0:0:
212,85,85299,6,0,B|250:81|250:81|283:88|283:88|325:85,1,110,4|2,3:0|0:0,0:0:0:0:
430,69,85921,2,0,L|470:29,2,55,8|0|4,0:0|0:0|3:0,0:0:0:0:
396,174,86543,2,0,B|407:230|407:230|399:287,1,110,0|4,0:0|3:0,0:0:0:0:
375,331,87009,2,0,P|322:320|266:331,1,110,0|0,0:0|0:0,0:0:0:0:
216,351,87475,2,0,L|190:297,1,55,4|2,3:0|0:0,0:0:0:0:
162,255,87786,6,0,P|110:248|52:258,1,110,4|4,3:0|3:0,0:0:0:0:
49,147,88408,2,0,P|101:154|159:144,1,110,8|4,0:0|3:0,0:0:0:0:
264,117,89030,2,0,L|373:90,2,110,2|8|4,0:0|0:0|3:0,0:0:0:0:
157,144,89962,1,0,0:0:0:0:
53,61,100221,6,0,L|127:53,1,55,2|2,0:0|0:0,0:0:0:0:
156,79,100532,2,0,L|230:71,1,55,2|2,0:0|0:0,0:0:0:0:
265,73,100843,2,0,P|279:131|268:181,1,110,10|2,0:0|0:0,0:0:0:0:
236,284,101465,1,4,3:0:0:0:
164,200,101776,1,0,1:0:0:0:
268,179,102087,2,0,L|376:154,1,110,10|4,0:0|3:0,0:0:0:0:
482,131,102708,5,4,3:0:0:0:
476,240,103019,2,0,P|468:298|481:349,1,110,4|10,3:0|0:0,0:0:0:0:
374,315,103641,1,2,0:0:0:0:
269,348,103952,2,0,L|154:352,2,110,4|4|8,3:0|3:0|2:0,0:0:0:0:
374,315,104885,1,4,3:0:0:0:
478,282,105195,6,0,L|470:204,1,55,2|0,0:0|0:0,0:0:0:0:
440,182,105506,2,0,L|432:104,1,55,2|0,0:0|0:0,0:0:0:0:
426,72,105817,2,2,P|370:84|316:73,1,110,8|2,0:0|0:0,0:0:0:0:
214,110,106439,2,2,B|159:91|155:123|100:100,2,110,4|0|8,3:0|1:0|0:0,0:0:0:0:
318,74,107372,1,4,3:0:0:0:
419,116,107683,5,4,3:0:0:0:
442,223,107993,2,0,L|424:300,1,55,2|0,3:0|0:0,0:0:0:0:
443,330,108304,2,2,L|332:324,1,110,10|0,0:0|0:0,0:0:0:0:
224,306,108926,2,0,L|192:353,2,55,0|2|0,1:0|0:0|1:0,0:0:0:0:
259,263,109392,1,2,0:0:0:0:
259,263,109548,2,2,P|274:210|264:153,1,110,8|0,0:0|1:0,0:0:0:0:
324,63,110170,6,0,P|375:50|434:63,1,110,8|8,0:0|0:0,0:0:0:0:
500,145,110791,2,0,L|510:271,1,110,8|8,0:0|0:0,0:0:0:0:
418,317,111413,2,0,B|378:315|378:315|350:320|350:320|302:317,2,110,8|8|8,0:0|0:0|0:0,0:0:0:0:
508,254,112346,1,8,0:0:0:0:
464,152,112657,6,0,L|433:94,1,55,8|0,0:0|0:0,0:0:0:0:
419,51,112967,2,0,P|368:64|314:48,1,110,8|8,0:0|0:0,0:0:0:0:
211,6,113589,1,8,0:0:0:0:
117,64,113900,2,0,L|13:131,2,110,8|8|8,0:0|0:0|0:0,0:0:0:0:
211,6,114833,1,8,0:0:0:0:
305,62,115144,6,0,L|373:60,1,55,12|0,0:0|0:0,0:0:0:0:
411,80,115455,2,0,L|479:78,1,55,8|0,0:0|0:0,0:0:0:0:
499,121,115765,2,0,P|490:179|502:231,1,110,8|8,0:0|0:0,0:0:0:0:
415,298,116387,2,0,P|360:312|306:296,2,110,8|8|8,0:0|0:0|0:0,0:0:0:0:
500,228,117320,1,8,0:0:0:0:
451,129,117631,5,8,0:0:0:0:
399,31,117942,2,0,L|288:23,1,110,8|8,0:0|0:0,0:0:0:0:
179,19,118563,1,8,0:0:0:0:
110,105,118874,2,0,L|99:167,1,55,8|2,0:0|3:0,0:0:0:0:
68,204,119185,2,0,P|119:196|188:208,1,110,8|2,0:0|0:0,0:0:0:0:
280,239,119807,1,2,0:0:0:0:
362,166,120118,6,0,P|374:114|361:57,1,110,4|8,2:3|0:0,0:0:0:0:
280,132,120739,2,0,P|268:184|281:241,1,110,8|4,0:0|3:0,0:0:0:0:
384,273,121361,2,0,B|444:271|433:295|495:296,2,110,8|2|8,0:0|3:0|0:0,0:0:0:0:
279,238,122294,1,8,0:0:0:0:
172,209,122605,6,0,L|167:149,1,55,4|4,3:0|3:0,0:0:0:0:
135,109,122916,2,0,P|195:114|243:99,1,110,8|8,0:0|0:0,0:0:0:0:
348,70,123537,1,8,0:0:0:0:
423,150,123848,2,0,B|441:205|416:211|430:260,2,110,4|10|8,3:0|0:0|0:0,0:0:0:0:
348,70,124781,1,10,0:0:0:0:
241,99,125092,5,4,3:0:0:0:
205,203,125403,2,0,P|195:260|206:315,2,110,8|8|4,2:3|3:2|3:0,0:0:0:0:
241,99,126335,2,0,P|297:88|353:96,1,110,8|4,3:2|3:0,0:0:0:0:
446,147,126957,2,0,L|452:270,1,110,8|4,0:2|3:0,0:0:0:0:
256,192,127579,12,4,128667,3:0:0:0:
53,339,130066,6,0,B|93:332|93:332|124:335|124:335|168:329,1,110,4|0,3:0|0:0,0:0:0:0:
272,324,130688,2,0,L|332:362,2,55,8|0|0,0:0|0:0|0:0,0:0:0:0:
214,230,131309,2,0,P|200:179|214:124,1,110,0|4,0:0|3:0,0:0:0:0:
256,89,131776,2,0,P|313:97|363:87,1,110,0|0,0:0|0:0,0:0:0:0:
418,77,132242,1,0,0:0:0:0:
476,170,132553,6,0,P|485:227|472:278,1,110,4|0,3:0|0:0,0:0:0:0:
383,341,133175,2,0,L|334:374,2,55,8|0|4,0:0|0:0|3:0,0:0:0:0:
356,234,133796,2,0,L|354:118,1,110,0|4,0:0|3:0,0:0:0:0:
340,70,134263,2,0,B|285:77|285:77|226:67,1,110,0|0,0:0|3:0,0:0:0:0:
177,56,134729,2,0,L|153:122,1,55,4|0,3:0|0:0,0:0:0:0:
147,161,135040,6,0,P|159:218|145:268,1,110,12|2,3:0|0:0,0:0:0:0:
70,348,135662,2,0,L|21:372,2,55,10|0|4,0:0|0:0|3:0,0:0:0:0:
178,369,136284,2,0,P|234:358|289:367,1,110,2|4,0:0|3:0,0:0:0:0:
340,362,136750,2,0,L|376:249,1,110,0|2,0:0|0:0,0:0:0:0:
393,205,137216,1,2,0:0:0:0:
329,115,137527,6,0,B|289:111|289:111|264:116|264:116|219:111,1,110,4|4,3:0|3:0,0:0:0:0:
256,215,138149,2,0,B|216:211|216:211|191:216|191:216|146:211,1,110,8|4,0:0|3:0,0:0:0:0:
84,120,138771,2,0,L|24:15,2,110,2|8|4,0:0|0:0|3:0,0:0:0:0:
146,211,139703,1,0,0:0:0:0:
232,143,140014,6,0,B|222:87|222:87|235:33,1,110,4|0,3:0|0:0,0:0:0:0:
328,92,140636,2,0,L|391:93,2,55,8|0|4,0:0|0:0|3:0,0:0:0:0:
232,143,141258,2,0,L|218:255,1,110,0|4,0:0|3:0,0:0:0:0:
183,294,141724,2,0,P|239:294|292:312,1,110,0|0,0:0|0:0,0:0:0:0:
334,342,142190,2,0,L|387:307,1,55,4|0,3:0|0:0,0:0:0:0:
429,287,142501,6,0,P|420:226|434:177,1,110,4|2,3:0|0:0,0:0:0:0:
431,69,143123,2,0,L|484:54,2,55,10|0|4,0:0|0:0|3:0,0:0:0:0:
321,66,143745,2,0,B|264:53|261:79|210:58,1,110,2|4,0:0|3:0,0:0:0:0:
160,42,144211,2,0,P|173:96|164:153,1,110,0|2,0:0|0:0,0:0:0:0:
155,204,144677,2,0,L|189:264,1,55,4|2,3:0|0:0,0:0:0:0:
212,299,144988,6,0,B|250:303|250:303|283:296|283:296|325:299,1,110,4|2,3:0|0:0,0:0:0:0:
430,315,145610,2,0,L|470:355,2,55,8|0|4,0:0|0:0|3:0,0:0:0:0:
395,211,146232,2,0,P|387:151|399:99,1,110,0|4,0:0|3:0,0:0:0:0:
375,53,146698,2,0,P|322:64|266:53,1,110,0|0,0:0|0:0,0:0:0:0:
216,33,147164,2,0,L|190:87,1,55,4|2,3:0|0:0,0:0:0:0:
162,129,147475,6,0,P|110:136|52:126,1,110,4|4,3:0|3:0,0:0:0:0:
49,237,148097,2,0,P|101:230|159:240,1,110,8|4,0:0|3:0,0:0:0:0:
262,273,148719,2,0,L|371:300,2,110,0|8|4,0:0|0:0|3:0,0:0:0:0:
157,240,149651,1,0,0:0:0:0:
44,315,159910,6,0,P|97:326|156:316,1,110,4|0,3:0|0:0,0:0:0:0:
251,270,160532,2,0,P|304:259|363:269,1,110,8|4,0:0|3:0,0:0:0:0:
452,209,161154,2,0,L|496:94,2,110,0|0|8,0:0|0:0|0:0,0:0:0:0:
459,319,162087,1,8,0:0:0:0:
358,267,162398,6,0,B|317:264|317:264|289:268|289:268|246:265,1,110,6|8,3:0|0:0,0:0:0:0:
138,271,163019,2,0,L|153:157,1,110,8|8,0:0|0:0,0:0:0:0:
163,107,163486,1,0,0:0:0:0:
201,68,163641,2,0,B|256:52|257:83|323:58,1,110,4|0,3:0|0:0,0:0:0:0:
413,24,164263,1,4,3:0:0:0:
465,120,164574,1,8,0:0:0:0:
395,205,164885,6,0,P|344:216|286:204,1,110,6|8,3:0|0:0,0:0:0:0:
188,157,165506,2,0,P|137:146|79:155,1,110,8|8,0:0|0:0,0:0:0:0:
17,245,166128,1,8,0:0:0:0:
67,343,166439,1,8,0:0:0:0:
134,255,166750,1,8,0:0:0:0:
80,154,167061,1,8,0:0:0:0:
256,192,167372,12,8,168460,0:0:0:0:
58,68,169859,6,0,P|110:56|165:66,1,110,4|0,3:0|0:0,0:0:0:0:
269,101,170480,2,0,P|321:113|376:103,1,110,8|0,0:0|0:0,0:0:0:0:
485,90,171102,2,0,L|498:207,1,110,0|4,0:0|3:0,0:0:0:0:
499,254,171569,2,0,P|442:248|389:266,1,110,0|0,0:0|0:0,0:0:0:0:
346,294,172035,1,0,0:0:0:0:
314,188,172346,6,0,P|326:140|316:78,1,110,4|0,3:0|0:0,0:0:0:0:
280,39,172812,2,0,L|208:35,1,55,0|8,0:0|0:0,0:0:0:0:
177,64,173123,2,0,L|105:60,1,55,0|4,0:0|3:0,0:0:0:0:
67,65,173434,1,0,0:0:0:0:
67,65,173589,2,0,P|76:118|58:176,1,110,0|4,0:0|3:0,0:0:0:0:
82,222,174056,2,0,P|135:209|189:220,1,110,0|0,0:0|3:0,0:0:0:0:
233,251,174522,1,4,3:0:0:0:
340,227,174833,6,0,L|340:110,1,110,12|2,3:0|0:0,0:0:0:0:
233,141,175455,2,0,L|233:258,1,110,10|4,0:0|3:0,0:0:0:0:
167,339,176076,2,0,P|115:329|57:342,1,110,2|4,0:0|3:0,0:0:0:0:
12,311,176543,2,0,P|24:256|14:200,1,110,0|2,0:0|0:0,0:0:0:0:
21,148,177009,2,0,L|69:112,1,55,2|2,0:0|0:0,0:0:0:0:
117,98,177320,6,0,B|171:87|171:87|232:95,1,110,4|4,3:0|3:0,0:0:0:0:
324,143,177942,2,0,B|381:154|381:154|436:145,1,110,8|4,0:0|3:0,0:0:0:0:
455,253,178563,2,0,L|473:366,2,110,2|8|4,0:0|0:0|3:0,0:0:0:0:
432,145,179496,1,0,0:0:0:0:
361,60,179807,6,0,P|310:71|250:61,1,110,4|0,3:0|0:0,0:0:0:0:
144,43,180429,2,0,L|121:152,1,110,8|4,0:0|3:0,0:0:0:0:
131,260,181050,2,0,B|182:255|182:255|194:257|194:257|245:254,1,110,0|4,0:0|3:0,0:0:0:0:
283,289,181517,2,0,L|299:159,1,110,0|0,0:0|0:0,0:0:0:0:
300,124,181983,1,4,3:0:0:0:
227,41,182294,6,0,P|174:52|119:41,1,110,4|2,3:0|0:0,0:0:0:0:
65,30,182760,2,0,L|50:93,1,55,4|10,3:0|0:0,0:0:0:0:
64,137,183071,2,0,L|49:200,1,55,0|4,0:0|3:0,0:0:0:0:
39,244,183382,1,2,0:0:0:0:
39,244,183537,2,0,P|91:234|151:244,1,110,2|4,0:0|3:0,0:0:0:0:
196,266,184004,2,0,P|248:276|308:266,1,110,0|2,0:0|0:0,0:0:0:0:
357,253,184470,1,4,3:0:0:0:
446,188,184781,6,0,P|459:135|444:81,1,110,4|2,3:0|0:0,0:0:0:0:
355,147,185403,2,0,P|342:200|357:254,1,110,8|4,0:0|3:0,0:0:0:0:
285,336,186024,2,0,B|239:334|239:334|226:338|226:338|160:335,1,110,0|4,0:0|3:0,0:0:0:0:
120,335,186491,2,0,L|100:227,1,110,0|0,0:0|0:0,0:0:0:0:
89,172,186957,2,0,L|145:134,1,55,4|2,3:0|0:0,0:0:0:0:
182,113,187268,6,0,L|295:113,1,110,4|4,3:0|3:0,0:0:0:0:
252,216,187890,2,0,L|365:216,1,110,8|4,0:0|3:0,0:0:0:0:
460,166,188512,2,0,P|470:236|451:280,2,110,4|8|4,3:0|0:0|3:0,0:0:0:0:
373,97,189444,2,0,P|366:56|366:37,1,55,0|2,0:0|0:0,0:0:0:0:
