osu file format v14

[General]
AudioFilename: 24K () - (Superfly).mp3
AudioLeadIn: 0
PreviewTime: 69133
Countdown: 0
SampleSet: Soft
StackLeniency: 0.3
Mode: 0
LetterboxInBreaks: 0
WidescreenStoryboard: 0

[Editor]
DistanceSpacing: 1.3
BeatDivisor: 8
GridSize: 4
TimelineZoom: 3.899998

[Metadata]
Title:SUPERFLY
TitleUnicode:날라리
Artist:24K
ArtistUnicode:투포케이
Creator:DeRandom Otaku
Version:Akitoshi's Insane
Source:
Tags:Trap Choeun Entertainment K-pop Kpop 코리 기수 정욱 휘 창선 진홍 홍섭 병호 석준 성오 대일 Cory Kisu Jeunguk Hui Changsun Jinhong Hongseob Byungho Seokjun Sungoh Daeil cool c00l Firetruck Neoskylove Akitoshi Corinn
BeatmapID:1189431
BeatmapSetID:558362

[Difficulty]
HPDrainRate:6
CircleSize:3.5
OverallDifficulty:8
ApproachRate:9
SliderMultiplier:3
SliderTickRate:2

[Events]
//Background and Video events
0,0,"BG.jpg",0,0
//Break Periods
2,150162,159310
//Storyboard Layer 0 (Background)
//Storyboard Layer 1 (Fail)
//Storyboard Layer 2 (Pass)
//Storyboard Layer 3 (Foreground)
//Storyboard Sound Samples

[TimingPoints]
740,621.761658031088,4,2,1,50,1,0
740,-133.333333333333,4,2,1,50,0,0
10066,-100,4,2,1,40,0,0
10377,-100,4,2,1,50,0,0
10688,-111.111111111111,4,2,2,60,0,0
20636,-83.3333333333333,4,2,1,70,0,1
20947,-83.3333333333333,4,2,1,70,0,1
30584,-83.3333333333333,4,2,1,60,0,0
31206,-125,4,2,1,45,0,0
44263,-166.666666666667,4,2,1,45,0,0
45429,-166.666666666667,4,2,1,5,0,0
45506,-125,4,2,1,45,0,0
50480,-111.111111111111,4,2,2,55,0,0
60429,-100,4,2,2,65,0,0
70377,-83.3333333333333,4,2,1,70,0,1
80170,-83.3333333333333,4,2,1,70,0,0
80325,-83.3333333333333,4,2,1,75,0,1
90273,-117.647058823529,4,2,1,40,0,0
110170,-111.111111111111,4,2,2,50,0,0
120118,-100,4,2,2,60,0,0
130066,-83.3333333333333,4,2,1,70,0,1
139859,-83.3333333333333,4,2,1,70,0,0
140014,-83.3333333333333,4,2,1,75,0,1
149962,-83.3333333333333,4,2,1,75,0,0
159910,-100,4,2,2,60,0,0
169859,-83.3333333333333,4,2,1,70,0,1
172035,-100,4,2,1,70,0,1
172501,-100,4,2,1,70,0,1
172657,-83.3333333333333,4,2,1,70,0,1
179496,-83.3333333333333,4,2,1,70,0,0
179729,-83.3333333333333,4,2,1,5,0,0
179807,-83.3333333333333,4,2,1,75,0,1
189600,-83.3333333333333,4,2,1,75,0,0

[Colours]
Combo1 : 156,22,83
Combo2 : 0,128,255
Combo3 : 146,255,36
Combo4 : 242,82,13

[HitObjects]
71,128,740,6,0,P|128:106|214:179,1,168.750006437302,6|2,2:3|3:0,0:0:0:0:
241,246,1361,1,10,0:0:0:0:
241,246,1672,2,0,B|369:241|369:241|346:221|336:199,1,168.750006437302,2|2,3:0|3:0,0:0:0:0:
310,126,2294,1,2,3:0:0:0:
310,126,2605,2,0,P|276:124|247:120,1,56.2500021457673,10|0,0:0|0:0,0:0:0:0:
169,92,2916,2,0,L|167:67,6,14.0625005364418,2|2|2|2|2|2|2,3:0|3:0|3:0|3:0|3:0|3:0|3:0,3:3:0:0:
147,51,3227,6,0,L|160:228,1,168.750006437302,0|2,0:0|3:0,0:0:0:0:
168,308,3848,1,10,0:0:0:0:
168,308,4159,2,0,P|184:246|289:215,1,168.750006437302,2|2,3:0|3:0,0:0:0:0:
255,299,4781,1,2,3:0:0:0:
255,299,5092,2,0,L|249:342,2,28.1250010728837,10|2|2,0:0|3:0|3:0,0:0:0:0:
275,210,5403,1,2,3:0:0:0:
359,179,5558,1,2,3:0:0:0:
433,230,5714,6,0,P|447:165|366:90,1,168.750006437302,2|0,3:0|3:0,0:0:0:0:
294,89,6335,1,10,0:0:0:0:
294,89,6646,2,0,L|307:274,1,168.750006437302,2|2,3:0|3:0,0:0:0:0:
308,347,7268,1,0,3:0:0:0:
308,347,7579,2,0,P|278:355|236:353,1,56.2500021457673,10|0,0:0|0:0,0:0:0:0:
174,311,7890,2,0,L|153:312,6,14.0625005364418,2|2|2|2|2|2|2,3:0|3:0|3:0|3:0|3:0|3:0|3:0,3:3:0:0:
129,318,8201,6,0,P|157:276|124:162,1,168.750006437302,0|2,0:0|3:0,0:0:0:0:
50,128,8822,2,0,L|53:56,1,56.2500021457673,10|0,0:0|0:0,0:0:0:0:
133,32,9133,2,0,P|161:24|195:26,1,56.2500021457673,2|0,3:0|0:0,0:0:0:0:
275,48,9444,5,2,3:0:0:0:
346,103,9600,1,2,3:0:0:0:
356,192,9755,2,0,L|437:187,1,56.2500021457673,2|0,3:0|0:0,0:0:0:0:
495,102,10066,2,0,P|495:88|491:72,14,18.75,2|2|2|2|2|2|2|2|2|2|2|2|2|2|2,3:0|3:0|3:0|3:0|3:0|3:0|3:0|3:0|3:0|3:0|3:0|3:0|3:0|3:0|3:0,0:0:0:0:
422,40,10688,6,0,B|378:38|378:38|329:52|329:52|269:49,1,134.999995880127,4|8,2:3|0:0,0:0:0:0:
153,46,11154,1,2,3:0:0:0:
223,191,11309,2,0,P|230:232|222:263,1,67.4999979400636,8|0,0:0|0:0,0:0:0:0:
61,256,11620,2,0,P|54:215|62:184,1,67.4999979400636,4|0,3:0|0:0,0:0:0:0:
153,46,11931,5,8,0:0:0:0:
142,224,12087,1,2,3:0:0:0:
313,163,12242,2,0,P|344:155|402:159,1,67.4999979400636,8|0,0:0|0:0,0:0:0:0:
367,337,12553,1,8,0:0:0:0:
249,246,12708,1,0,3:0:0:0:
437,225,12864,1,8,0:0:0:0:
265,354,13019,1,2,3:0:0:0:
265,354,13097,1,2,3:0:0:0:
265,354,13175,5,4,3:0:0:0:
313,163,13330,1,4,3:0:0:0:
142,224,13486,2,0,P|104:231|70:225,1,67.4999979400636,8|2,0:0|3:0,0:0:0:0:
247,165,13796,2,0,P|285:158|319:164,1,67.4999979400636,8|0,0:0|0:0,0:0:0:0:
199,305,14107,2,0,P|168:320|122:321,1,67.4999979400636,8|0,0:0|0:0,0:0:0:0:
144,113,14418,5,4,3:0:0:0:
287,268,14574,1,4,3:0:0:0:
413,167,14729,2,0,L|408:86,1,67.4999979400636,8|0,0:0|0:0,0:0:0:0:
218,189,15040,1,8,0:0:0:0:
416,254,15195,1,0,0:0:0:0:
306,133,15351,2,0,P|300:101|313:49,1,67.4999979400636,2|0,3:0|0:0,0:0:0:0:
416,254,15662,6,0,P|422:286|409:338,1,67.4999979400636,4|2,3:0|3:0,0:0:0:0:
265,379,15973,1,8,0:0:0:0:
113,323,16128,1,2,3:0:0:0:
113,323,16206,1,2,3:0:0:0:
113,323,16284,2,0,L|106:238,1,67.4999979400635,8|2,0:2|3:0,0:0:0:0:
127,122,16594,1,8,0:0:0:0:
256,208,16750,1,2,3:0:0:0:
256,208,16828,1,2,3:0:0:0:
256,208,16905,6,0,L|347:195,1,67.4999979400635,8|2,0:2|3:0,0:0:0:0:
422,318,17216,2,0,L|331:331,1,67.4999979400635,8|0,0:0|0:0,0:0:0:0:
216,358,17527,1,8,0:2:0:0:
216,358,17605,1,2,3:0:0:0:
216,358,17683,1,2,3:0:0:0:
216,358,17760,1,2,3:0:0:0:
216,358,17838,2,0,P|201:321|201:284,1,67.4999979400635,8|0,0:0|0:0,0:0:0:0:
119,91,18149,6,0,L|55:98,3,33.7499989700318,8|2|8|2,0:0|3:0|0:0|3:0,0:0:0:0:
36,168,18460,2,0,L|43:232,3,33.7499989700318,8|2|8|2,0:0|3:0|0:0|3:0,0:0:0:0:
97,268,18771,1,8,0:0:0:0:
125,274,18848,1,2,3:0:0:0:
153,275,18926,1,8,0:0:0:0:
182,268,19004,1,2,3:0:0:0:
207,255,19081,1,8,0:0:0:0:
230,237,19159,1,2,3:0:0:0:
247,214,19237,1,8,0:0:0:0:
259,188,19315,1,2,3:0:0:0:
193,311,20636,6,0,L|366:301,1,134.999995880127,4|0,3:0|0:0,0:0:0:0:
417,289,20947,2,0,P|419:235|405:195,1,89.9999972534181,0|0,0:0|0:0,0:0:0:0:
232,161,21258,1,8,0:0:0:0:
327,303,21413,1,0,0:0:0:0:
351,123,21569,2,0,P|391:106|451:115,1,89.9999972534181,0|0,0:0|0:0,0:0:0:0:
260,232,21879,6,0,L|145:239,1,89.9999972534181,0|0,0:0|0:0,0:0:0:0:
275,372,22190,1,4,3:0:0:0:
286,195,22346,2,0,L|171:202,1,89.9999972534181,0|8,0:0|0:0,0:0:0:0:
301,335,22657,1,0,0:0:0:0:
314,158,22812,2,0,L|199:165,1,89.9999972534181,0|0,0:0|0:0,0:0:0:0:
36,289,23123,5,4,3:0:0:0:
36,289,23434,2,0,B|30:245|30:245|35:196,1,89.9999972534181,0|0,0:0|0:0,0:0:0:0:
155,65,23745,1,8,0:0:0:0:
141,243,23900,1,0,0:0:0:0:
38,94,24056,2,0,L|32:4,1,89.9999972534181,4|0,3:0|0:0,0:0:0:0:
141,243,24366,6,0,L|135:332,1,89.9999972534181,0|0,0:0|0:0,0:0:0:0:
34,199,24677,1,4,3:0:0:0:
246,242,24833,1,0,0:0:0:0:
135,331,24988,2,0,P|91:341|48:331,1,89.9999972534181,8|0,0:0|3:0,0:0:0:0:
103,149,25299,2,0,P|147:139|191:150,1,89.9999972534181,4|0,3:0|0:0,0:0:0:0:
377,280,25610,6,0,B|384:323|384:323|376:368,1,89.9999972534181,12|2,3:0|0:0,0:0:0:0:
291,164,25921,2,0,B|283:120|283:120|291:75,1,89.9999972534181,2|2,0:0|0:0,0:0:0:0:
377,280,26232,1,10,0:0:0:0:
383,119,26387,1,0,0:0:0:0:
246,242,26543,2,0,L|118:238,1,89.9999972534181,0|0,0:0|0:0,0:0:0:0:
37,104,26853,6,0,L|165:108,1,89.9999972534181,2|2,0:0|0:0,0:0:0:0:
125,278,27164,1,4,3:0:0:0:
68,65,27320,2,0,L|196:69,1,89.9999972534181,0|8,0:0|0:0,0:0:0:0:
156,239,27631,1,0,0:0:0:0:
101,24,27787,2,0,L|229:28,1,89.9999972534181,2|2,0:0|0:0,0:0:0:0:
363,62,28097,5,4,3:0:0:0:
265,196,28252,1,0,0:0:0:0:
423,144,28408,1,4,3:0:0:0:
265,94,28563,1,0,0:0:0:0:
363,227,28719,2,0,B|373:272|373:272|369:331,1,89.9999972534181,8|0,0:0|0:0,0:0:0:0:
194,325,29030,2,0,B|186:281|186:281|189:229,1,89.9999972534181,4|0,3:0|0:0,0:0:0:0:
344,132,29341,5,2,0:0:0:0:
277,282,29496,1,2,3:0:0:0:
189,130,29651,1,0,1:0:0:0:
363,227,29807,1,0,1:0:0:0:
270,58,29962,1,4,3:0:0:0:
188,235,30118,1,4,3:0:0:0:
344,132,30273,2,0,P|394:116|479:176,1,134.999995880127,0|0,0:0|0:0,0:0:0:0:
464,150,30584,5,2,0:0:0:0:
239,274,31206,1,8,1:0:0:0:
239,274,31517,2,0,L|158:269,1,60,0|0,1:0|1:0,0:0:0:0:
93,225,31828,2,0,P|78:164|112:94,1,120,4|0,1:3|1:0,0:0:0:0:
167,46,32294,1,0,3:0:0:0:
187,172,32449,2,0,L|257:168,1,60,8|0,1:0|0:0,0:0:0:0:
299,88,32760,2,0,L|229:84,1,60,0|0,0:0|0:0,0:0:0:0:
371,27,33071,6,0,P|390:68|373:147,1,120,0|0,1:0|1:0,0:0:0:0:
322,218,33537,1,0,0:0:0:0:
243,144,33693,2,0,L|238:67,1,60,8|0,1:0|1:0,0:0:0:0:
154,37,34004,2,0,L|149:114,1,60,0|0,1:0|1:0,0:0:0:0:
118,213,34315,6,0,P|73:227|-5:196,1,120,0|2,1:0|1:3,0:0:0:0:
67,132,34781,1,2,1:3:0:0:
198,173,34936,2,0,P|206:206|200:252,1,60,8|0,1:0|1:0,0:0:0:0:
185,326,35247,1,0,1:0:0:0:
264,381,35403,1,0,0:0:0:0:
351,342,35558,6,0,B|427:330|427:330|484:341,1,120,0|0,1:0|1:0,0:0:0:0:
469,338,36180,2,0,P|473:292|467:268,1,60,8|0,1:0|1:0,0:0:0:0:
409,204,36491,2,0,P|405:158|411:134,1,60,0|0,1:0|1:0,0:0:0:0:
442,54,36802,6,0,P|398:92|321:94,1,120,4|0,1:3|1:0,0:0:0:0:
157,33,37423,1,8,1:0:0:0:
157,33,37734,2,0,L|81:32,1,60,4|4,3:0|3:0,0:0:0:0:
31,103,38045,6,0,P|21:133|24:170,1,60,4|2,3:0|0:0,0:0:0:0:
109,201,38356,2,0,P|119:171|116:134,1,60,0|0,1:0|0:0,0:0:0:0:
97,32,38667,1,8,1:0:0:0:
204,67,38822,1,0,1:0:0:0:
118,143,38978,1,0,1:0:0:0:
97,32,39133,1,0,1:0:0:0:
204,67,39289,6,0,B|283:73|283:73|342:60,1,120,4|0,1:3|1:0,0:0:0:0:
411,25,39755,1,0,1:0:0:0:
475,95,39910,2,0,B|484:152|484:152|462:211|462:211|475:282,1,180,0|0,0:0|1:0,0:0:0:0:
472,269,41465,2,0,P|434:279|410:276,1,60,2|2,0:0|0:0,0:0:0:0:
329,229,41776,5,6,2:3:0:0:
329,324,41931,1,2,0:0:0:0:
246,275,42087,2,0,P|207:270|176:276,1,60,0|4,1:0|3:0,0:0:0:0:
102,319,42398,1,0,1:0:0:0:
105,223,42553,1,2,0:0:0:0:
187,273,42708,2,0,P|200:230|182:163,1,90,6|0,2:3|0:0,0:0:0:0:
193,186,43019,6,0,L|262:181,1,60,4|2,3:0|0:0,0:0:0:0:
305,100,43330,2,0,L|236:94,1,60,0|2,1:0|0:0,0:0:0:0:
149,84,43641,1,8,1:0:0:0:
205,7,43796,1,2,1:2:0:0:
245,95,43952,1,0,1:0:0:0:
301,19,44107,1,2,0:0:0:0:
349,110,44263,6,0,B|407:121|467:83|485:16|485:16|473:92|490:120|490:120|477:184,1,337.499989700318,0|0,0:0|0:0,0:0:0:0:
480,168,45506,6,0,P|430:203|429:267,1,120,2|2,0:0|0:0,0:0:0:0:
453,350,45973,1,2,0:0:0:0:
359,328,46128,2,0,P|324:321|283:328,1,60,8|0,1:0|1:0,0:0:0:0:
212,363,46439,2,0,P|177:370|136:363,1,60,0|2,1:0|0:0,0:0:0:0:
154,247,46750,6,0,B|211:222|215:277|289:238,1,120,4|0,3:0|0:0,0:0:0:0:
339,179,47216,1,4,3:0:0:0:
268,113,47372,2,0,P|227:105|173:119,1,90,8|0,0:0|0:0,0:0:0:0:
180,115,47683,2,0,L|179:41,1,60,4|0,3:0|0:0,0:0:0:0:
258,1,47993,5,4,0:0:0:0:
82,77,48304,1,4,0:0:0:0:
235,192,48615,1,4,0:0:0:0:
256,192,49237,12,0,50170,1:0:0:0:
203,149,50480,6,0,L|198:66,1,67.4999979400636,8|0,0:0|0:0,0:0:0:0:
308,149,50791,2,0,L|313:66,1,67.4999979400636,8|0,0:0|0:0,0:0:0:0:
203,230,51102,2,0,L|198:313,1,67.4999979400636,8|0,0:0|0:0,0:0:0:0:
308,230,51413,2,0,L|313:313,1,67.4999979400636,8|0,0:0|0:0,0:0:0:0:
203,149,51724,6,0,P|165:139|122:145,1,67.4999979400636,8|0,0:0|0:0,0:0:0:0:
308,149,52035,2,0,P|346:139|389:145,1,67.4999979400636,8|0,0:0|0:0,0:0:0:0:
203,230,52346,2,0,P|165:240|122:234,1,67.4999979400636,8|0,0:0|0:0,0:0:0:0:
308,230,52657,2,0,P|346:240|389:234,1,67.4999979400636,8|0,0:0|0:0,0:0:0:0:
312,81,52967,6,0,L|308:149,1,67.4999979400636,8|0,0:0|0:0,0:0:0:0:
198,297,53278,2,0,L|203:230,1,67.4999979400636,8|0,0:0|0:0,0:0:0:0:
198,81,53589,2,0,L|203:149,1,67.4999979400636,8|0,0:0|0:0,0:0:0:0:
312,297,53900,2,0,L|308:230,1,67.4999979400636,8|0,0:0|0:0,0:0:0:0:
203,149,54211,6,0,P|136:165|98:221,1,134.999995880127,8|8,0:0|0:0,0:0:0:0:
59,317,54677,1,0,0:0:0:0:
6,221,54833,2,0,B|0:125|0:125|14:74,1,134.999995880127,8|8,0:0|0:0,0:0:0:0:
88,12,55299,1,0,0:0:0:0:
165,123,55455,6,0,L|246:118,1,67.4999979400636,12|0,0:0|0:0,0:0:0:0:
276,217,55765,2,0,L|195:222,1,67.4999979400636,8|0,0:0|0:0,0:0:0:0:
100,229,56076,1,8,0:0:0:0:
161,318,56232,1,0,0:0:0:0:
207,211,56387,2,0,L|275:207,1,67.4999979400636,8|0,0:0|0:0,0:0:0:0:
383,200,56698,6,0,P|398:144|370:70,1,134.999995880127,8|8,0:0|0:0,0:0:0:0:
278,19,57164,1,0,0:0:0:0:
232,118,57320,2,0,B|186:114|186:114|141:123|141:123|81:115,1,134.999995880127,8|8,0:0|0:0,0:0:0:0:
252,269,57942,6,0,B|298:265|298:265|343:274|343:274|403:266,1,134.999995880127,8|8,0:0|0:0,0:0:0:0:
492,252,58408,1,0,0:0:0:0:
433,161,58563,1,8,0:0:0:0:
492,252,58719,1,0,0:0:0:0:
433,161,58874,2,0,P|426:129|435:89,1,67.4999979400636,8|0,0:0|0:0,0:0:0:0:
347,27,59185,6,0,L|260:30,1,67.4999979400636,8|2,0:0|3:0,0:0:0:0:
171,38,59496,1,8,0:0:0:0:
232,126,59651,1,2,3:0:0:0:
124,136,59807,2,0,L|101:136,14,16.8749994850159,2|2|2|2|2|2|2|0|0|2|2|2|2|2|2,3:0|3:0|3:0|3:0|3:0|3:0|3:0|0:0|3:0|3:0|3:0|3:0|3:0|3:0|3:0,0:0:0:0:
78,154,60429,6,0,P|123:166|155:279,1,150,4|8,2:3|0:0,0:0:0:0:
126,368,60895,1,2,3:0:0:0:
243,343,61050,2,0,P|288:337|333:348,1,75,8|0,0:0|0:0,0:0:0:0:
396,232,61361,2,0,P|351:238|306:227,1,75,4|0,3:0|0:0,0:0:0:0:
255,86,61672,6,0,P|322:68|356:129,1,150,8|8,0:0|0:0,0:0:0:0:
322,233,62138,1,0,0:0:0:0:
204,147,62294,2,0,L|197:13,1,112.5,8|0,0:0|0:0,0:0:0:0:
198,34,62605,1,8,0:0:0:0:
18,153,62760,1,2,3:0:0:0:
18,153,62838,1,2,3:0:0:0:
18,153,62916,5,4,3:0:0:0:
6,17,63071,1,4,3:0:0:0:
116,130,63227,2,0,P|117:170|94:220,1,75,8|2,0:0|3:0,0:0:0:0:
23,289,63537,2,0,P|94:281|173:319,1,150,8|8,0:0|0:0,0:0:0:0:
262,383,64004,1,0,0:0:0:0:
336,253,64159,6,0,B|340:216|340:216|333:170,1,75,4|2,3:0|3:0,0:0:0:0:
230,117,64470,2,0,B|226:154|226:154|233:200,1,75,8|0,0:0|0:0,0:0:0:0:
307,43,64781,2,0,P|242:10|157:39,1,150,8|8,0:0|0:0,0:0:0:0:
72,98,65247,1,0,0:0:0:0:
158,182,65403,6,0,P|192:191|251:186,1,75,4|2,3:0|3:0,0:0:0:0:
349,164,65714,1,8,0:0:0:0:
446,245,65869,1,2,3:0:0:0:
446,245,65947,1,2,3:0:0:0:
446,245,66024,2,0,L|439:347,1,75,8|2,0:0|3:0,0:0:0:0:
322,368,66335,2,0,L|315:266,1,75,8|2,0:0|3:0,0:0:0:0:
231,191,66646,5,8,0:0:0:0:
231,191,66724,1,2,3:0:0:0:
231,191,66802,1,2,3:0:0:0:
231,191,66879,1,2,3:0:0:0:
231,191,66957,2,0,P|191:188|143:199,1,75,8|0,0:0|0:0,0:0:0:0:
103,310,67268,1,8,0:2:0:0:
103,310,67346,1,2,3:0:0:0:
103,310,67424,1,2,3:0:0:0:
103,310,67501,1,2,3:0:0:0:
103,310,67579,2,0,P|143:313|191:302,1,75,8|0,0:0|0:0,0:0:0:0:
288,205,67890,6,0,L|280:158,3,37.5,8|2|8|2,0:0|3:0|0:0|3:0,0:0:0:0:
335,86,68201,2,0,L|382:78,3,37.5,8|2|8|2,0:0|3:0|0:0|3:0,0:0:0:0:
458,125,68512,1,8,0:0:0:0:
473,147,68589,1,2,3:0:0:0:
484,171,68667,1,8,0:0:0:0:
490,197,68745,1,2,3:0:0:0:
492,223,68822,1,8,0:0:0:0:
490,250,68900,1,2,3:0:0:0:
482,276,68978,1,8,0:0:0:0:
470,300,69056,1,2,3:0:0:0:
371,137,70377,6,0,P|312:130|284:202,1,134.999995880127,4|0,3:0|0:0,0:0:0:0:
266,278,70688,2,0,B|220:286|220:286|174:277,1,89.9999972534181,0|0,0:0|0:0,0:0:0:0:
8,213,70999,1,8,0:0:0:0:
89,368,71154,1,0,0:0:0:0:
114,190,71309,2,0,P|154:171|219:179,1,89.9999972534181,0|0,0:0|0:0,0:0:0:0:
370,228,71620,6,0,L|468:219,1,89.9999972534181,0|0,0:0|0:0,0:0:0:0:
347,78,71931,1,4,3:0:0:0:
338,258,72087,2,0,L|436:249,1,89.9999972534181,0|8,0:0|0:0,0:0:0:0:
315,108,72398,1,0,0:0:0:0:
312,287,72553,2,0,L|410:278,1,89.9999972534181,0|0,0:0|0:0,0:0:0:0:
495,83,72864,5,4,3:0:0:0:
495,83,73175,2,0,P|446:72|405:81,1,89.9999972534181,0|0,0:0|0:0,0:0:0:0:
271,198,73486,1,8,0:0:0:0:
448,173,73641,1,0,0:0:0:0:
282,102,73796,2,0,L|285:6,1,89.9999972534181,4|0,3:0|0:0,0:0:0:0:
129,104,74107,6,0,L|132:200,1,89.9999972534181,0|0,0:0|0:0,0:0:0:0:
144,374,74418,1,4,3:0:0:0:
265,205,74574,1,0,0:0:0:0:
71,275,74729,2,0,P|42:243|33:178,1,89.9999972534181,8|0,0:0|3:0,0:0:0:0:
89,28,75040,2,0,P|118:60|127:125,1,89.9999972534181,4|0,3:0|0:0,0:0:0:0:
201,289,75351,6,0,L|301:281,1,89.9999972534181,12|2,3:0|0:0,0:0:0:0:
446,372,75662,2,0,L|346:380,1,89.9999972534181,2|2,0:0|0:0,0:0:0:0:
308,204,75973,1,10,0:0:0:0:
259,376,76128,1,0,0:0:0:0:
401,265,76284,2,0,P|418:221|404:150,1,89.9999972534181,4|2,3:0|0:0,0:0:0:0:
288,27,76594,6,0,L|303:138,1,89.9999972534181,2|2,0:0|0:0,0:0:0:0:
452,38,76905,1,4,3:0:0:0:
257,62,77061,2,0,L|272:173,1,89.9999972534181,0|10,0:0|0:0,0:0:0:0:
421,73,77372,1,2,0:0:0:0:
224,96,77527,2,0,L|239:207,1,89.9999972534181,2|2,0:0|0:0,0:0:0:0:
260,354,77838,5,4,3:0:0:0:
339,204,77993,1,0,0:0:0:0:
186,277,78148,1,4,3:0:0:0:
353,306,78304,1,0,0:0:0:0:
236,185,78460,2,0,P|193:172|147:181,1,89.9999972534181,8|0,0:0|0:0,0:0:0:0:
353,306,78771,2,0,P|396:319|442:310,1,89.9999972534181,4|2,3:0|0:0,0:0:0:0:
499,141,79081,5,2,0:0:0:0:
398,219,79237,1,2,0:0:0:0:
370,41,79392,1,8,0:0:0:0:
499,167,79548,1,8,0:0:0:0:
283,161,79703,1,4,3:0:0:0:
439,311,79859,1,12,3:0:0:0:
349,115,80014,2,0,L|198:104,1,134.999995880127,0|0,0:0|0:0,0:0:0:0:
214,105,80325,6,0,P|193:156|202:208,1,89.9999972534181,4|0,3:0|0:0,0:0:0:0:
280,349,80636,1,0,0:0:0:0:
280,349,80947,1,8,0:0:0:0:
296,170,81102,1,0,0:0:0:0:
164,293,81258,2,0,P|124:307|60:298,1,89.9999972534181,4|2,3:0|3:0,0:0:0:0:
124,110,81569,6,0,B|166:104|166:104|217:105,1,89.9999972534181,0|2,0:0|3:0,0:0:0:0:
164,293,81879,1,4,3:0:0:0:
119,81,82035,2,0,B|161:75|161:75|212:76,1,89.9999972534181,0|8,0:0|0:0,0:0:0:0:
173,262,82346,1,0,0:0:0:0:
117,54,82501,2,0,B|159:48|159:48|210:49,1,89.9999972534181,4|0,3:0|0:0,0:0:0:0:
397,151,82812,6,0,L|397:314,1,134.999995880127,4|0,3:0|0:0,0:0:0:0:
397,286,83123,2,0,P|442:292|496:276,1,89.9999972534181,2|4,0:0|3:0,0:0:0:0:
307,215,83434,1,10,0:0:0:0:
488,163,83589,1,0,0:0:0:0:
312,91,83745,2,0,B|303:43|303:43|314:-3,1,89.9999972534181,4|2,3:0|0:0,0:0:0:0:
307,215,84056,6,0,P|264:230|191:216,1,89.9999972534181,2|2,0:0|0:0,0:0:0:0:
55,156,84366,1,4,3:0:0:0:
184,322,84522,1,0,0:0:0:0:
248,126,84677,2,0,L|240:26,1,89.9999972534181,4|2,3:0|0:0,0:0:0:0:
47,66,84988,2,0,L|55:166,1,89.9999972534181,4|2,3:0|0:0,0:0:0:0:
184,322,85299,6,0,P|254:330|309:289,1,134.999995880127,4|0,3:0|0:0,0:0:0:0:
304,295,85610,2,0,L|402:294,1,89.9999972534181,2|2,0:0|0:0,0:0:0:0:
362,116,85921,1,8,0:0:0:0:
228,234,86076,1,0,0:0:0:0:
433,203,86232,2,0,P|477:239|492:275,1,89.9999972534181,4|2,3:0|0:0,0:0:0:0:
273,149,86543,6,0,L|272:23,1,89.9999972534181,0|2,0:0|3:0,0:0:0:0:
436,130,86853,1,4,3:0:0:0:
253,194,87009,2,0,L|252:68,1,89.9999972534181,0|8,0:0|0:0,0:0:0:0:
419,174,87320,1,0,0:0:0:0:
228,234,87475,2,0,L|227:108,1,89.9999972534181,4|2,3:0|0:0,0:0:0:0:
326,7,87786,5,4,3:0:0:0:
326,175,87942,1,0,0:0:0:0:
227,40,88097,1,4,3:0:0:0:
387,91,88252,1,0,0:0:0:0:
227,144,88408,2,0,L|119:141,1,89.9999972534181,8|0,0:0|0:0,0:0:0:0:
32,266,88719,2,0,L|140:269,1,89.9999972534181,4|2,3:0|0:0,0:0:0:0:
302,271,89030,5,2,0:0:0:0:
227,144,89185,1,8,0:0:0:0:
169,343,89341,1,8,0:0:0:0:
137,141,89496,1,0,1:0:0:0:
302,271,89651,1,4,3:0:0:0:
283,55,89807,1,12,3:0:0:0:
186,248,89962,2,0,P|227:284|305:268,1,134.999995880127,0|0,0:0|0:0,0:0:0:0:
301,270,90273,6,0,L|439:270,1,127.50000243187,6|2,3:2|3:0,0:0:0:0:
490,115,90895,1,2,3:0:0:0:
490,115,91050,2,0,P|491:72|483:42,1,63.7500012159348,2|0,3:0|0:0,0:0:0:0:
407,26,91361,6,0,P|369:44|276:35,1,127.50000243187,2|2,3:0|3:0,0:0:0:0:
175,163,91983,2,0,P|213:145|306:154,2,127.50000243187,2|2|2,3:0|3:0|3:0,0:0:0:0:
102,204,92760,6,0,P|92:153|134:90,1,127.50000243187,2|2,3:0|3:0,0:0:0:0:
285,39,93382,1,2,3:0:0:0:
285,39,93537,2,0,L|364:35,1,63.7500012159348,2|0,3:0|0:0,0:0:0:0:
431,33,93848,5,2,3:0:0:0:
389,193,94159,1,2,3:0:0:0:
389,193,95247,6,0,L|248:190,1,127.50000243187,2|2,3:0|3:0,0:0:0:0:
95,193,95869,1,2,3:0:0:0:
95,193,96024,2,0,P|81:239|88:282,1,63.7500012159348,2|0,3:0|0:0,0:0:0:0:
144,308,96335,6,0,P|194:301|283:313,1,127.50000243187,2|2,3:0|3:0,0:0:0:0:
389,193,96957,2,0,P|339:200|250:188,2,127.50000243187,2|2|2,3:0|3:0|3:0,0:0:0:0:
462,154,97734,6,0,L|450:11,1,127.50000243187,2|2,3:0|3:0,0:0:0:0:
284,27,98356,1,2,3:0:0:0:
284,27,98512,2,0,P|250:37|214:34,1,63.7500012159348,2|0,3:0|0:0,0:0:0:0:
141,19,98822,5,2,3:0:0:0:
183,179,99133,1,2,3:0:0:0:
183,179,100221,6,0,L|196:317,1,127.50000243187,2|2,0:0|0:0,0:0:0:0:
275,359,100688,1,2,0:0:0:0:
332,282,100843,2,0,P|375:278|411:285,1,63.7500012159348,10|2,0:0|3:0,0:0:0:0:
440,365,101154,2,0,P|397:369|361:362,1,63.7500012159348,2|2,0:0|3:0,0:0:0:0:
332,282,101465,6,2,B|318:216|318:216|329:150,1,127.50000243187,4|0,3:0|1:0,0:0:0:0:
354,64,101931,1,4,3:0:0:0:
261,37,102087,2,0,L|184:41,1,63.7500012159348,10|0,0:0|0:0,0:0:0:0:
129,108,102398,2,0,L|52:112,1,63.7500012159348,4|2,3:0|0:0,0:0:0:0:
21,196,102708,6,0,P|11:248|44:315,2,127.50000243187,4|4|10,3:0|3:0|0:0,0:0:0:0:
106,241,103486,1,2,3:0:0:0:
181,182,103641,2,0,L|258:176,1,63.7500012159348,2|2,0:0|3:0,0:0:0:0:
340,168,103952,6,0,P|314:110|244:81,2,127.50000243187,4|4|8,3:0|3:0|2:0,0:0:0:0:
321,262,104729,1,0,0:0:0:0:
392,326,104885,2,0,L|483:320,1,63.7500012159348,4|2,3:0|0:0,0:0:0:0:
321,262,105195,6,0,P|296:258|264:265,1,42.5000008106232,2|0,0:0|0:0,0:0:0:0:
171,341,105506,2,0,P|196:337|231:344,1,42.5000008106232,2|0,0:0|0:0,0:0:0:0:
321,262,105817,2,2,P|314:194|311:114,1,127.50000243187,8|2,0:0|0:0,0:0:0:0:
228,87,106284,1,2,0:0:0:0:
153,147,106439,6,2,P|103:155|28:106,1,127.50000243187,4|0,3:0|1:0,0:0:0:0:
113,60,106905,1,2,0:0:0:0:
153,147,107061,2,2,L|151:215,1,63.7500012159348,8|2,0:0|0:0,0:0:0:0:
241,244,107372,2,2,L|243:176,1,63.7500012159348,4|4,3:0|3:0,0:0:0:0:
323,128,107683,5,4,3:0:0:0:
323,128,107993,2,0,P|372:129|401:125,1,63.7500012159348,2|0,3:0|0:0,0:0:0:0:
476,94,108304,2,2,B|489:176|489:176|476:245,1,127.50000243187,10|0,0:0|0:0,0:0:0:0:
452,312,108771,1,0,0:0:0:0:
385,243,108926,6,0,P|360:233|319:234,1,63.7500012159348,0|2,1:0|0:0,0:0:0:0:
234,268,109237,2,0,P|209:278|168:277,1,63.7500012159348,0|2,1:0|0:0,0:0:0:0:
96,219,109548,2,2,L|100:93,1,95.6250018239022,8|0,0:0|0:0,0:0:0:0:
99,123,109859,2,2,P|127:125|170:111,1,63.7500012159348,0|2,1:0|3:0,0:0:0:0:
295,46,110170,6,0,L|394:40,1,67.4999979400636,8|0,0:0|0:0,0:0:0:0:
295,179,110480,2,0,L|197:173,1,67.4999979400636,8|0,0:0|0:0,0:0:0:0:
361,41,110791,2,0,L|460:34,1,67.4999979400636,8|0,0:0|0:0,0:0:0:0:
361,183,111102,2,0,L|263:177,1,67.4999979400636,8|0,0:0|0:0,0:0:0:0:
156,111,111413,6,0,P|151:75|164:32,1,67.4999979400636,8|0,0:0|0:0,0:0:0:0:
295,179,111724,2,0,P|301:215|287:257,1,67.4999979400636,8|0,0:0|0:0,0:0:0:0:
154,176,112035,2,0,P|149:140|162:97,1,67.4999979400636,8|0,0:0|0:0,0:0:0:0:
293,244,112346,2,0,P|298:279|285:322,1,67.4999979400636,8|0,0:0|0:0,0:0:0:0:
138,330,112657,6,0,L|56:334,1,67.4999979400636,8|0,0:0|0:0,0:0:0:0:
87,179,112967,2,0,L|170:175,1,67.4999979400636,8|0,0:0|0:0,0:0:0:0:
204,326,113278,2,0,L|121:330,1,67.4999979400636,8|0,0:0|0:0,0:0:0:0:
153,175,113589,2,0,L|236:171,1,67.4999979400636,8|0,0:0|0:0,0:0:0:0:
369,131,113900,6,0,P|379:65|348:-3,1,134.999995880127,8|8,0:0|0:0,0:0:0:0:
251,78,114366,1,0,0:0:0:0:
299,224,114522,2,0,P|355:247|438:226,1,134.999995880127,8|8,0:0|0:0,0:0:0:0:
369,131,114988,1,0,0:0:0:0:
217,166,115144,6,0,L|225:316,1,134.999995880127,12|8,0:0|0:0,0:0:0:0:
138,367,115610,1,0,0:0:0:0:
33,281,115765,2,0,B|29:243|29:243|36:203,1,67.4999979400636,8|0,0:0|0:0,0:0:0:0:
125,114,116076,2,0,B|129:152|129:152|122:192,1,67.4999979400636,8|0,0:0|0:0,0:0:0:0:
77,32,116387,6,0,P|118:19|162:26,1,67.4999979400636,8|0,0:0|0:0,0:0:0:0:
285,81,116698,2,0,P|244:68|200:75,1,67.4999979400636,8|0,0:0|0:0,0:0:0:0:
215,250,117009,2,0,B|230:276|230:276|257:221|235:174,1,134.999995880127,8|8,0:0|0:0,0:0:0:0:
123,180,117475,1,0,0:0:0:0:
100,286,117631,6,0,L|136:361,1,67.4999979400636,8|0,0:0|0:0,0:0:0:0:
230,276,117942,2,0,L|266:351,1,67.4999979400636,8|0,0:0|0:0,0:0:0:0:
360,270,118252,1,8,0:0:0:0:
302,162,118408,1,0,0:0:0:0:
423,165,118563,2,0,P|416:114|382:70,1,101.249996910095,8|0,0:0|0:0,0:0:0:0:
387,74,118874,5,8,0:0:0:0:
302,162,119030,1,2,3:0:0:0:
267,46,119185,1,8,0:0:0:0:
302,162,119341,1,2,3:0:0:0:
184,133,119496,2,0,L|157:134,14,16.8749994850159,2|2|2|2|2|2|2|0|2|2|2|2|2|2|2,0:0|0:0|0:0|0:0|0:0|0:0|0:0|0:0|0:0|0:0|0:0|0:0|0:0|0:0|0:0,0:0:0:0:
135,138,120118,6,0,B|120:231|120:231|149:295,1,150,4|8,2:3|0:0,0:0:0:0:
211,380,120584,1,2,3:0:0:0:
298,298,120739,2,0,L|377:301,1,75,8|0,0:0|0:0,0:0:0:0:
439,200,121050,2,0,L|360:197,1,75,4|0,3:0|0:0,0:0:0:0:
222,173,121361,6,0,B|204:119|235:77|235:77|213:19,1,150,8|2,0:0|3:0,0:0:0:0:
311,136,121828,1,0,0:0:0:0:
239,267,121983,2,0,P|179:258|133:207,1,112.5,8|0,0:0|0:0,0:0:0:0:
141,224,122294,1,8,0:0:0:0:
311,136,122449,1,2,3:0:0:0:
311,136,122527,1,2,3:0:0:0:
311,136,122605,5,4,3:0:0:0:
329,314,122760,1,4,3:0:0:0:
434,207,122916,2,0,P|476:204|513:211,1,75,8|2,0:0|3:0,0:0:0:0:
329,314,123227,2,0,P|244:320|170:305,1,150,8|8,0:0|0:0,0:0:0:0:
71,258,123693,1,0,0:0:0:0:
184,160,123848,6,0,L|176:61,1,75,4|2,3:0|3:0,0:0:0:0:
314,147,124159,2,0,L|322:246,1,75,10|0,0:0|0:0,0:0:0:0:
348,369,124470,2,0,P|412:356|452:307,1,112.5,8|0,0:0|0:0,0:0:0:0:
443,323,124781,2,0,P|425:291|419:247,1,75,10|0,0:0|0:0,0:0:0:0:
314,147,125092,6,0,P|332:179|338:223,1,75,4|2,3:0|3:0,0:0:0:0:
252,340,125403,1,8,2:3:0:0:
126,258,125558,1,2,3:0:0:0:
126,258,125636,1,2,3:0:0:0:
126,258,125714,2,0,L|24:265,1,75,8|2,3:2|3:0,0:0:0:0:
88,125,126024,2,0,L|190:118,1,75,4|2,3:0|3:0,0:0:0:0:
305,106,126335,5,8,3:2:0:0:
305,106,126413,1,2,3:0:0:0:
305,106,126491,1,2,3:0:0:0:
305,106,126569,1,2,3:0:0:0:
305,106,126646,2,0,P|309:45|298:1,1,75,4|0,3:0|0:0,0:0:0:0:
448,118,126957,1,8,0:2:0:0:
448,118,127035,1,2,3:0:0:0:
448,118,127113,1,2,3:0:0:0:
448,118,127191,1,2,3:0:0:0:
448,118,127268,2,0,P|444:179|455:223,1,75,4|0,3:0|0:0,0:0:0:0:
411,346,127579,6,0,L|354:341,3,37.5,6|2|4|2,3:0|3:0|3:0|3:0,0:0:0:0:
304,273,127890,2,0,L|247:268,3,37.5,6|2|4|2,3:0|3:0|3:0|3:0,0:0:0:0:
197,200,128201,1,6,3:0:0:0:
190,174,128278,1,2,3:0:0:0:
189,147,128356,1,4,3:0:0:0:
196,121,128434,1,2,3:0:0:0:
206,97,128512,1,6,3:0:0:0:
212,71,128589,1,2,3:0:0:0:
212,44,128667,1,4,3:0:0:0:
206,18,128745,1,2,3:0:0:0:
37,15,130066,6,0,B|26:99|26:99|46:161,1,134.999995880127,4|0,3:0|0:0,0:0:0:0:
94,220,130377,2,0,P|140:227|195:208,1,89.9999972534181,0|0,0:0|0:0,0:0:0:0:
313,93,130688,1,8,0:0:0:0:
135,117,130843,1,0,0:0:0:0:
290,208,130999,2,0,L|297:304,1,89.9999972534181,0|0,0:0|0:0,0:0:0:0:
437,186,131309,6,0,L|430:90,1,89.9999972534181,0|0,0:0|0:0,0:0:0:0:
290,208,131620,1,4,3:0:0:0:
443,275,131776,2,0,L|436:179,1,89.9999972534181,0|8,0:0|0:0,0:0:0:0:
290,208,132087,1,0,0:0:0:0:
449,364,132242,2,0,L|442:268,1,89.9999972534181,0|0,0:0|0:0,0:0:0:0:
290,208,132553,5,4,3:0:0:0:
290,208,132864,2,0,P|245:196|186:212,1,89.9999972534181,0|0,0:0|0:0,0:0:0:0:
62,316,133175,1,8,0:0:0:0:
241,307,133330,1,0,0:0:0:0:
95,199,133486,2,0,B|90:155|90:155|97:103,1,89.9999972534181,4|0,3:0|0:0,0:0:0:0:
291,118,133796,6,0,B|296:162|296:162|289:214,1,89.9999972534181,0|0,0:0|0:0,0:0:0:0:
238,380,134107,1,4,3:0:0:0:
193,167,134263,1,0,0:0:0:0:
379,274,134418,1,8,0:0:0:0:
214,279,134574,1,0,3:0:0:0:
291,118,134729,2,0,L|287:5,1,89.9999972534181,4|0,3:0|0:0,0:0:0:0:
447,111,135040,6,0,L|451:224,1,89.9999972534181,12|2,3:0|0:0,0:0:0:0:
293,297,135351,2,0,L|289:184,1,89.9999972534181,2|2,0:0|0:0,0:0:0:0:
155,87,135662,1,10,0:0:0:0:
121,263,135817,1,0,0:0:0:0:
289,207,135973,2,0,P|333:203|382:221,1,89.9999972534181,4|2,3:0|0:0,0:0:0:0:
282,367,136284,6,0,P|238:371|189:353,1,89.9999972534181,2|2,0:0|0:0,0:0:0:0:
292,205,136594,1,4,3:0:0:0:
368,354,136750,2,0,P|326:369|274:364,1,89.9999972534181,0|10,0:0|0:0,0:0:0:0:
292,205,137061,1,2,0:0:0:0:
448,319,137216,2,0,P|411:344|360:353,1,89.9999972534181,2|2,0:0|0:0,0:0:0:0:
292,205,137527,5,4,3:0:0:0:
472,190,137683,1,0,0:0:0:0:
278,94,137838,1,4,3:0:0:0:
458,79,137993,1,0,0:0:0:0:
292,205,138149,2,0,P|263:213|199:207,1,89.9999972534181,8|0,0:0|0:0,0:0:0:0:
102,58,138460,2,0,P|131:50|195:56,1,89.9999972534181,4|2,3:0|0:0,0:0:0:0:
341,121,138771,5,2,0:0:0:0:
203,208,138926,1,2,0:0:0:0:
390,211,139081,1,8,0:0:0:0:
231,310,139237,1,8,0:0:0:0:
254,123,139392,1,4,3:0:0:0:
81,199,139548,1,12,3:0:0:0:
231,310,139703,2,0,P|302:301|377:298,1,134.999995880127,0|0,0:0|0:0,0:0:0:0:
365,298,140014,6,0,B|375:255|375:255|368:201,1,89.9999972534181,4|0,3:0|0:0,0:0:0:0:
337,31,140325,1,0,0:0:0:0:
337,31,140636,2,0,P|287:44|240:34,1,89.9999972534181,8|0,0:0|0:0,0:0:0:0:
104,145,140947,2,0,P|154:132|201:142,1,89.9999972534181,4|2,3:0|3:0,0:0:0:0:
330,222,141258,6,0,L|437:214,1,89.9999972534181,0|2,0:0|3:0,0:0:0:0:
273,65,141569,1,4,3:0:0:0:
240,228,141724,2,0,L|347:220,1,89.9999972534181,0|8,0:0|0:0,0:0:0:0:
273,65,142035,1,0,0:0:0:0:
150,234,142190,2,0,L|257:226,1,89.9999972534181,4|0,3:0|0:0,0:0:0:0:
273,65,142501,6,0,P|233:45|167:50,1,89.9999972534181,4|2,3:0|0:0,0:0:0:0:
240,228,142812,2,0,P|280:248|346:243,1,89.9999972534181,2|4,0:0|3:0,0:0:0:0:
487,171,143123,1,10,0:0:0:0:
310,136,143278,1,0,0:0:0:0:
446,254,143434,2,0,P|433:306|388:351,1,89.9999972534181,4|2,3:0|0:0,0:0:0:0:
239,318,143745,6,0,L|241:211,1,89.9999972534181,2|2,0:0|0:0,0:0:0:0:
256,48,144056,1,4,3:0:0:0:
372,184,144211,1,0,0:0:0:0:
169,144,144366,2,0,P|141:179|131:236,1,89.9999972534181,4|2,3:0|0:0,0:0:0:0:
333,262,144677,2,0,P|361:227|371:170,1,89.9999972534181,4|2,3:0|0:0,0:0:0:0:
256,48,144988,6,0,B|170:53|170:53|99:43,1,134.999995880127,4|0,3:0|0:0,0:0:0:0:
121,46,145299,2,0,P|86:83|74:124,1,89.9999972534181,2|2,0:0|0:0,0:0:0:0:
106,296,145610,1,8,0:0:0:0:
0,204,145765,1,0,0:0:0:0:
180,197,145921,2,0,B|227:201|227:201|275:194,1,89.9999972534181,4|2,3:0|0:0,0:0:0:0:
433,119,146232,6,0,P|436:69|415:21,1,89.9999972534181,0|2,0:0|3:0,0:0:0:0:
312,93,146543,1,4,3:0:0:0:
443,205,146698,2,0,P|446:155|425:107,1,89.9999972534181,0|8,0:0|0:0,0:0:0:0:
322,179,147009,1,0,0:0:0:0:
453,291,147164,2,0,P|456:241|435:193,1,89.9999972534181,4|2,3:0|0:0,0:0:0:0:
312,93,147475,5,4,3:0:0:0:
327,272,147631,1,0,0:0:0:0:
193,109,147786,1,4,3:0:0:0:
200,288,147942,1,0,0:0:0:0:
312,93,148097,2,0,L|306:3,1,89.9999972534181,8|0,0:0|0:0,0:0:0:0:
194,198,148408,2,0,L|199:287,1,89.9999972534181,4|2,3:0|0:0,0:0:0:0:
351,190,148719,5,0,0:0:0:0:
193,109,148874,1,2,0:0:0:0:
199,287,149030,1,8,0:0:0:0:
351,190,149185,1,8,0:0:0:0:
143,197,149341,1,4,3:0:0:0:
313,296,149496,1,12,3:0:0:0:
297,95,149651,2,0,P|355:81|436:122,1,134.999995880127,0|0,0:0|0:0,0:0:0:0:
475,175,149962,5,4,0:0:0:0:
202,189,159910,6,0,P|194:152|204:103,1,75,4|0,3:0|0:0,0:0:0:0:
342,115,160221,2,0,P|350:152|340:201,1,75,0|2,0:0|3:0,0:0:0:0:
202,275,160532,2,0,P|194:312|204:361,1,75,8|0,0:0|0:0,0:0:0:0:
342,349,160843,2,0,P|350:312|340:263,1,75,4|0,3:0|0:0,0:0:0:0:
202,189,161154,6,0,L|113:185,1,75,0|2,0:0|3:0,0:0:0:0:
344,188,161465,2,0,L|433:184,1,75,0|2,0:0|0:0,0:0:0:0:
290,58,161776,2,0,P|270:104|274:148,1,75,8|8,0:0|0:0,0:0:0:0:
274,278,162087,1,8,0:0:0:0:
127,185,162242,1,2,3:0:0:0:
127,185,162320,1,2,3:0:0:0:
127,185,162398,5,6,3:0:0:0:
158,361,162553,1,4,3:0:0:0:
239,201,162708,2,0,P|273:194|331:214,1,75,8|2,0:0|3:0,0:0:0:0:
443,274,163019,2,0,P|409:281|351:261,1,75,8|0,0:0|0:0,0:0:0:0:
408,117,163330,2,0,L|408:192,1,75,8|0,0:0|0:0,0:0:0:0:
274,277,163641,6,0,P|199:290|118:240,1,150,4|8,3:0|0:0,0:0:0:0:
217,161,164107,1,0,0:0:0:0:
108,79,164263,2,0,L|27:82,1,75,4|2,3:0|3:0,0:0:0:0:
217,161,164574,2,0,L|298:158,1,75,8|0,0:0|0:0,0:0:0:0:
440,183,164885,6,0,P|452:221|445:270,1,75,6|2,3:0|3:0,0:0:0:0:
345,363,165195,1,8,0:0:0:0:
218,281,165351,1,2,3:0:0:0:
218,281,165429,1,2,3:0:0:0:
218,281,165506,2,0,L|114:285,1,75,8|2,0:0|3:0,0:0:0:0:
34,168,165817,2,0,L|138:164,1,75,8|2,0:0|3:0,0:0:0:0:
297,163,166128,5,8,0:0:0:0:
297,163,166206,1,2,3:0:0:0:
297,163,166283,1,2,3:0:0:0:
297,163,166361,1,2,3:0:0:0:
297,163,166439,2,0,P|302:117|294:72,1,75,8|2,0:0|3:0,0:0:0:0:
218,281,166750,1,8,0:0:0:0:
218,281,166828,1,2,3:0:0:0:
218,281,166905,1,2,3:0:0:0:
218,281,166983,1,2,3:0:0:0:
218,281,167061,2,0,P|213:327|221:372,1,75,8|2,0:0|3:0,0:0:0:0:
373,369,167372,6,0,L|412:364,3,37.5,8|2|8|2,0:0|3:0|0:0|3:0,0:0:0:0:
468,285,167683,2,0,L|463:246,3,37.5,8|2|8|2,0:0|3:0|0:0|3:0,0:0:0:0:
415,163,167993,1,8,0:0:0:0:
388,165,168071,1,2,3:0:0:0:
361,168,168149,1,8,0:0:0:0:
335,170,168227,1,2,3:0:0:0:
308,173,168304,1,8,0:0:0:0:
281,176,168382,1,2,3:0:0:0:
255,178,168460,1,8,0:0:0:0:
228,181,168537,1,2,3:0:0:0:
482,221,169859,6,0,P|425:182|337:199,1,134.999995880127,4|0,3:0|0:0,0:0:0:0:
315,263,170170,2,0,L|305:113,1,134.999995880127,0|0,0:0|0:0,0:0:0:0:
220,103,170480,2,0,L|230:253,1,134.999995880127,8|0,0:0|0:0,0:0:0:0:
224,327,170791,2,0,P|167:366|79:349,1,134.999995880127,0|0,0:0|0:0,0:0:0:0:
30,309,171102,6,0,B|16:264|16:264|26:203,1,89.9999972534181,0|0,0:0|0:0,0:0:0:0:
228,237,171413,1,4,3:0:0:0:
30,134,171569,2,0,B|16:179|16:179|26:240,1,89.9999972534181,0|8,0:0|0:0,0:0:0:0:
228,237,171879,1,0,0:0:0:0:
192,8,172035,2,0,P|85:41|28:140,1,225,0|0,0:0|0:0,0:0:0:0:
89,342,172657,5,0,0:0:0:0:
179,158,172812,1,0,0:0:0:0:
214,359,172968,1,8,0:0:0:0:
67,217,173123,1,0,0:0:0:0:
269,246,173278,2,0,L|373:239,1,89.9999972534181,4|0,3:0|0:0,0:0:0:0:
471,98,173589,6,0,P|473:40|459:0,1,89.9999972534181,0|0,0:0|0:0,0:0:0:0:
293,70,173900,1,4,3:0:0:0:
450,205,174056,1,0,0:0:0:0:
368,15,174211,1,8,0:0:0:0:
243,179,174366,1,0,3:0:0:0:
450,205,174522,2,0,B|457:252|457:252|454:315,1,89.9999972534181,4|0,3:0|0:0,0:0:0:0:
283,352,174833,6,0,P|212:353|148:315,1,134.999995880127,12|0,3:0|0:0,0:0:0:0:
174,234,175144,2,0,P|245:233|309:271,1,134.999995880127,2|0,0:0|0:0,0:0:0:0:
381,302,175455,2,0,B|394:250|394:250|385:156,1,134.999995880127,10|0,0:0|0:0,0:0:0:0:
305,129,175765,2,0,B|292:181|292:181|301:275,1,134.999995880127,4|0,3:0|0:0,0:0:0:0:
381,302,176076,6,0,P|422:312|476:300,1,89.9999972534181,2|2,0:0|0:0,0:0:0:0:
502,126,176387,1,4,3:0:0:0:
389,267,176543,2,0,P|430:277|484:265,1,89.9999972534181,0|2,0:0|0:0,0:0:0:0:
500,90,176853,1,2,0:0:0:0:
395,237,177009,2,0,P|436:247|490:235,1,89.9999972534181,2|2,0:0|0:0,0:0:0:0:
347,81,177320,5,4,3:0:0:0:
274,274,177475,1,0,0:0:0:0:
199,80,177631,1,4,3:0:0:0:
126,273,177786,1,0,0:0:0:0:
311,178,177942,2,0,L|424:173,1,89.9999972534181,8|0,0:0|0:0,0:0:0:0:
126,273,178252,2,0,L|13:268,1,89.9999972534181,4|2,3:0|0:0,0:0:0:0:
222,177,178563,5,2,0:0:0:0:
295,370,178718,1,2,0:0:0:0:
370,176,178874,1,8,0:0:0:0:
443,369,179029,1,8,0:0:0:0:
258,274,179185,1,4,3:0:0:0:
463,244,179341,1,12,3:0:0:0:
287,135,179496,2,0,P|324:96|422:103,1,134.999995880127,0|0,0:0|0:0,0:0:0:0:
401,91,179807,6,0,L|387:-18,1,89.9999972534181,4|0,3:0|0:0,0:0:0:0:
226,80,180118,2,0,L|249:239,1,134.999995880127,0|0,0:0|0:0,0:0:0:0:
262,302,180429,2,0,P|202:326|105:312,1,134.999995880127,8|0,0:0|0:0,0:0:0:0:
116,234,180739,2,0,P|176:210|273:224,1,134.999995880127,4|0,3:0|0:0,0:0:0:0:
331,239,181050,6,0,L|438:228,1,89.9999972534181,0|2,0:0|3:0,0:0:0:0:
348,64,181361,1,4,3:0:0:0:
334,271,181517,2,0,L|441:260,1,89.9999972534181,0|8,0:0|0:0,0:0:0:0:
349,97,181828,1,0,0:0:0:0:
336,303,181983,2,0,L|443:292,1,89.9999972534181,4|0,3:0|0:0,0:0:0:0:
245,213,182294,5,4,3:0:0:0:
245,213,182605,2,0,B|200:207|200:207|132:216,1,89.9999972534181,2|4,0:0|3:0,0:0:0:0:
23,336,182916,1,10,0:0:0:0:
5,157,183071,1,0,0:0:0:0:
115,300,183227,1,4,3:0:0:0:
97,121,183382,1,2,0:0:0:0:
245,213,183537,6,0,L|361:208,1,89.9999972534181,2|2,0:0|0:0,0:0:0:0:
498,133,183848,1,4,3:0:0:0:
434,330,184004,1,0,0:0:0:0:
388,128,184159,2,0,P|341:112|279:130,1,89.9999972534181,4|2,3:0|0:0,0:0:0:0:
159,203,184470,2,0,P|206:219|268:201,1,89.9999972534181,4|2,3:0|0:0,0:0:0:0:
82,135,184781,6,0,P|58:199|86:276,1,134.999995880127,4|0,3:0|0:0,0:0:0:0:
149,312,185092,2,0,B|240:304|240:304|289:319,1,134.999995880127,2|0,0:0|0:0,0:0:0:0:
361,358,185403,2,0,P|373:301|316:233,1,134.999995880127,8|0,0:0|0:0,0:0:0:0:
245,213,185714,2,0,B|242:176|242:176|251:126|251:126|245:70,1,134.999995880127,4|0,3:0|0:0,0:0:0:0:
166,37,186024,6,0,L|58:41,1,89.9999972534181,0|2,0:0|3:0,0:0:0:0:
44,218,186335,1,4,3:0:0:0:
150,72,186491,2,0,L|42:76,1,89.9999972534181,0|8,0:0|0:0,0:0:0:0:
26,252,186802,1,0,0:0:0:0:
136,109,186957,2,0,L|28:113,1,89.9999972534181,4|2,3:0|0:0,0:0:0:0:
164,283,187268,5,4,3:0:0:0:
164,283,187423,1,0,0:0:0:0:
266,145,187579,2,0,L|253:38,1,89.9999972534181,4|0,3:0|0:0,0:0:0:0:
164,283,187890,5,8,0:0:0:0:
164,283,188045,1,0,0:0:0:0:
331,246,188201,2,0,L|344:353,1,89.9999972534181,4|2,3:0|0:0,0:0:0:0:
164,283,188512,5,4,3:0:0:0:
164,283,188667,1,2,0:0:0:0:
33,171,188823,2,0,L|20:64,1,89.9999972534181,8|8,0:0|0:0,0:0:0:0:
164,283,189133,5,4,3:0:0:0:
266,145,189289,1,12,3:0:0:0:
341,335,189444,2,0,B|384:340|384:340|446:323,1,89.9999972534181,0|2,0:0|0:0,0:0:0:0:
