osu file format v14

[General]
AudioFilename: 24K () - (Superfly).mp3
AudioLeadIn: 0
PreviewTime: 69133
Countdown: 0
SampleSet: Soft
StackLeniency: 0.3
Mode: 0
LetterboxInBreaks: 0
WidescreenStoryboard: 0

[Editor]
Bookmarks: 718,10666,20614,30562,70355,90251,100199,110148,120096,130044,139992,149940,159888,169837,179785,189733
DistanceSpacing: 1
BeatDivisor: 4
GridSize: 4
TimelineZoom: 1.900001

[Metadata]
Title:SUPERFLY
TitleUnicode:날라리
Artist:24K
ArtistUnicode:투포케이
Creator:DeRandom Otaku
Version:Easy
Source:
Tags:Trap Choeun Entertainment K-pop Kpop 코리 기수 정욱 휘 창선 진홍 홍섭 병호 석준 성오 대일 Cory Kisu Jeunguk Hui Changsun Jinhong Hongseob Byungho Seokjun Sungoh Daeil cool c00l Firetruck Neoskylove Akitoshi Corinn
BeatmapID:1220667
BeatmapSetID:558362

[Difficulty]
HPDrainRate:2
CircleSize:3
OverallDifficulty:2
ApproachRate:3
SliderMultiplier:1.8
SliderTickRate:2

[Events]
//Background and Video events
0,0,"BG.jpg",0,0
//Break Periods
2,90473,98781
2,150162,158470
//Storyboard Layer 0 (Background)
//Storyboard Layer 1 (Fail)
//Storyboard Layer 2 (Pass)
//Storyboard Layer 3 (Foreground)
//Storyboard Sound Samples

[TimingPoints]
740,621.761658031088,4,2,1,50,1,0
740,-100,4,2,1,50,0,0
9444,-100,4,2,1,50,0,0
10066,-100,4,2,1,40,0,0
10688,-100,4,2,2,60,0,0
18149,-100,4,2,2,60,0,0
20636,-100,4,2,1,70,0,1
20947,-100,4,2,1,70,0,1
30584,-100,4,2,1,60,0,0
31206,-100,4,2,1,45,0,0
50480,-100,4,2,2,55,0,0
70377,-100,4,2,1,70,0,1
80170,-100,4,2,1,70,0,0
80325,-100,4,2,1,75,0,1
90273,-100,4,2,1,50,0,0
110170,-100,4,2,2,50,0,0
120118,-100,4,2,2,60,0,0
130066,-100,4,2,1,70,0,1
139859,-100,4,2,1,70,0,0
140014,-100,4,2,1,75,0,1
149962,-100,4,2,1,75,0,0
159910,-100,4,2,2,60,0,0
169859,-100,4,2,1,70,0,1
179496,-100,4,2,1,70,0,0
179729,-100,4,2,1,5,0,0
179807,-100,4,2,1,75,0,1
189600,-100,4,2,1,75,0,0

[Colours]
Combo1 : 156,22,83
Combo2 : 0,128,255
Combo3 : 146,255,36
Combo4 : 242,82,13

[HitObjects]
303,78,740,6,0,P|393:78|468:142,1,180,6|10,2:3|0:0,0:0:0:0:
419,306,1983,2,0,P|329:306|254:242,1,180,0|10,0:0|0:0,0:0:0:0:
196,188,2916,1,2,3:0:0:0:
132,251,3227,6,0,L|125:66,1,180,0|10,0:0|0:0,0:0:0:0:
305,71,4470,2,0,L|298:250,1,180,0|10,0:0|0:0,0:0:0:0:
292,340,5403,1,2,3:0:0:0:
216,291,5714,6,0,P|126:291|45:335,1,180,2|10,3:0|0:0,0:0:0:0:
48,152,6957,2,0,P|126:193|217:193,1,180,0|10,0:0|0:0,0:0:0:0:
306,193,7890,1,2,3:0:0:0:
396,193,8201,6,0,P|372:133|263:112,1,180,0|10,0:0|0:0,0:0:0:0:
127,215,9444,2,0,L|314:192,1,180,2|2,3:0|3:0,0:0:0:0:
485,182,10688,6,0,P|468:269|391:325,1,180,4|8,2:3|0:0,0:0:0:0:
310,340,11620,1,4,3:0:0:0:
219,340,11931,2,0,P|213:294|222:245,1,90,8|8,0:0|0:0,0:0:0:0:
283,187,12553,2,0,P|289:141|280:92,1,90,8|8,0:0|0:0,0:0:0:0:
218,34,13175,6,0,L|398:50,1,180,4|8,3:0|0:0,0:0:0:0:
486,61,14107,1,8,0:0:0:0:
434,134,14418,2,0,L|439:228,1,90,4|8,3:0|0:0,0:0:0:0:
441,314,15040,2,0,L|347:319,1,90,8|2,0:0|3:0,0:0:0:0:
260,318,15662,6,0,P|263:271|235:219,2,90,4|8|8,3:0|0:0|0:2,0:0:0:0:
175,288,16594,1,8,0:0:0:0:
90,318,16905,2,0,P|87:271|115:219,2,90,8|8|8,0:2|0:0|0:2,0:0:0:0:
175,288,17838,1,8,0:0:0:0:
256,192,18149,12,0,19237,0:0:0:0:
355,123,20636,6,0,L|453:127,1,90,4|0,3:0|0:0,0:0:0:0:
443,216,21258,2,0,L|345:212,1,90,8|0,0:0|0:0,0:0:0:0:
263,205,21879,2,0,B|243:269|243:269|257:341,2,135,0|0|0,0:0|0:0|0:0,0:0:0:0:
309,127,23123,6,0,P|316:85|309:32,1,90,4|0,3:0|0:0,0:0:0:0:
220,38,23745,2,0,P|214:82|221:126,1,90,8|4,0:0|3:0,0:0:0:0:
263,205,24366,2,0,P|205:178|134:178,2,135,0|0|4,0:0|0:0|3:0,0:0:0:0:
326,268,25610,6,0,P|369:268|414:241,1,90,12|2,3:0|0:0,0:0:0:0:
346,182,26232,2,0,P|301:183|263:205,1,90,10|0,0:0|0:0,0:0:0:0:
200,269,26853,2,0,L|210:118,2,135,2|0|2,0:0|0:0|0:0,0:0:0:0:
188,358,28097,6,0,L|98:358,1,90,4|4,3:0|3:0,0:0:0:0:
34,294,28719,2,0,L|34:204,1,90,8|4,0:0|3:0,0:0:0:0:
34,113,29341,2,0,P|76:92|125:92,1,90,2|0,0:0|1:0,0:0:0:0:
200,127,29962,2,0,P|244:125|284:104,1,90,4|0,3:0|0:0,0:0:0:0:
359,54,30584,5,2,0:0:0:0:
359,234,31206,2,0,L|268:244,1,90,8|0,1:0|1:0,0:0:0:0:
198,299,31828,2,0,P|229:241|229:127,1,180,4|8,1:3|1:0,0:0:0:0:
201,43,32760,1,0,0:0:0:0:
142,111,33071,6,0,P|94:108|48:109,2,90,0|0|8,1:0|1:0|1:0,0:0:0:0:
229,129,34004,1,0,1:0:0:0:
312,161,34315,2,0,P|300:75|222:38,1,180,0|8,1:0|1:0,0:0:0:0:
52,109,35558,6,0,L|63:304,1,180,0|8,1:0|1:0,0:0:0:0:
242,288,36802,2,0,L|252:108,1,180,4|8,1:3|1:0,0:0:0:0:
258,18,37734,1,4,3:0:0:0:
329,72,38045,6,0,L|421:76,1,90,4|0,3:0|1:0,0:0:0:0:
430,165,38667,2,0,L|338:161,1,90,8|0,1:0|1:0,0:0:0:0:
249,161,39289,2,0,P|249:249|309:324,2,180,4|0|0,1:3|0:0|0:0,0:0:0:0:
249,70,40843,5,0,0:0:0:0:
358,213,41465,1,2,0:0:0:0:
358,213,41776,2,0,B|400:213|400:213|407:207|407:207|449:207,1,90,6|0,2:3|1:0,0:0:0:0:
407,123,42398,2,0,B|365:123|365:123|358:129|358:129|316:129,1,90,0|6,1:0|2:3,0:0:0:0:
249,70,43019,6,0,P|162:70|115:146,1,180,4|8,3:0|1:0,0:0:0:0:
115,232,43952,1,0,1:0:0:0:
115,322,44263,2,0,B|185:322|233:266|233:266|281:322|351:321,1,270,0|0,0:0|0:0,0:0:0:0:
438,342,45506,6,0,B|463:281|431:216|431:216|463:153|431:80,1,270,2|0,0:0|1:0,0:0:0:0:
347,50,46750,2,0,P|311:32|248:32,1,90,4|0,3:0|0:0,0:0:0:0:
171,28,47372,2,0,P|127:28|85:49,1,90,8|4,0:0|3:0,0:0:0:0:
147,115,47993,6,0,B|191:115|191:115|250:105,2,90,4|4|4,0:0|0:0|0:0,0:0:0:0:
83,178,48926,1,2,0:0:0:0:
146,241,49237,2,0,B|238:241|238:241|332:270,1,180,0|0,1:0|0:0,0:0:0:0:
403,305,50170,1,0,1:0:0:0:
472,248,50480,6,0,P|472:160|402:111,1,180,8|8,0:0|0:0,0:0:0:0:
311,111,51413,1,8,0:0:0:0:
220,111,51724,2,0,P|149:161|150:247,1,180,8|8,0:0|0:0,0:0:0:0:
304,340,52967,6,0,L|487:335,2,180,8|8|8,0:0|0:0|0:0,0:0:0:0:
213,343,54522,2,0,P|203:299|218:247,1,90,8|8,0:0|0:0,0:0:0:0:
222,166,55144,1,8,0:0:0:0:
233,76,55455,6,0,L|414:106,1,180,12|8,0:0|0:0,0:0:0:0:
474,169,56387,1,8,0:0:0:0:
410,232,56698,2,0,L|232:261,1,180,8|8,0:0|0:0,0:0:0:0:
52,271,57942,6,0,P|33:189|59:94,1,180,8|8,0:0|0:0,0:0:0:0:
93,15,58874,1,8,0:0:0:0:
156,78,59185,2,0,P|199:78|253:60,1,90,8|8,0:0|0:0,0:0:0:0:
327,30,59807,2,0,B|373:30|373:30|416:47,1,90,2|0,3:0|3:0,0:0:0:0:
473,114,60429,6,0,L|468:225,1,90,4|8,2:3|0:0,0:0:0:0:
468,293,61050,2,0,L|378:288,1,90,8|4,0:0|3:0,0:0:0:0:
287,288,61672,2,0,P|312:203|312:106,1,180,8|8,0:0|0:0,0:0:0:0:
248,48,62605,1,8,0:0:0:0:
184,111,62916,6,0,L|85:108,1,90,4|8,3:0|0:0,0:0:0:0:
94,198,63537,2,0,L|193:201,1,90,8|8,0:0|0:0,0:0:0:0:
273,208,64159,1,4,3:0:0:0:
113,284,64781,2,0,P|96:242|95:189,1,90,8|8,0:0|0:0,0:0:0:0:
110,109,65403,6,0,L|20:133,2,90,4|8|8,3:0|0:0|0:0,0:0:0:0:
198,92,66335,1,8,0:0:0:0:
286,109,66646,2,0,L|376:133,2,90,8|8|8,0:0|0:0|0:2,0:0:0:0:
198,92,67579,1,8,0:0:0:0:
256,192,67890,12,0,68978,0:0:0:0:
257,120,70377,6,0,P|247:166|255:210,1,90,4|0,3:0|0:0,0:0:0:0:
344,207,70999,2,0,P|351:162|341:119,1,90,8|0,0:0|0:0,0:0:0:0:
320,31,71620,2,0,P|392:26|464:35,2,135,0|0|0,0:0|0:0|0:0,0:0:0:0:
231,46,72864,6,0,L|238:138,1,90,4|0,3:0|0:0,0:0:0:0:
301,199,73486,2,0,L|294:291,1,90,8|4,0:0|3:0,0:0:0:0:
230,352,74107,2,0,P|297:335|366:356,2,135,0|0|4,0:0|0:0|3:0,0:0:0:0:
139,357,75351,6,0,B|129:314|129:314|140:262,1,90,12|2,3:0|0:0,0:0:0:0:
202,205,75973,2,0,B|212:162|212:162|201:110,1,90,10|4,0:0|3:0,0:0:0:0:
125,70,76594,2,0,L|270:49,2,135,2|0|2,0:0|0:0|0:0,0:0:0:0:
37,93,77838,6,0,P|58:134|58:182,1,90,4|4,3:0|3:0,0:0:0:0:
58,267,78460,2,0,P|58:311|80:351,1,90,8|4,0:0|3:0,0:0:0:0:
145,289,79081,2,0,L|236:277,1,90,2|8,0:0|0:0,0:0:0:0:
324,277,79703,2,0,L|415:289,1,90,4|0,3:0|0:0,0:0:0:0:
479,349,80325,6,0,P|448:287|448:174,1,180,4|8,3:0|0:0,0:0:0:0:
446,87,81258,1,4,3:0:0:0:
369,135,81569,2,0,L|216:124,2,135,0|0|4,0:0|0:0|3:0,0:0:0:0:
446,178,82812,6,0,P|446:268|374:336,1,180,4|10,3:0|0:0,0:0:0:0:
300,354,83745,1,4,3:0:0:0:
212,331,84056,2,0,P|148:317|75:317,2,135,2|0|4,0:0|0:0|3:0,0:0:0:0:
300,354,85299,6,0,B|315:265|315:265|300:174,1,180,4|8,3:0|0:0,0:0:0:0:
271,90,86232,1,4,3:0:0:0:
215,160,86543,2,0,P|163:192|85:193,2,135,0|0|4,0:0|0:0|3:0,0:0:0:0:
271,90,87786,6,0,L|365:98,1,90,4|4,3:0|3:0,0:0:0:0:
450,108,88408,2,0,L|442:202,1,90,8|4,0:0|3:0,0:0:0:0:
431,287,89030,2,0,P|387:273|342:281,1,90,2|8,0:0|0:0,0:0:0:0:
259,309,89651,2,0,P|214:315|172:301,1,90,4|0,3:0|0:0,0:0:0:0:
223,227,90273,5,6,3:2:0:0:
298,178,100221,6,0,L|388:185,1,90,2|2,0:0|0:0,0:0:0:0:
387,275,100843,2,0,L|297:282,1,90,10|2,0:0|0:0,0:0:0:0:
223,227,101465,2,0,P|133:227|87:304,1,180,4|10,3:0|0:0,0:0:0:0:
176,303,102398,1,4,3:0:0:0:
223,227,102708,6,0,P|223:183|213:132,1,90,4|4,3:0|3:0,0:0:0:0:
186,51,103330,2,0,P|230:42|275:42,1,90,10|2,0:0|0:0,0:0:0:0:
365,42,103952,2,0,L|357:228,1,180,4|8,3:0|2:0,0:0:0:0:
348,311,104885,1,4,3:0:0:0:
275,257,105195,6,0,L|172:270,1,90,2|2,0:0|0:0,0:0:0:0:
95,268,105817,2,2,L|108:165,1,90,8|2,0:0|0:0,0:0:0:0:
115,88,106439,2,2,P|203:70|296:70,1,180,4|8,3:0|0:0,0:0:0:0:
383,69,107372,1,4,3:0:0:0:
340,148,107683,6,2,P|341:197|354:242,1,90,4|2,3:0|3:0,0:0:0:0:
389,317,108304,2,2,L|296:335,1,90,10|0,0:0|0:0,0:0:0:0:
211,334,108926,2,0,L|122:316,1,90,0|0,1:0|1:0,0:0:0:0:
160,236,109548,2,2,P|171:192|172:148,1,90,8|0,0:0|1:0,0:0:0:0:
100,92,110170,6,0,L|281:106,1,180,8|8,0:0|0:0,0:0:0:0:
343,169,111102,1,8,0:0:0:0:
279,232,111413,2,0,L|99:245,1,180,8|8,0:0|0:0,0:0:0:0:
256,335,112657,6,0,P|342:357|430:336,2,180,8|8|8,0:0|0:0|0:0,0:0:0:0:
192,271,114211,1,8,0:0:0:0:
256,208,114522,2,0,P|256:165|237:119,1,90,8|8,0:0|0:0,0:0:0:0:
179,53,115144,6,0,P|249:78|355:78,1,180,12|8,0:0|0:0,0:0:0:0:
417,141,116076,1,8,0:0:0:0:
353,204,116387,2,0,P|263:201|178:229,1,180,8|8,0:0|0:0,0:0:0:0:
39,344,117631,6,0,L|39:163,1,180,8|8,0:0|0:0,0:0:0:0:
39,73,118563,1,8,0:0:0:0:
116,119,118874,2,0,P|161:119|209:105,1,90,8|8,0:0|0:0,0:0:0:0:
290,80,119496,2,0,B|329:81|329:81|351:85|351:85|385:85,1,90,2|2,0:0|0:0,0:0:0:0:
465,112,120118,6,0,P|465:157|475:207,1,90,4|8,2:3|0:0,0:0:0:0:
483,290,120739,2,0,P|441:290|395:309,1,90,8|4,0:0|3:0,0:0:0:0:
325,363,121361,2,0,P|352:288|315:187,1,180,8|8,0:0|0:0,0:0:0:0:
258,131,122294,1,8,0:0:0:0:
344,107,122605,6,0,L|441:113,1,90,4|8,3:0|0:0,0:0:0:0:
412,201,123227,2,0,L|315:195,1,90,8|8,0:0|0:0,0:0:0:0:
258,131,123848,1,4,3:0:0:0:
82,91,124470,2,0,B|82:134|82:134|103:178,1,90,8|10,0:0|0:0,0:0:0:0:
166,239,125092,6,0,P|128:261|81:261,2,90,4|8|8,3:0|2:3|3:2,0:0:0:0:
235,176,126024,1,4,3:0:0:0:
304,239,126335,2,0,P|342:261|389:261,2,90,8|4|8,3:2|3:0|0:2,0:0:0:0:
235,176,127268,1,4,3:0:0:0:
256,192,127579,12,0,128667,0:0:0:0:
257,120,130066,6,0,P|244:165|244:209,1,90,4|0,3:0|0:0,0:0:0:0:
243,298,130688,2,0,P|198:297|155:284,1,90,8|0,0:0|0:0,0:0:0:0:
93,219,131309,2,0,P|98:291|89:363,2,135,0|0|0,0:0|0:0|0:0,0:0:0:0:
93,128,132553,6,0,L|185:121,1,90,4|0,3:0|0:0,0:0:0:0:
273,121,133175,2,0,L|365:128,1,90,8|4,0:0|3:0,0:0:0:0:
426,191,133796,2,0,P|409:124|430:55,2,135,0|0|4,0:0|0:0|3:0,0:0:0:0:
436,280,135040,6,0,B|391:289|391:289|348:279,1,90,12|2,3:0|0:0,0:0:0:0:
284,216,135662,2,0,B|241:206|241:206|189:217,1,90,10|4,0:0|3:0,0:0:0:0:
131,280,136284,2,0,P|106:226|140:143,2,135,2|0|2,0:0|0:0|0:0,0:0:0:0:
172,359,137527,6,0,P|218:359|262:342,1,90,4|4,3:0|3:0,0:0:0:0:
342,309,138149,2,0,P|342:265|326:223,1,90,8|4,0:0|3:0,0:0:0:0:
326,132,138771,2,0,B|284:121|284:121|238:129,1,90,2|8,0:0|0:0,0:0:0:0:
237,221,139392,2,0,B|278:231|278:231|326:223,1,90,4|0,3:0|0:0,0:0:0:0:
405,178,140014,6,0,P|405:268|320:315,1,180,4|8,3:0|0:0,0:0:0:0:
246,324,140947,1,4,3:0:0:0:
165,283,141258,2,0,P|100:283|17:303,2,135,0|0|4,0:0|0:0|3:0,0:0:0:0:
246,324,142501,6,0,B|270:235|213:243|250:132,1,180,4|10,3:0|0:0,0:0:0:0:
252,57,143434,1,4,3:0:0:0:
327,105,143745,2,0,P|394:104|460:90,2,135,2|0|4,0:0|0:0|3:0,0:0:0:0:
252,57,144988,6,0,B|164:57|164:57|78:105,1,180,4|8,3:0|0:0,0:0:0:0:
19,165,145921,1,4,3:0:0:0:
82,228,146232,2,0,B|140:260|140:260|212:261,2,135,0|0|4,0:0|0:0|3:0,0:0:0:0:
19,165,147475,6,0,L|27:71,1,90,4|4,3:0|3:0,0:0:0:0:
103,28,148097,2,0,L|197:36,1,90,8|4,0:0|3:0,0:0:0:0:
282,46,148719,2,0,P|288:90|274:132,1,90,0|8,0:0|0:0,0:0:0:0:
211,196,149341,2,0,P|197:238|203:282,1,90,4|0,3:0|0:0,0:0:0:0:
267,346,149962,5,4,0:0:0:0:
71,169,159910,6,0,L|264:183,1,180,4|8,3:0|0:0,0:0:0:0:
340,192,160843,1,4,3:0:0:0:
430,193,161154,2,0,P|438:152|424:101,1,90,0|0,0:0|0:0,0:0:0:0:
336,105,161776,2,0,P|328:148|339:192,1,90,8|8,0:0|0:0,0:0:0:0:
356,280,162398,6,0,P|271:303|173:278,1,180,6|8,3:0|0:0,0:0:0:0:
119,219,163330,1,8,0:0:0:0:
182,155,163641,2,0,P|268:131|355:151,1,180,4|4,3:0|3:0,0:0:0:0:
418,215,164574,1,8,0:0:0:0:
356,280,164885,6,0,P|356:326|378:371,2,90,6|8|8,3:0|0:0|0:0,0:0:0:0:
292,216,165817,1,8,0:0:0:0:
228,280,166128,2,0,P|228:326|206:371,2,90,8|8|8,0:0|0:0|0:0,0:0:0:0:
292,216,167061,1,8,0:0:0:0:
256,192,167372,12,0,168460,0:0:0:0:
143,113,169859,6,0,L|154:204,1,90,4|0,3:0|0:0,0:0:0:0:
164,291,170480,1,8,0:0:0:0:
227,354,170791,1,0,0:0:0:0:
290,290,171102,2,0,B|363:290|363:290|442:277,2,135,0|0|0,0:0|0:0|0:0,0:0:0:0:
226,226,172346,5,4,3:0:0:0:
289,162,172657,2,0,L|381:169,2,90,0|8|4,0:0|0:0|3:0,0:0:0:0:
202,138,173589,2,0,P|171:80|103:50,2,135,0|0|4,0:0|0:0|3:0,0:0:0:0:
226,226,174833,6,0,L|126:236,1,90,12|2,3:0|0:0,0:0:0:0:
46,244,175455,1,10,0:0:0:0:
80,161,175765,1,4,3:0:0:0:
114,78,176076,2,0,P|154:45|244:45,2,135,2|0|2,0:0|0:0|0:0,0:0:0:0:
80,161,177320,6,0,L|93:252,1,90,4|4,3:0|3:0,0:0:0:0:
181,228,177942,2,0,L|168:137,1,90,8|4,0:0|3:0,0:0:0:0:
256,115,178563,2,0,L|268:204,1,90,2|8,0:0|0:0,0:0:0:0:
357,182,179185,2,0,L|344:91,1,90,4|0,3:0|0:0,0:0:0:0:
280,29,179807,6,0,P|236:29|177:44,1,90,4|0,3:0|0:0,0:0:0:0:
107,73,180429,1,8,0:0:0:0:
170,136,180739,1,4,3:0:0:0:
106,199,181050,2,0,P|106:266|143:331,2,135,0|0|4,0:0|0:0|3:0,0:0:0:0:
170,136,182294,5,4,3:0:0:0:
233,199,182605,2,0,L|233:291,2,90,2|10|4,0:0|0:0|3:0,0:0:0:0:
257,112,183537,2,0,P|330:112|389:140,2,135,2|0|4,0:0|0:0|3:0,0:0:0:0:
170,136,184781,6,0,P|125:146|73:130,1,90,4|2,3:0|0:0,0:0:0:0:
36,58,185403,1,8,0:0:0:0:
127,60,185714,1,4,3:0:0:0:
218,62,186024,2,0,B|286:42|284:74|364:51,2,135,0|0|4,0:0|0:0|3:0,0:0:0:0:
170,136,187268,6,0,L|186:236,1,90,4|4,3:0|3:0,0:0:0:0:
199,313,187890,2,0,L|288:299,1,90,8|4,0:0|3:0,0:0:0:0:
376,281,188512,2,0,B|372:234|372:234|354:190,1,90,4|8,3:0|0:0,0:0:0:0:
305,119,189133,1,4,3:0:0:0:
215,130,189444,2,0,L|165:137,1,45,0|2,0:0|0:0,0:0:0:0:
