osu file format v12

[General]
AudioFilename: Dear big sisterremix ver..mp3
AudioLeadIn: 0
PreviewTime: 20
Countdown: 0
SampleSet: Normal
StackLeniency: 0.7
Mode: 0
LetterboxInBreaks: 0
WidescreenStoryboard: 0

[Editor]
DistanceSpacing: 1.2
BeatDivisor: 4
GridSize: 8

[Metadata]
Title:Dear big sister~remix ver.~
TitleUnicode:Dear big sister~remix ver.~
Artist:24 Bit Lolitas ft. Aihara Chihiro
ArtistUnicode:24 Bit Lolitas ft. 愛原千尋
Creator:happy30
Version:Normal
Source:Touhou
Tags:Tennenjemini gemini Komeji Koishi Kannami C80 Hartmann's Youkai Girl Touhouchireiden Subterranean Animism Card_N'FoRcE
BeatmapID:153379
BeatmapSetID:49721

[Difficulty]
HPDrainRate:4
CircleSize:4
OverallDifficulty:4
ApproachRate:5
SliderMultiplier:1.8
SliderTickRate:2

[Events]
//Background and Video events
0,0,"background.jpg",0,0
//Break Periods
2,60220,70070
2,105020,116945
2,150220,163820
//Storyboard Layer 0 (Background)
//Storyboard Layer 1 (Fail)
//Storyboard Layer 2 (Pass)
//Storyboard Layer 3 (Foreground)
//Storyboard Sound Samples
//Background Colour Transformations
3,100,163,162,255

[TimingPoints]
20,468.75,4,1,1,100,1,0
13613,-100,4,2,1,40,0,0
14551,-100,4,1,1,60,0,0
15137,-133.333333333333,4,1,1,60,0,0
30137,-133.333333333333,4,2,1,50,0,0
59902,-133.333333333333,4,1,1,50,0,0
75020,-133.333333333333,4,2,1,60,0,1
90020,-133.333333333333,4,1,0,60,0,1
90137,-133.333333333333,4,2,1,60,0,1
104551,-133.333333333333,4,2,0,90,0,1
105020,-133.333333333333,4,2,1,60,0,0
119902,-133.333333333333,4,2,0,60,0,0
120137,-133.333333333333,4,2,1,30,0,0
127402,-133.333333333333,4,2,0,50,0,0
127637,-133.333333333333,4,2,1,30,0,0
134082,-200,4,2,0,30,0,0
135020,-133.333333333333,4,2,1,60,0,1
135137,-133.333333333333,4,2,1,50,0,0
164785,-200,4,2,0,50,0,0
165488,-200,4,2,1,50,0,0
196426,-200,4,1,0,50,0,0
196895,-133.333333333333,4,2,1,60,0,1
226895,-133.333333333333,4,1,1,60,0,0

[Colours]
Combo1 : 99,93,46
Combo2 : 125,81,56
Combo3 : 163,149,87
Combo4 : 192,182,170

[HitObjects]
256,168,14082,2,0,B|256:224,8,45,0|0|0|0|0|0|0|0|0,1:0|1:0|1:0|1:0|1:0|1:0|1:0|1:0|1:0,0:0:0:0:
336,176,15254,6,0,B|488:192,1,134.999995976687
440,112,15957,1,0,0:0:0:0:
384,264,16426,1,8,0:0:0:0:
304,280,16660,1,0,0:0:0:0:
224,296,16895,1,0,0:0:0:0:
144,312,17129,6,0,B|0:344,1,134.999995976687
24,264,17832,1,0,0:0:0:0:
336,360,18770,5,0,0:0:0:0:
376,288,19004,1,0,0:0:0:0:
328,224,19238,1,8,0:0:0:0:
272,160,19473,1,0,0:0:0:0:
320,96,19707,2,0,B|392:40|480:96|440:176,1,202.49999396503
392,232,20645,6,0,B|312:272|272:192|192:232,1,202.49999396503
120,200,21582,2,0,B|72:248|80:336,1,134.999995976687,0|8,0:0|0:0,0:0:0:0:
232,376,22520,5,0,0:0:0:0:
304,344,22754,2,0,B|320:192,1,134.999995976687
392,248,23457,1,0,0:0:0:0:
256,56,23926,1,8,0:0:0:0:
240,136,24160,1,0,0:0:0:0:
224,216,24395,1,0,0:0:0:0:
208,296,24629,6,0,B|64:264,1,134.999995976687
56,344,25332,1,0,0:0:0:0:
112,184,26270,5,0,0:0:0:0:
192,200,26504,1,0,0:0:0:0:
240,136,26738,1,8,0:0:0:0:
280,64,26973,1,0,0:0:0:0:
344,112,27207,2,0,P|426:118|459:18,1,202.500007724762
384,48,28145,6,0,B|424:128|344:168|384:248,1,202.49999396503
448,288,29082,2,0,B|432:368|344:376,1,134.999995976687,0|8,0:0|0:0,0:0:0:0:
224,288,30020,5,4,0:0:0:0:
336,168,30488,2,0,B|360:88|312:24,1,134.999995976687,8|0,0:0|0:0,0:0:0:0:
192,136,31426,1,8,0:0:0:0:
56,192,31895,2,0,B|200:224,1,134.999995976687,2|8,0:0|0:0,0:0:0:0:
264,184,32598,2,0,B|304:240|280:320,1,134.999995976687
352,352,33301,5,8,0:0:0:0:
376,272,33535,1,2,0:0:0:0:
352,192,33770,2,0,B|328:112|392:48,1,134.999995976687,0|8,0:0|0:0,0:0:0:0:
504,168,34707,1,0,0:0:0:0:
376,272,35176,1,8,0:0:0:0:
224,224,35645,2,0,B|144:168|104:248|24:208,1,202.500007724762
72,144,36582,5,0,0:0:0:0:
168,288,37051,2,0,B|216:360|296:320,1,134.999995976687,8|0,0:0|0:0,0:0:0:0:
416,232,37988,1,8,0:0:0:0:
328,96,38457,2,0,B|288:144|336:184|280:232,1,135.000005149842,0|8,0:0|0:0,0:0:0:0:
216,184,39160,2,0,P|160:152|80:296,1,270.000010299683
128,344,40332,2,0,B|176:384|216:336|264:392,1,135.000005149842,0|8,0:0|0:0,0:0:0:0:
400,320,41270,5,0,0:0:0:0:
256,240,41738,1,8,0:0:0:0:
408,192,42207,2,0,P|424:128|416:40,1,135.000005149842,0|8,0:0|0:0,0:0:0:0:
494,33,42910,2,0,P|502:142|480:232,1,202.500007724762,0|8,0:0|0:0,0:0:0:0:
320,224,44082,2,0,P|256:192|168:184,1,135.000005149842,0|8,0:0|0:0,0:0:0:0:
32,176,45020,6,0,P|16:232|16:272,1,67.5000025749208,0|2,0:0|0:0,0:0:0:0:
136,352,45723,2,0,P|152:296|152:256,1,67.5000025749208,2|0,0:0|0:0,0:0:0:0:
112,128,46426,1,8,0:0:0:0:
248,216,46895,2,0,P|288:256|320:344,1,135.000005149842,0|8,0:0|0:0,0:0:0:0:
400,352,47598,2,0,P|456:352|456:216,1,202.500007724762,0|8,0:0|0:0,0:0:0:0:
416,184,48535,1,0,0:0:0:0:
344,224,48770,2,0,B|224:304|208:168|88:248,1,270.000010299683
8,104,50176,1,8,0:0:0:0:
152,32,50645,5,0,0:0:0:0:
208,96,50879,1,2,0:0:0:0:
184,176,51113,1,8,0:0:0:0:
160,256,51348,2,0,P|192:344|296:296,1,202.500007724762,0|8,0:0|0:0,0:0:0:0:
304,168,52520,2,0,P|376:176|456:208,1,135.000005149842,0|8,0:0|0:0,0:0:0:0:
448,32,53457,2,0,P|376:40|296:72,1,135.000005149842,0|8,0:0|0:0,0:0:0:0:
240,40,54160,2,0,P|184:112|216:224,1,202.500007724762,0|8,0:0|0:0,0:0:0:0:
320,336,55332,1,0,0:0:0:0:
424,208,55801,5,8,0:0:0:0:
352,168,56035,1,2,0:0:0:0:
280,208,56270,2,0,P|216:248|168:296,1,135.000005149842,0|8,0:0|0:0,0:0:0:0:
16,312,57207,2,0,P|58:270|122:230,1,135.000005149842,0|8,0:0|0:0,0:0:0:0:
144,152,57910,2,0,P|264:152|304:64,1,202.500007724762,0|8,0:0|0:0,0:0:0:0:
152,32,59082,1,0,0:0:0:0:
24,136,59551,1,8,0:0:0:0:
112,272,60020,1,4,0:0:0:0:
256,192,71270,12,4,74082,0:0:0:0:
176,192,75020,5,4,0:0:0:0:
336,192,75488,1,12,0:0:0:0:
192,272,75957,2,0,P|128:312|80:360,1,135.000005149842,4|12,0:0|0:0,0:0:0:0:
32,296,76660,1,2,0:0:0:0:
256,360,77129,1,4,0:0:0:0:
480,296,77598,2,0,P|464:216|440:160,1,135.000005149842,4|2,0:0|0:0,0:0:0:0:
400,104,78301,1,4,0:0:0:0:
256,8,78770,5,4,0:0:0:0:
224,88,79004,1,2,0:0:0:0:
256,168,79238,1,12,0:0:0:0:
259,173,79707,6,0,L|251:309,1,135.000005149842,4|4,0:0|0:0,0:0:0:0:
176,344,80410,2,0,P|80:368|0:296,1,202.500007724762,2|4,0:0|0:0,0:0:0:0:
32,232,81348,1,2,0:0:0:0:
192,192,81816,2,0,P|208:128|208:48,1,135.000005149842,2|2,0:0|0:0,0:0:0:0:
144,16,82520,5,4,0:0:0:0:
16,112,82988,1,12,0:0:0:0:
40,272,83457,1,4,0:0:0:0:
200,312,83926,1,12,0:0:0:0:
256,256,84160,2,0,L|464:216,1,202.500007724762,2|12,0:0|0:0,0:0:0:0:
504,280,85098,2,0,P|456:344|336:304,1,202.500007724762,2|12,0:0|0:0,0:0:0:0:
280,176,86270,5,4,0:0:0:0:
416,88,86738,1,12,0:0:0:0:
480,232,87207,1,4,0:0:0:0:
344,320,87676,2,0,P|272:304|192:288,1,135.000005149842,12|4,0:0|0:0,0:0:0:0:
128,272,88379,1,4,0:0:0:0:
88,128,88848,1,4,0:0:0:0:
24,184,89082,5,4,0:0:0:0:
184,208,89551,1,12,0:0:0:0:
336,144,90020,5,4,0:0:0:0:
400,192,90254,1,2,0:0:0:0:
416,272,90488,1,4,0:0:0:0:
376,344,90723,2,0,P|312:368|232:320,2,135.000005149842,2|2|2,0:0|0:0|0:0,0:0:0:0:
456,360,91895,1,4,0:0:0:0:
256,248,92363,1,12,0:0:0:0:
56,360,92832,1,4,0:0:0:0:
144,224,93301,1,12,0:0:0:0:
40,96,93770,6,0,P|0:176|56:280,1,202.500007724762,4|2,0:0|0:0,0:0:0:0:
120,312,94707,2,0,P|192:304|272:312,1,135.000005149842,4|12,0:0|0:0,0:0:0:0:
416,344,95645,1,4,0:0:0:0:
421,349,96113,2,0,P|437:285|461:213,1,135.000005149842,12|4,0:0|0:0,0:0:0:0:
376,72,97051,1,12,0:0:0:0:
304,104,97285,6,0,L|272:96,2,33.7500012874604,2|0|4,0:0|0:0|0:0,0:0:0:0:
336,176,97754,2,0,P|344:216|352:248,1,67.5000025749208,0|12,0:0|0:0,0:0:0:0:
272,248,98223,2,0,L|304:384,2,135.000005149842,2|2|2,0:0|0:0|0:0,0:0:0:0:
200,288,99395,2,0,P|136:320|72:272,1,135.000005149842,4|12,0:0|0:0,0:0:0:0:
0,152,100332,1,4,0:0:0:0:
120,48,100801,1,12,0:0:0:0:
256,192,101270,12,4,104551,0:0:0:0:
256,192,118145,12,4,120020,0:0:0:0:
104,192,120957,5,2,0:0:0:0:
416,280,121895,2,0,P|344:264|272:264,1,135.000005149842,0|4,0:0|0:0,0:0:0:0:
200,264,122598,2,0,P|184:160|160:56,1,202.500007724762,0|4,0:0|0:0,0:0:0:0:
312,120,123770,5,4,0:0:0:0:
32,288,124707,1,4,0:0:0:0:
32,288,125645,2,4,P|96:352|216:304,1,202.500007724762,4|0,0:0|0:0,0:0:0:0:
256,272,126582,2,0,P|320:256|400:248,1,135.000005149842,2|0,0:0|0:0,0:0:0:0:
480,112,127520,5,4,0:0:0:0:
328,168,127988,1,8,0:0:0:0:
331,174,128457,1,0,1:0:0:0:
176,104,128926,1,12,0:0:0:0:
120,160,129160,1,0,0:0:0:0:
80,232,129395,1,0,1:0:0:0:
184,360,129863,1,12,0:0:0:0:
328,288,130332,1,0,1:0:0:0:
331,293,130801,1,12,0:0:0:0:
280,136,131270,6,0,P|200:104|136:88,1,135.000005149842,0|12,1:0|0:0,0:0:0:0:
312,56,132207,2,0,P|359:68|439:100,1,135.000005149842,0|12,1:0|0:0,0:0:0:0:
488,168,132910,2,0,P|512:232|392:280,1,202.500007724762,0|12,0:0|0:0,0:0:0:0:
266,202,134082,6,0,P|202:178|138:202,1,135,2|0,0:0|0:0,0:0:0:0:
114,268,135020,6,0,L|98:356,1,67.5000025749208,0|2,0:0|0:0,0:0:0:0:
400,360,135723,2,0,L|416:272,1,67.5000025749208,2|4,0:0|0:0,0:0:0:0:
400,128,136426,1,12,0:0:0:0:
264,216,136895,2,0,P|224:256|192:344,1,135.000005149842,0|12,0:0|0:0,0:0:0:0:
112,352,137598,2,0,P|56:352|56:216,1,202.500007724762,0|12,0:0|0:0,0:0:0:0:
96,184,138535,1,2,0:0:0:0:
168,224,138770,6,0,B|288:304|304:168|424:248,1,270.000010299683,4|4,0:0|0:0,0:0:0:0:
504,104,140176,1,12,0:0:0:0:
360,32,140645,5,4,0:0:0:0:
304,96,140879,1,2,0:0:0:0:
328,176,141113,1,12,0:0:0:0:
352,256,141348,2,0,P|320:344|216:296,1,202.500007724762,2|12,0:0|0:0,0:0:0:0:
208,168,142520,2,0,P|136:176|56:208,1,135.000005149842,6|12,0:0|0:0,0:0:0:0:
64,32,143457,2,0,P|136:40|216:72,1,135.000005149842,0|12,0:0|0:0,0:0:0:0:
272,40,144160,2,0,P|328:112|296:224,1,202.500007724762,0|12,0:0|0:0,0:0:0:0:
192,336,145332,1,0,0:0:0:0:
88,208,145801,5,12,0:0:0:0:
160,168,146035,1,2,0:0:0:0:
232,208,146270,2,0,P|296:248|344:296,1,135.000005149842,0|12,0:0|0:0,0:0:0:0:
496,312,147207,2,0,P|454:270|390:230,1,135.000005149842,0|12,0:0|0:0,0:0:0:0:
339,290,147910,2,0,P|219:290|179:202,1,202.500007724762,0|12,0:0|0:0,0:0:0:0:
56,128,149082,5,0,0:0:0:0:
0,288,149551,1,12,0:0:0:0:
144,360,150020,1,4,0:0:0:0:
40,160,165020,6,0,P|120:176|216:216,1,180,4|0,0:2|0:0,0:0:0:0:
216,219,166426,1,0,0:0:0:0:
264,152,166660,2,0,P|288:120|344:80,1,90,2|0,0:0|0:0,0:0:0:0:
330,94,167598,1,0,0:0:0:0:
320,208,168066,2,0,P|352:264|368:336,1,135,2|0,0:0|0:0,0:0:0:0:
372,338,169238,5,0,0:0:0:0:
496,232,169707,2,0,P|480:163|448:107,1,135,2|0,0:0|0:0,0:0:0:0:
448,107,171348,1,0,0:0:0:0:
416,264,171816,2,0,P|344:288|280:288,1,135,2|0,0:0|0:0,0:0:0:0:
128,240,172988,5,0,0:0:0:0:
280,176,173457,2,0,P|344:200|376:200,1,90,2|0,0:0|0:0,0:0:0:0:
448,192,174160,2,0,P|480:256|488:320,1,135
424,368,175098,1,2,0:0:0:0:
232,200,175801,1,0,0:0:0:0:
152,184,176035,1,0,0:0:0:0:
88,232,176270,6,0,P|72:296|72:368,4,135,0|2|0|2|0,0:0|0:0|0:0|0:0|0:0,0:0:0:0:
168,88,179551,1,2,0:0:0:0:
296,192,180020,6,0,P|296:240|280:296,1,90,0|2,0:0|0:0,0:0:0:0:
216,320,180723,2,0,L|120:328,2,90
192,240,181895,1,0,0:0:0:0:
312,344,182363,1,2,0:0:0:0:
400,208,182832,1,0,0:0:0:0:
280,96,183301,2,0,P|272:152|272:200,1,90,2|0,0:0|0:0,0:0:0:0:
272,184,184707,5,0,0:0:0:0:
248,280,185645,1,0,0:0:0:0:
272,368,186582,1,0,0:0:0:0:
272,368,187520,6,0,L|416:344,1,135,0|2,0:0|0:0,0:0:0:0:
504,240,188691,2,0,L|360:264,1,135,0|2,0:0|0:0,0:0:0:0:
216,304,189863,1,0,0:0:0:0:
96,192,190332,1,2,0:0:0:0:
168,48,190801,1,0,0:0:0:0:
256,192,191270,12,4,196426,0:0:0:0:
392,192,196895,5,4,0:0:0:0:
120,192,197363,1,12,0:0:0:0:
320,272,197832,2,0,P|384:312|432:360,1,135.000005149842,2|12,0:0|0:0,0:0:0:0:
480,296,198535,1,0,0:0:0:0:
256,360,199004,1,4,0:0:0:0:
32,296,199473,2,0,P|48:216|72:160,1,135.000005149842,4|4,0:0|0:0,0:0:0:0:
112,104,200176,1,12,0:0:0:0:
256,8,200645,5,4,0:0:0:0:
288,88,200879,1,2,0:0:0:0:
256,168,201113,1,12,0:0:0:0:
260,174,201582,2,0,L|268:310,1,135.000005149842,0|12,0:0|0:0,0:0:0:0:
336,344,202285,2,0,P|432:368|512:296,1,202.500007724762,0|12,0:0|0:0,0:0:0:0:
480,232,203223,1,0,0:0:0:0:
320,192,203691,2,0,P|304:128|304:48,1,135.000005149842,2|2,0:0|0:0,0:0:0:0:
368,16,204395,5,4,0:0:0:0:
496,112,204863,1,12,0:0:0:0:
472,272,205332,1,4,0:0:0:0:
312,312,205801,1,12,0:0:0:0:
256,256,206035,2,0,L|48:216,1,202.500007724762,0|12,0:0|0:0,0:0:0:0:
8,280,206973,2,0,P|56:344|176:304,1,202.500007724762,0|12,0:0|0:0,0:0:0:0:
232,176,208145,5,4,0:0:0:0:
96,88,208613,1,12,0:0:0:0:
32,232,209082,1,4,0:0:0:0:
168,320,209551,2,0,P|240:304|320:288,1,135.000005149842,12|4,0:0|0:0,0:0:0:0:
384,280,210254,1,4,0:0:0:0:
424,128,210723,1,4,0:0:0:0:
488,184,210957,5,4,0:0:0:0:
328,208,211426,1,12,0:0:0:0:
176,144,211895,5,4,0:0:0:0:
112,192,212129,1,2,0:0:0:0:
96,272,212363,1,12,0:0:0:0:
136,344,212598,2,0,P|200:368|280:320,2,135.000005149842,2|2|2,0:0|0:0|0:0,0:0:0:0:
56,360,213770,5,4,0:0:0:0:
256,248,214238,1,12,0:0:0:0:
456,360,214707,1,4,0:0:0:0:
368,224,215176,1,12,0:0:0:0:
472,96,215645,6,0,P|512:176|456:280,1,202.500007724762,4|2,0:0|0:0,0:0:0:0:
392,312,216582,2,0,P|320:304|240:312,1,135.000005149842,0|12,0:0|0:0,0:0:0:0:
96,344,217520,1,4,0:0:0:0:
100,349,217988,2,0,P|84:285|60:213,1,135.000005149842,12|0,0:0|0:0,0:0:0:0:
136,72,218926,1,8,0:0:0:0:
208,104,219160,6,0,L|240:96,2,33.7500012874604,2|0|4,0:0|0:0|0:0,0:0:0:0:
176,176,219629,2,0,P|168:216|160:248,1,67.5000025749208,0|12,0:0|0:0,0:0:0:0:
240,248,220098,2,0,L|208:384,2,135.000005149842,2|2|2,0:0|0:0|0:0,0:0:0:0:
312,288,221270,2,0,P|376:320|440:272,1,135.000005149842,4|12,0:0|0:0,0:0:0:0:
512,152,222207,1,4,0:0:0:0:
392,48,222676,1,12,0:0:0:0:
256,192,223145,12,4,226895,0:0:0:0:
