osu file format v14

[General]
AudioFilename: 2 Byte-You Monster.mp3
AudioLeadIn: 0
PreviewTime: -1
Countdown: 1
SampleSet: None
StackLeniency: 0.7
Mode: 0
LetterboxInBreaks: 1
WidescreenStoryboard: 0

[Editor]
Bookmarks: 27440,57194,71352,79206,84957,105531
DistanceSpacing: 1
BeatDivisor: 4
GridSize: 8
TimelineZoom: 1

[Metadata]
Title:You Monster
TitleUnicode:You Monster
Artist:2-Byte
ArtistUnicode:2-Byte
Creator:WizPig1
Version:Easy
Source:
Tags:
BeatmapID:753778
BeatmapSetID:340817

[Difficulty]
HPDrainRate:4
CircleSize:4
OverallDifficulty:5
ApproachRate:5
SliderMultiplier:1.4
SliderTickRate:1

[Events]
//Background and Video events
0,0,"portal2-1.jpg",0,0
//Break Periods
//Storyboard Layer 0 (Background)
//Storyboard Layer 1 (Fail)
//Storyboard Layer 2 (Pass)
//Storyboard Layer 3 (Foreground)
//Storyboard Sound Samples

[TimingPoints]
229.717152436017,442.445247400634,4,1,0,100,1,0

[HitObjects]
136,256,29984,5,0,0:0:0:0:
256,192,33523,1,0,0:0:0:0:
256,192,37063,1,0,0:0:0:0:
304,120,40492,1,0,0:0:0:0:
208,160,44031,5,0,0:0:0:0:
264,184,47571,1,0,0:0:0:0:
376,112,51110,5,0,0:0:0:0:
208,272,52880,1,0,0:0:0:0:
368,136,54650,1,0,0:0:0:0:
160,120,56420,1,0,0:0:0:0:
448,192,57968,5,0,0:0:0:0:
448,192,58190,2,0,P|256:80|168:232,1,420
264,280,59738,1,0,0:0:0:0:
264,280,59959,2,0,P|344:120|288:64,1,280
200,40,61729,6,0,P|72:232|384:192,1,700
382,214,64163,1,0,0:0:0:0:
88,184,65490,5,0,0:0:0:0:
88,184,65711,2,0,P|200:96|344:112,1,245
297,94,66596,1,0,0:0:0:0:
320,112,66817,1,0,0:0:0:0:
336,128,67038,1,0,0:0:0:0:
352,144,67260,1,0,0:0:0:0:
256,272,68587,5,0,0:0:0:0:
256,248,68808,1,0,0:0:0:0:
224,192,69693,1,0,0:0:0:0:
256,192,70025,1,0,0:0:0:0:
288,192,70357,1,0,0:0:0:0:
432,288,72127,5,0,0:0:0:0:
432,288,72348,2,0,P|264:112|112:184,1,420
128,272,74007,1,0,0:0:0:0:
280,288,74339,1,0,0:0:0:0:
280,272,74560,1,0,0:0:0:0:
280,248,74781,2,0,L|280:96|280:96,1,140
192,96,75887,5,0,0:0:0:0:
144,192,77547,1,0,0:0:0:0:
96,312,79648,5,0,0:0:0:0:
80,208,79869,2,0,P|392:320|568:96,1,630
344,104,82745,5,0,0:0:0:0:
336,104,82856,1,0,0:0:0:0:
328,104,83077,1,0,0:0:0:0:
320,104,83298,1,0,0:0:0:0:
176,104,84073,6,0,L|176:248,1,140
256,192,85621,5,0,0:0:0:0:
256,192,86285,12,0,91152,0:0:0:0:
256,192,92590,5,0,0:0:0:0:
256,192,93253,12,0,98119,0:0:0:0:
136,104,100111,5,0,0:0:0:0:
184,120,100554,2,0,P|240:216|328:112,3,280
176,160,103651,1,0,0:0:0:0:
256,160,103872,1,0,0:0:0:0:
336,160,104204,1,0,0:0:0:0:
184,120,107522,6,0,P|240:216|328:112,3,280
176,160,110619,1,0,0:0:0:0:
256,160,110840,1,0,0:0:0:0:
336,160,111172,1,0,0:0:0:0:
256,192,114159,1,0,0:0:0:0:
408,192,114601,2,0,P|232:72|104:192,2,420
408,200,117477,1,0,0:0:0:0:
408,200,117698,2,0,L|408:272,2,70
400,192,118473,5,0,0:0:0:0:
352,192,119026,1,0,0:0:0:0:
312,192,119689,1,0,0:0:0:0:
256,192,121238,5,0,0:0:0:0:
256,224,121680,2,0,L|256:152,32,70
