osu file format v5

[General]
AudioFilename: 18-Scotty - The Black Pearl.mp3
AudioLeadIn: 0
PreviewTime: -1
Countdown: 2
SampleSet: None
StackLeniency: 0.7
Mode: 0
LetterboxInBreaks: 1
EditorBookmarks: -7

[Metadata]
Title:The Black Pearl (Techno Remix)
Artist:
Creator:soniczzz
Version:Normal
Source:
Tags:

[Difficulty]
HPDrainRate:6
CircleSize:5
OverallDifficulty:6
SliderMultiplier:0.4
SliderTickRate:1

[Events]
//Background and Video events
0,0,"Pirates-Of-The-Caribbean-The-Curse-Of-The-Black-Pearl-Original-Soundtrack.jpg"
//Break Periods
//Storyboard Layer 0 (Background)
//Storyboard Layer 1 (Failing)
//Storyboard Layer 2 (Passing)
//Storyboard Layer 3 (Foreground)
//Storyboard Sound Samples
//Background Colour Transformations
3,100,0,0,0

[TimingPoints]
4032.40740740741,148.148148148148,4,0,0,100,1,0

[HitObjects]
256,192,2180,12,0,5847
64,64,9736,5,0
128,64,10884,1,0
192,64,11847,1,0
256,64,12810,1,0
192,64,13921,1,0
128,64,14847,1,0
64,64,15921,1,0
128,64,16884,1,0
192,64,17921,1,0
256,64,18847,1,0
320,64,19810,1,0
384,64,20810,1,0
448,64,21143,1,0
448,64,21476,1,0
448,64,21773,1,0
256,96,22773,5,0
256,160,23773,1,0
256,224,24736,1,0
256,288,25810,1,0
256,224,26736,1,0
256,160,27773,1,0
256,96,28736,1,0
256,96,29069,1,0
256,96,29402,1,0
256,96,29662,1,0
288,224,30699,5,0
224,224,31662,1,0
160,224,32699,1,0
96,224,32995,1,0
96,160,33291,1,0
96,96,33625,1,0
160,64,34587,5,0
224,64,35587,1,0
288,64,36587,1,0
352,64,36921,1,0
416,64,37402,1,0
480,64,37587,1,0
416,224,38699,5,0
352,224,39625,1,0
288,224,40587,1,0
224,224,40921,1,0
160,224,41217,1,0
96,224,41587,1,0
96,96,46328,6,0,B|480:96,2,380
64,64,50958,1,0
160,64,51847,1,0
256,64,52810,1,0
352,64,53143,1,0
352,64,53439,1,0
352,64,53736,1,0
448,160,54662,5,0
384,160,55587,1,0
320,160,56587,1,0
256,160,56884,1,0
256,160,57254,1,0
256,160,57476,1,0
128,224,58476,5,0
192,224,59365,1,0
256,224,60254,1,0
320,224,60662,1,0
320,224,60921,1,0
320,224,61254,1,0
352,288,62143,5,0
288,288,63069,1,0
224,288,63995,1,0
160,288,64365,1,0
160,288,64699,1,0
160,288,64921,1,0
128,192,65884,5,0
192,192,66365,1,0
256,192,66847,1,0
320,192,67291,1,0
384,192,67773,1,0
448,192,68254,1,0
448,128,68699,1,0
448,64,69180,1,0
384,64,69625,1,0
320,64,70106,1,0
256,64,70587,1,0
192,64,71069,1,0
128,64,71513,1,0
64,64,71958,1,0
0,64,72439,1,0
0,128,72921,1,0
0,192,73439,1,0
64,192,73884,1,0
128,192,74328,1,0
192,192,74810,1,0
256,192,75254,1,0
256,128,75736,1,0
192,128,76217,1,0
128,128,76662,1,0
128,192,77143,1,0
128,256,77625,1,0
192,256,78106,1,0
256,256,78550,1,0
320,256,79069,1,0
384,256,79513,1,0
384,192,79958,1,0
320,192,80513,1,0
192,192,80921,5,0
192,128,81810,1,0
192,64,82773,1,0
192,64,83736,1,0
256,64,84662,1,0
320,64,85625,1,0
384,64,86587,1,0
448,64,87032,1,0
512,64,87439,1,0
448,192,88439,5,0
384,192,89328,1,0
320,192,90291,1,0
320,192,91217,1,0
256,192,92143,1,0
192,192,93106,1,0
128,192,94069,1,0
128,192,94476,1,0
128,192,94847,1,0
32,96,95884,5,0
96,96,96847,1,0
160,96,97773,1,0
224,96,98106,1,0
224,96,98439,1,0
224,96,98699,1,0
352,96,99662,5,0
416,96,100550,1,0
416,160,101587,1,0
416,224,101921,1,0
416,224,102254,1,0
416,224,102513,1,0
352,288,103402,5,0
352,224,104328,1,0
352,160,105254,1,0
352,96,105662,1,0
352,96,105995,1,0
352,96,106217,1,0
320,32,107180,5,0
256,32,108106,1,0
192,32,109032,1,0
128,32,109365,1,0
128,32,109699,1,0
128,32,109958,1,0
256,192,111476,12,0,113773
256,192,114699,12,0,116587
256,192,117402,5,0
256,192,118439,12,0,120328
64,64,125958,5,0
128,64,126884,1,0
192,64,127847,1,0
256,64,128736,1,0
320,64,129625,1,0
384,64,130587,1,0
448,64,131513,1,0
448,128,132476,1,0
448,192,133439,1,0
448,256,134365,1,0
448,320,135328,1,0
384,320,136254,1,0
384,256,137180,1,0
448,256,138106,1,0
448,320,139032,1,0
384,320,139958,1,0
384,256,140921,1,0
384,192,141847,1,0
384,128,142810,1,0
384,64,143736,1,0
320,64,144662,1,0
256,64,145587,1,0
192,64,146550,1,0
128,64,147476,1,0
64,64,148365,1,0
64,128,149365,1,0
64,192,150291,1,0
64,256,151254,1,0
64,320,152180,1,0
128,320,153106,1,0
128,256,154069,1,0
128,192,154958,1,0
128,64,155921,5,0
160,64,156365,1,0
192,64,156847,1,0
224,64,157291,1,0
288,64,159662,1,0
320,64,160143,1,0
352,64,160550,1,0
384,64,161069,1,0
416,160,163439,5,0
384,160,163847,1,0
352,160,164328,1,0
320,160,164773,1,0
256,160,167180,5,0
224,160,167587,1,0
192,160,168069,1,0
160,160,168587,1,0
32,224,170884,6,0,B|288:224,1,250
288,96,174513,2,0,B|288:352,1,250
64,96,178402,1,0
128,96,179328,1,0
192,96,180328,1,0
256,96,180662,1,0
256,96,180995,1,0
256,96,181217,1,0
416,128,182180,5,0
416,192,183106,1,0
416,256,184032,1,0
416,320,184365,1,0
416,320,184773,1,0
416,320,184995,1,0
320,320,185921,1,0
256,320,186847,1,0
192,320,187810,1,0
128,320,188143,1,0
128,320,188476,1,0
128,320,188662,1,0
160,192,189662,2,0,B|384:192,1,220
384,224,191550,5,0
384,288,191921,1,0
384,352,192254,1,0
320,352,192513,1,0
288,320,193254,6,0,B|0:320,1,280
32,224,197217,6,0,B|288:224,1,250
384,96,199069,5,0
384,160,199439,1,0
384,224,199736,1,0
384,288,199995,1,0
