osu file format v5

[General]
AudioFilename: 18-Scotty - The Black Pearl.mp3
AudioLeadIn: 0
PreviewTime: -1
Countdown: 2
SampleSet: None
StackLeniency: 0.7
Mode: 0
LetterboxInBreaks: 1
EditorBookmarks: -7

[Metadata]
Title:The Black Pearl (Techno Remix)
Artist:
Creator:soniczzz
Version:Easy
Source:
Tags:

[Difficulty]
HPDrainRate:5
CircleSize:5
OverallDifficulty:5
SliderMultiplier:0.4
SliderTickRate:0.5

[Events]
//Background and Video events
0,0,"Pirates-Of-The-Caribbean-The-Curse-Of-The-Black-Pearl-Original-Soundtrack.jpg"
//Break Periods
//Storyboard Layer 0 (Background)
//Storyboard Layer 1 (Failing)
//Storyboard Layer 2 (Passing)
//Storyboard Layer 3 (Foreground)
//Storyboard Sound Samples
//Background Colour Transformations
3,100,0,0,0

[TimingPoints]
108,120,4,0,0,100,1,0

[HitObjects]
256,64,14868,5,0
256,192,16908,1,0
256,352,18858,1,0
480,192,20838,1,0
384,192,21138,1,0
256,192,21498,1,0
128,192,21828,1,8
32,32,28728,5,0
96,96,29058,1,0
160,160,29388,1,0
224,224,29688,1,8
320,64,30708,5,0
256,128,31638,1,0
192,192,32688,1,0
128,256,33018,1,0
64,320,33318,1,0
32,256,33678,1,0
416,192,34668,5,0
352,192,35628,1,0
288,192,36618,1,0
224,192,36948,1,0
160,192,37458,1,0
160,192,37608,1,8
256,256,38628,5,0
320,256,39588,1,0
384,256,40638,1,0
384,192,40938,1,0
384,128,41238,1,0
384,64,41568,1,0
32,32,44508,2,0,B|320:32|320:352|32:352|448:352|384:96|512:32|512:64,1,720
416,32,50898,5,0
416,128,51858,1,0
416,192,52848,1,0
352,192,53178,1,0
288,192,53478,1,0
224,192,53778,1,0
224,256,54738,5,0
288,256,55668,1,0
352,256,56568,1,0
416,256,56898,1,0
416,320,57228,1,0
352,320,57438,1,0
448,192,58458,5,0
384,192,59358,1,0
320,192,60288,1,0
320,128,60618,1,0
384,128,60948,1,0
384,192,61218,1,0
128,224,62208,5,0
128,288,63138,1,0
128,352,64038,1,0
192,352,64368,1,0
192,288,64728,1,0
128,288,64938,1,0
256,192,68238,12,0,71568
64,96,73428,6,0,B|448:96,1,380
448,96,76248,2,0,B|416:288|448:288,2,190
32,32,80928,5,0
96,32,81888,1,0
160,32,82818,1,0
224,32,83748,1,0
288,32,84678,1,0
352,32,85608,1,0
352,96,86538,1,0
288,96,87018,1,0
224,96,87438,1,0
224,160,88428,5,0
288,160,89358,1,0
352,160,90288,1,0
352,224,91248,1,0
416,224,92148,1,0
416,160,93108,1,0
416,224,94008,1,0
416,160,94518,1,0
416,96,94908,1,0
256,192,95958,12,0,98988
256,192,103488,5,0
256,128,104358,1,0
256,64,105318,1,0
320,64,105678,1,0
384,64,106008,1,0
448,64,106278,1,0
448,160,107178,5,0
416,224,108078,1,0
480,224,109038,1,0
416,288,109368,1,0
480,288,109698,1,0
448,352,109938,1,0
256,192,114708,12,0,116568
256,192,118458,12,0,120318
256,192,121248,5,0
256,192,122208,1,0
256,192,123138,1,0
256,192,124068,1,0
256,128,124998,1,0
256,128,125448,1,0
256,64,126858,1,0
256,64,127338,1,0
352,64,128748,1,0
352,64,129198,1,0
352,160,130638,1,0
352,160,131118,1,0
352,288,132528,1,0
352,288,132978,1,0
448,224,134418,1,0
448,224,134838,1,0
448,96,136248,1,0
448,96,136698,1,0
384,96,138108,1,0
384,96,138558,1,0
448,96,139968,1,0
448,96,140418,1,0
32,192,141858,2,0,B|512:192,2,470
256,192,150228,12,0,152208
128,96,155928,5,0
192,96,157788,1,0
256,96,159648,1,0
320,96,161538,1,0
384,96,162018,1,0
448,96,162408,1,0
448,160,163398,5,0
448,224,164388,1,0
384,224,165288,1,0
448,224,166248,1,0
448,160,167208,1,0
448,96,168138,1,0
384,96,169038,1,0
320,96,169458,1,0
256,96,169908,1,0
128,224,170898,5,0
128,288,171828,1,0
128,352,172758,1,0
192,352,173088,1,0
192,288,173448,1,0
192,224,173718,1,0
384,288,174678,5,0
384,224,175578,1,0
384,160,176538,1,0
384,96,176898,1,0
448,96,177228,1,0
448,160,177498,1,0
224,96,178428,5,0
160,96,179328,1,0
96,96,180258,1,0
32,96,180648,1,0
32,160,180978,1,0
96,160,181218,1,0
352,192,182148,5,0
352,256,183108,1,0
352,320,184038,1,0
352,384,184398,1,0
416,384,184698,1,0
416,320,184968,1,0
192,256,185928,5,0
192,192,186858,1,0
192,128,187788,1,0
192,64,188178,1,0
256,64,188478,1,0
256,128,188748,1,0
416,160,189648,5,0
416,224,190578,1,0
416,288,191538,1,0
416,352,191928,1,0
480,352,192258,1,0
480,288,192498,1,0
256,320,193428,5,0
256,256,194328,1,0
256,192,195258,1,0
256,128,195648,1,0
320,128,195978,1,0
320,192,196248,1,0
96,192,197178,5,0
160,192,198078,1,0
224,192,199008,1,0
288,192,199428,1,0
288,128,199728,1,0
224,128,199998,1,0
