osu file format v9

[General]
AudioFilename: S04.ogg
AudioLeadIn: 3000
PreviewTime: 47697
Countdown: 0
SampleSet: Normal
StackLeniency: 0.2
Mode: 0
LetterboxInBreaks: 0
SkinPreference:ouendan1

[Editor]
DistanceSpacing: 0.8
BeatDivisor: 4
GridSize: 8

[Metadata]
Title:Melody
Artist:175R
Creator:soradg123
Version:Kakan ni Ouen
Source:Osu! Tatakae! Ouendan
Tags:authentic

[Difficulty]
HPDrainRate:8
CircleSize:3
OverallDifficulty:8
ApproachRate:0
SliderMultiplier:1.15
SliderTickRate:2

[Events]
//Background and Video events
0,0,"s04.png"
//Break Periods
2,34996,46821
2,63025,74850
2,91054,102879
2,119084,123901
//Storyboard Layer 0 (Background)
//Storyboard Layer 1 (Fail)
//Storyboard Layer 2 (Pass)
//Storyboard Layer 3 (Foreground)
//Storyboard Sound Samples
//Background Colour Transformations
3,100,0,0,0

[TimingPoints]
-40,437.956204379562,4,1,1,100,1,0

[Colours]
Combo1 : 240,40,0
Combo2 : 240,168,0
Combo3 : 0,240,32
Combo4 : 72,104,248

[HitObjects]
16,64,20981,5,0
176,64,21419,1,4
496,64,22295,1,4
496,304,22733,1,0
336,304,23171,1,4
16,304,24047,1,4
16,64,24485,5,0
176,64,24923,1,4
496,64,25799,1,4
496,304,26237,1,0
336,304,26675,1,0
16,304,27551,1,4
16,64,27989,5,2
176,64,28427,1,6
496,64,29303,1,2
496,304,29741,1,2
336,304,30178,1,6
16,304,31054,1,4
144,184,31492,6,2,B|376:184,3,230,2|6|6|4
396,344,49011,6,2,B|500:312|508:248|516:176,1,201.25,2|4
396,4,50324,1,0
256,4,50762,2,2,B|256:212,1,201.25,2|4
256,344,52076,1,4
116,344,52514,6,2,B|12:312|4:280|-4:176,1,201.25,2|4
176,4,53828,1,0
336,4,54266,1,2
256,104,54704,1,2
256,254,55142,1,4
256,384,55580,1,4
396,344,56018,6,2,B|500:312|508:248|516:176,1,201.25,2|4
396,4,57332,1,0
256,4,57770,2,2,B|256:212,1,201.25,2|4
256,344,59084,1,4
116,344,59522,6,2,B|12:312|4:280|-4:176,1,201.25,2|4
176,4,60835,1,0
336,4,61273,1,2
256,104,61711,1,2
256,254,62149,1,4
256,384,62587,1,4
496,64,77040,5,0
336,64,77478,1,4
16,64,78354,1,4
16,304,78792,1,0
176,304,79230,1,4
496,304,80105,1,4
496,64,80543,5,0
336,64,80981,1,4
16,64,81857,1,4
16,304,82295,1,0
176,304,82733,1,4
496,304,83609,1,4
496,64,84047,5,2
336,64,84485,1,6
16,64,85361,1,2
16,304,85799,1,2
176,304,86237,1,6
496,304,87113,1,4
368,184,87551,6,2,B|136:184,3,230,2|6|6|4
116,344,105069,6,2,B|12:312|4:248|-4:176,1,201.25,2|4
116,4,106383,1,0
256,4,106821,2,2,B|256:212,1,201.25,2|4
256,344,108135,1,4
396,344,108573,6,2,B|500:312|508:280|516:176,1,201.25,2|4
336,4,109887,1,0
176,4,110324,1,2
256,104,110762,1,2
256,254,111200,1,4
256,384,111638,1,4
116,344,112076,6,2,B|12:312|4:248|-4:176,1,201.25,2|4
116,4,113390,1,0
256,4,113828,2,2,B|256:212,1,201.25,2|4
256,344,115142,1,4
396,344,115580,6,2,B|500:312|508:280|516:176,1,201.25,2|4
336,4,116894,1,0
176,4,117332,1,2
256,104,117770,1,2
256,254,118208,1,4
256,384,118646,1,4
16,64,126091,5,0
176,64,126529,1,4
416,64,127186,1,0
496,64,127405,1,4
496,304,127843,1,0
336,304,128281,1,4
96,304,128938,1,0
16,304,129157,1,4
16,64,129595,5,0
176,64,130032,1,4
416,64,130689,1,0
496,64,130908,1,4
496,304,131346,1,0
336,304,131784,1,4
96,304,132441,1,0
16,304,132660,1,4
16,64,133098,5,0
176,64,133536,1,4
416,64,134193,1,0
496,64,134412,1,4
496,304,134850,1,0
336,304,135288,1,4
96,304,135945,1,0
16,304,136164,1,4
144,184,136602,6,2,B|376:184,3,230,2|6|6|4
396,44,140105,6,2,B|500:76|508:140|516:212,1,201.25,2|4
396,384,141419,1,0
256,384,141857,2,2,B|256:176,1,201.25,2|4
256,44,143171,1,4
116,44,143609,6,2,B|12:76|4:108|-4:212,1,201.25,2|4
176,384,144923,1,0
336,384,145361,1,2
256,284,145799,1,2
256,134,146237,1,4
256,4,146675,1,4
396,44,147113,6,2,B|500:76|508:140|516:212,1,201.25,2|4
396,384,148427,1,0
256,384,148865,2,2,B|256:176,1,201.25,2|4
256,44,150178,1,4
256,192,151054,12,4,153682
