osu file format v9

[General]
AudioFilename: S04.ogg
AudioLeadIn: 3000
PreviewTime: 47697
Countdown: 0
SampleSet: Normal
StackLeniency: 0.2
Mode: 0
LetterboxInBreaks: 0
SkinPreference:ouendan1

[Editor]
DistanceSpacing: 0.8
BeatDivisor: 4
GridSize: 8

[Metadata]
Title:Melody
Artist:175R
Creator:soradg123
Version:Gekiretsu ni Ouen
Source:Osu! Tatakae! Ouendan
Tags:authentic

[Difficulty]
HPDrainRate:8
CircleSize:3
OverallDifficulty:8
ApproachRate:0
SliderMultiplier:1.4
SliderTickRate:2

[Events]
//Background and Video events
0,0,"s04.png"
//Break Periods
2,34996,46821
2,63025,74850
2,91054,102879
2,119084,123901
//Storyboard Layer 0 (Background)
//Storyboard Layer 1 (Fail)
//Storyboard Layer 2 (Pass)
//Storyboard Layer 3 (Foreground)
//Storyboard Sound Samples
//Background Colour Transformations
3,100,0,0,0

[TimingPoints]
-40,437.956204379562,4,1,2,100,1,0
46821,-100,4,1,1,100,0,0
50981,-100,4,1,2,100,0,0
51638,-100,4,1,1,100,0,0
57989,-100,4,1,2,100,0,0
58646,-100,4,1,1,100,0,0
63025,-100,4,1,2,100,0,0
102879,-100,4,1,1,100,0,0
107040,-100,4,1,2,100,0,0
107697,-100,4,1,1,100,0,0
114047,-100,4,1,2,100,0,0
114704,-100,4,1,1,100,0,0
136383,-100,4,1,2,100,0,0
138135,-100,4,1,1,100,0,0
142076,-100,4,1,2,100,0,0
142733,-100,4,1,1,100,0,0
149084,-100,4,1,2,100,0,0

[Colours]
Combo1 : 240,40,0
Combo2 : 240,168,0
Combo3 : 0,240,32
Combo4 : 72,104,248

[HitObjects]
16,64,21200,5,0
96,64,21419,2,0,B|208:64,1,105,0|4
16,204,22076,1,0
96,204,22295,2,0,B|208:204,1,105,0|4
206,364,23171,2,0,B|382:388|478:252,1,280,2|4
496,64,24704,5,0
416,64,24923,2,0,B|304:64,1,105,0|4
496,204,25580,1,0
416,204,25799,1,0
336,204,26018,1,0
256,204,26237,2,0,B|112:204,3,140,2|6|6|4
16,64,28208,37,0
96,64,28427,2,0,B|208:64,1,105,0|4
16,204,29084,1,0
96,204,29303,2,0,B|208:204,1,105,0|4
206,364,30178,2,0,B|382:388|478:252,1,280,2|4
496,64,31711,5,0
416,64,31930,2,0,B|304:64,1,105,0|4
496,204,32587,1,0
416,204,32806,2,0,B|304:204,1,105,0|4
306,364,33682,2,0,B|130:388|34:252,1,280,0|4
512,344,49011,38,2,B|512:200,1,140,2|6
512,84,49777,1,4
356,24,50324,1,2
276,24,50543,1,2
316,104,50762,1,2
316,244,51200,2,0,B|316:356,1,105,0|2
176,344,51857,1,0
136,264,52076,1,4
96,344,52295,1,0
0,344,52514,6,2,B|0:200,1,140,2|6
0,84,53281,1,4
156,24,53828,1,2
236,24,54047,1,2
196,104,54266,2,2,B|196:248,1,140,2|6
196,324,54923,1,0
276,324,55142,1,4
276,164,55580,1,4
512,344,56018,6,2,B|512:200,1,140,2|6
512,84,56784,1,4
356,24,57332,1,2
276,24,57551,1,2
316,104,57770,1,2
316,244,58208,2,0,B|316:356,1,105,0|2
176,344,58865,1,0
136,264,59084,1,4
96,344,59303,1,0
0,344,59522,6,2,B|0:200,1,140,2|6
0,84,60288,1,4
156,24,60835,1,2
236,24,61054,1,2
196,104,61273,2,2,B|196:248,1,140,2|6
196,324,61930,1,0
276,324,62149,1,4
276,244,62368,1,0
276,164,62587,1,4
496,64,77259,5,0
416,64,77478,2,0,B|304:64,1,105,0|4
496,204,78135,1,0
416,204,78354,1,0
336,204,78573,1,0
256,204,78792,2,0,B|112:204,3,140,2|6|6|4
16,64,80762,5,0
96,64,80981,2,0,B|208:64,1,105,0|4
16,204,81638,1,0
96,204,81857,2,0,B|208:204,1,105,0|4
206,364,82733,2,0,B|382:388|478:252,1,280,2|4
496,64,84266,5,0
416,64,84485,2,0,B|304:64,1,105,0|4
496,204,85142,1,0
416,204,85361,1,0
336,204,85580,1,0
256,204,85799,2,0,B|112:204,3,140,2|6|6|4
16,64,87770,5,0
96,64,87989,2,0,B|208:64,1,105,0|4
16,204,88646,1,0
96,204,88865,2,0,B|208:204,1,105,0|4
206,304,89522,2,0,B|374:328|526:192,1,350,0|4
512,24,105069,6,2,B|368:24,1,140,2|6
256,24,105835,1,4
316,164,106383,1,2
396,164,106602,1,2
356,244,106821,1,2
296,364,107259,2,0,B|184:364,1,105,4|2
70,244,107916,1,0
20,184,108135,1,4
0,104,108354,1,0
0,24,108573,6,2,B|144:24,1,140,2|6
256,24,109339,1,4
216,184,109887,1,2
216,264,110105,1,2
216,344,110324,2,2,B|360:344,1,140,2|6
434,344,110981,1,0
512,344,111200,1,4
512,184,111638,1,4
512,24,112076,6,2,B|368:24,1,140,2|6
256,24,112843,1,4
316,164,113390,1,2
396,164,113609,1,2
356,244,113828,1,2
296,364,114266,2,0,B|184:364,1,105,4|2
60,254,114923,1,0
20,184,115142,1,4
0,104,115361,1,0
0,24,115580,6,2,B|144:24,1,140,2|6
256,24,116346,1,4
216,184,116894,1,2
216,264,117113,1,2
216,344,117332,2,2,B|360:344,1,140,2|6
434,344,117989,1,0
512,344,118208,1,4
512,264,118427,1,0
512,184,118646,1,4
16,64,126091,5,2
96,64,126310,1,2
176,64,126529,1,2
296,64,126857,2,2,B|472:64,1,175,2|4
476,144,127624,1,0
476,224,127843,1,4
316,224,128281,1,2
196,224,128609,1,4
16,64,129595,5,2
96,64,129814,1,2
176,64,130032,1,2
296,64,130361,2,2,B|472:64,1,175,2|4
476,144,131127,1,0
476,224,131346,1,0
476,304,131565,1,0
396,304,131784,2,2,B|284:304,1,105,2|4
16,64,133098,5,2
96,64,133317,1,2
176,64,133536,1,2
296,64,133865,2,2,B|472:64,1,175,2|4
476,144,134631,1,0
476,224,134850,1,4
316,224,135288,1,2
196,224,135616,1,4
184,364,136602,6,4,B|328:364,3,140
296,204,138354,1,2
216,204,138573,1,0
216,124,138792,1,2
296,124,139011,1,0
316,24,139230,2,2,B|172:24,1,140,2|4
0,344,140105,6,2,B|0:200,1,140,2|6
0,84,140872,1,4
156,24,141419,1,2
236,24,141638,1,2
196,104,141857,1,2
196,244,142295,2,0,B|196:356,1,105,4|2
336,344,142952,1,0
376,264,143171,1,4
416,344,143390,1,0
512,344,143609,6,2,B|512:200,1,140,2|6
512,84,144376,1,4
296,164,144923,1,2
296,244,145142,1,2
296,324,145361,2,2,B|152:324,1,140,2|6
78,324,146018,1,0
0,324,146237,1,4
0,184,146675,1,4
0,24,147113,6,2,B|144:24,1,140,2|6
256,24,147879,1,4
196,164,148427,1,2
116,164,148646,1,2
156,244,148865,1,2
216,364,149303,2,0,B|328:364,1,105,4|2
452,254,149959,1,0
492,184,150178,1,4
512,104,150397,1,0
256,192,151054,12,4,153682
