osu file format v14

[General]
AudioFilename: Nobody knows.mp3
AudioLeadIn: 890
PreviewTime: 37110
Countdown: 0
SampleSet: Soft
StackLeniency: 0.7
Mode: 0
LetterboxInBreaks: 0
EpilepsyWarning: 1
WidescreenStoryboard: 0

[Editor]
Bookmarks: 1110,4110,7110,10110,13110,16110,19110,22110,23610,25110
DistanceSpacing: 1
BeatDivisor: 4
GridSize: 4
TimelineZoom: 2

[Metadata]
Title:Nobodyknows (TV Size)
TitleUnicode:Nobodyknows (TV Size)
Artist:16th Labo
ArtistUnicode:16th Labo
Creator:[Luxord]
Version:Insane
Source:Holy Knight
Tags:Kelvinli
BeatmapID:225345
BeatmapSetID:78627

[Difficulty]
HPDrainRate:6
CircleSize:5
OverallDifficulty:7
ApproachRate:8
SliderMultiplier:1.8
SliderTickRate:1

[Events]
//Background and Video events
0,0,"BG.jpg",0,0
//Break Periods
//Storyboard Layer 0 (Background)
//Storyboard Layer 1 (Fail)
//Storyboard Layer 2 (Pass)
//Storyboard Layer 3 (Foreground)
//Storyboard Sound Samples

[TimingPoints]
1538.18318130547,375,4,2,1,40,1,0
25725,-100,4,2,0,30,0,0
31163,-100,4,2,1,10,0,0
31538,-100,4,2,1,15,0,0
31913,-100,4,2,1,20,0,0
32288,-100,4,2,1,25,0,0
32663,-100,4,2,1,30,0,0
33038,-100,4,2,1,35,0,0
33413,-100,4,2,1,40,0,0
37538,-76.9230769230769,4,2,1,40,0,1
61538,-100,4,2,1,40,0,0
70538,-100,4,2,1,30,0,0
70913,-100,4,2,1,28,0,0
71288,-100,4,2,1,26,0,0
71663,-100,4,2,1,24,0,0
72038,-100,4,2,1,22,0,0
75600,-100,4,2,1,20,0,0

[Colours]
Combo1 : 208,0,208
Combo2 : 255,128,255
Combo3 : 255,0,0
Combo4 : 0,176,0
Combo5 : 64,128,128
Combo6 : 0,64,0
Combo7 : 176,0,0

[HitObjects]
388,68,1538,6,0,P|405:114|451:136,1,90,4|0,0:0|0:0,0:0:0:0:
508,192,1904,1,8,0:0:0:0:
420,208,2091,2,0,P|346:164|314:60,2,180
480,276,3029,5,0,0:0:0:0:
396,292,3216,2,0,P|352:304|304:288,1,90,0|8,0:0|0:0,0:0:0:0:
240,236,3591,1,8,0:0:0:0:
169,292,3779,2,0,P|127:303|83:291,1,90,0|8,0:0|0:0,0:0:0:0:
52,204,4154,1,8,0:0:0:0:
32,164,4247,1,8,0:0:0:0:
53,124,4341,1,8,0:0:0:0:
136,164,4529,5,4,0:0:0:0:
212,52,4716,2,0,P|255:39|316:60,1,90,0|8,0:0|0:0,0:0:0:0:
340,128,5091,2,0,P|296:144|252:132,2,90
373,43,5654,1,0,0:0:0:0:
453,83,5841,2,0,B|453:139|485:167|485:167|453:195|453:263,1,180
396,316,6404,2,0,P|436:336|496:324,2,90,8|0|0,0:0|0:0|0:0,0:0:0:0:
332,252,6966,1,8,0:0:0:0:
248,216,7154,1,8,0:0:0:0:
208,196,7247,1,8,0:0:0:0:
168,216,7341,1,8,0:0:0:0:
128,296,7529,1,4,0:0:0:0:
28,148,7904,6,0,P|172:132|256:24,1,270,8|0,0:0|0:0,0:0:0:0:
340,48,8654,1,0,0:0:0:0:
366,84,8747,1,0,0:0:0:0:
366,129,8841,2,0,P|349:174|304:192,1,90
224,188,9216,1,0,0:0:0:0:
148,236,9404,1,8,0:0:0:0:
72,188,9591,1,0,0:0:0:0:
148,140,9779,2,0,P|136:92|164:44,2,90
204,212,10341,1,0,0:0:0:0:
224,252,10435,1,0,0:0:0:0:
266,268,10529,54,0,P|338:312|415:271,1,180,4|0,0:0|0:0,0:0:0:0:
352,208,11091,2,0,P|275:167|202:216,1,180
172,308,11654,1,0,0:0:0:0:
84,292,11841,2,0,P|43:215|87:137,1,180
164,108,12404,2,0,L|100:20,1,90,8|8,0:0|0:0,0:0:0:0:
256,120,12779,2,0,L|256:210,1,90,8|8,0:0|0:0,0:0:0:0:
344,108,13154,2,0,L|408:20,1,90,8|8,0:0|0:0,0:0:0:0:
464,96,13529,6,0,P|476:188|416:276,1,180,4|8,0:0|0:0,0:0:0:0:
384,336,14091,2,0,P|352:300|348:252,1,90
256,260,14466,2,0,P|250:300|218:336,1,90,0|8,0:0|0:0,0:0:0:0:
128,332,14841,1,8,0:0:0:0:
32,180,15216,1,0,0:0:0:0:
92,112,15404,2,0,P|136:88|156:44,1,90,8|0,0:0|0:0,0:0:0:0:
244,56,15779,2,0,P|268:100|312:120,1,90,0|8,0:0|0:0,0:0:0:0:
236,180,16154,5,8,0:0:0:0:
196,158,16247,1,8,0:0:0:0:
156,180,16341,1,8,0:0:0:0:
196,261,16529,2,0,L|196:360,1,90,4|0,0:0|0:0,0:0:0:0:
272,300,16904,1,8,0:0:0:0:
336,364,17091,1,0,0:0:0:0:
400,300,17279,1,0,0:0:0:0:
476,348,17466,2,0,L|476:258,1,90,0|8,0:0|0:0,0:0:0:0:
440,88,18029,6,0,P|360:56|268:88,1,180,0|8,0:0|0:0,0:0:0:0:
304,168,18591,2,0,P|256:172|204:140,1,90,0|8,0:0|0:0,0:0:0:0:
218,65,18966,1,8,0:0:0:0:
134,168,19154,2,0,P|182:172|234:140,1,90,0|8,0:0|0:0,0:0:0:0:
218,65,19529,54,0,P|128:64|48:128,1,180,4|8,0:0|0:0,0:0:0:0:
56,204,20091,2,0,P|126:254|216:253,1,180
296,208,20654,1,8,0:0:0:0:
344,284,20841,1,8,0:0:0:0:
488,176,21216,6,0,P|444:176|404:144,1,90,0|8,0:0|0:0,0:0:0:0:
488,52,21591,2,0,P|444:52|404:84,1,90,0|8,0:0|0:0,0:0:0:0:
324,116,21966,1,0,0:0:0:0:
234,116,22154,2,0,L|126:116,1,90,8|8,0:0|0:0,0:0:0:0:
96,192,22529,6,0,P|56:188|32:132,2,90,4|0|8,0:0|0:0|0:0,0:0:0:0:
180,228,23091,2,0,P|152:272|108:288,2,90
256,180,23654,1,8,0:0:0:0:
256,268,23841,1,0,0:0:0:0:
332,228,24029,6,0,P|360:272|404:288,2,90
416,192,24591,2,0,P|456:188|480:132,2,90,4|0|8,0:0|0:0|0:0,0:0:0:0:
256,204,25154,1,8,0:0:0:0:
256,168,25247,1,8,0:0:0:0:
256,132,25341,1,8,0:0:0:0:
256,96,25435,1,8,0:0:0:0:
256,60,25529,54,0,P|304:36|348:44,1,90,4|0,0:0|0:0,0:0:0:0:
422,60,25904,2,0,P|374:36|330:44,1,90
360,128,26279,1,8,0:0:0:0:
448,144,26466,2,0,P|472:184|468:232,1,90
380,220,26841,1,0,0:0:0:0:
200,220,27216,5,0,0:0:0:0:
108,216,27404,2,0,P|106:173|130:133,1,90
220,128,27779,1,8,0:0:0:0:
168,52,27966,1,0,0:0:0:0:
168,52,28154,1,0,0:0:0:0:
252,20,28341,1,0,0:0:0:0:
336,52,28529,5,4,0:0:0:0:
336,52,28716,1,0,0:0:0:0:
392,124,28904,1,0,0:0:0:0:
472,180,29091,2,0,P|436:216|388:216,1,90,0|8,0:0|0:0,0:0:0:0:
468,328,29466,2,0,P|432:292|384:292,1,90
313,252,29841,1,0,0:0:0:0:
312,252,30029,5,0,0:0:0:0:
156,340,30404,1,0,0:0:0:0:
52,192,30779,1,0,0:0:0:0:
208,104,31154,2,0,B|272:100|293:81|293:81|316:100|388:104,1,180,0|4,0:0|0:0,0:0:0:0:
428,180,31716,54,0,P|416:228|436:268,1,90
436,347,32091,2,0,P|448:299|428:259,1,90,0|8,0:0|0:0,0:0:0:0:
344,284,32466,1,0,0:0:0:0:
224,216,32654,1,0,0:0:0:0:
312,200,32841,1,0,0:0:0:0:
256,300,33029,1,0,0:0:0:0:
168,284,33216,2,0,P|128:300|80:288,1,90
32,216,33591,1,0,0:0:0:0:
80,140,33779,2,0,P|123:126|164:138,1,90,8|0,0:0|0:0,0:0:0:0:
250,137,34154,2,0,P|206:150|165:138,1,90,8|8,0:0|0:0,0:0:0:0:
164,48,34529,6,0,P|208:32|264:60,1,90
328,88,34904,1,8,0:0:0:0:
400,36,35091,2,0,P|456:104|448:216,1,180
368,196,35654,1,8,0:0:0:0:
408,276,35841,2,0,P|328:324|228:300,1,180
164,276,36404,1,8,0:0:0:0:
132,192,36591,1,0,0:0:0:0:
192,124,36779,2,0,B|217:83|262:78|262:78|290:34|365:34,1,180,0|8,0:0|0:0,0:0:0:0:
428,16,37341,1,0,0:0:0:0:
480,88,37538,38,0,P|448:140|472:212,1,116.999994644165,4|0,0:0|0:0,0:0:0:0:
435,298,37904,2,0,P|467:246|443:174,1,116.999994644165,8|0,0:0|0:0,0:0:0:0:
340,192,38279,2,0,B|300:192|300:192|292:184|292:184|292:200|292:200|284:192|284:192|228:192,1,116.999994644165
128,188,38654,1,8,0:0:0:0:
136,72,38841,6,0,B|72:92|72:92|72:116|72:116|52:124|12:176|56:252,1,233.999989288331,2|0,0:0|0:0,0:0:0:0:
168,252,39404,1,8,0:0:0:0:
268,312,39591,2,0,B|332:292|332:292|332:268|332:268|352:260|392:208|348:132,1,233.999989288331,0|0,0:0|0:0,0:0:0:0:
236,120,40154,2,0,B|212:156|212:156|204:160|204:160|216:164|216:164|208:168|208:168|176:216,1,116.999994644165,8|0,0:0|0:0,0:0:0:0:
148,316,40529,6,0,B|232:312|256:348|256:348|280:312|376:320,2,233.999989288331,4|8|0,0:0|0:0|0:0,0:0:0:0:
60,240,41466,2,0,P|32:192|88:136,1,116.999994644165,0|8,0:0|0:0,0:0:0:0:
148,64,41841,2,0,B|232:72|256:36|256:36|280:72|364:64,2,233.999989288331,2|0|0,0:0|0:0|0:0,0:0:0:0:
200,172,42779,2,0,P|256:192|320:168,1,116.999994644165
424,152,43154,1,8,0:0:0:0:
484,252,43341,1,8,0:0:0:0:
468,296,43435,1,8,0:0:0:0:
424,312,43529,70,0,B|372:312|372:312|360:328|360:328|348:312|280:356|196:284,1,233.999989288331,4|8,0:0|0:0,0:0:0:0:
92,276,44091,1,0,0:0:0:0:
24,180,44279,2,0,P|8:120|24:64,2,116.999994644165,0|0|8,0:0|0:0|0:0,0:0:0:0:
136,144,44841,2,0,B|192:104|192:104|224:56|280:72|280:72|376:72,1,233.999989288331,2|0,0:0|0:0,0:0:0:0:
460,88,45404,2,0,P|484:152|464:200,1,116.999994644165,10|0,0:0|0:0,0:0:0:0:
476,303,45779,2,0,P|452:239|472:191,1,116.999994644165
356,152,46154,2,0,P|296:140|272:88,1,116.999994644165,8|0,0:0|0:0,0:0:0:0:
356,232,46529,6,0,P|296:244|272:296,1,116.999994644165,4|0,0:0|0:0,0:0:0:0:
196,192,46904,2,0,L|56:192,1,116.999994644165,8|0,0:0|0:0,0:0:0:0:
44,300,47279,2,0,P|0:188|52:72,1,233.999989288331,0|8,0:0|0:0,0:0:0:0:
156,88,47841,2,0,P|194:189|150:301,2,233.999989288331,2|0|0,0:0|0:0|0:0,0:0:0:0:
396,40,48966,1,2,0:0:0:0:
464,136,49154,1,4,0:0:0:0:
256,28,49529,6,0,P|216:72|224:140,1,116.999994644165,4|0,0:0|0:0,0:0:0:0:
288,220,49904,2,0,P|232:196|176:228,1,116.999994644165,8|0,0:0|0:0,0:0:0:0:
136,160,50279,2,0,P|148:280|240:268,1,233.999989288331,4|8,0:0|0:0,0:0:0:0:
344,316,50841,2,0,B|316:256|336:204|344:204|352:204|384:148|316:80,1,233.999989288331,2|0,0:0|0:0,0:0:0:0:
380,20,51404,2,0,P|424:56|436:124,1,116.999994644165,8|0,0:0|0:0,0:0:0:0:
260,292,51966,1,0,0:0:0:0:
380,304,52154,2,0,P|424:268|436:200,1,116.999994644165,8|0,0:0|0:0,0:0:0:0:
356,92,52529,70,0,B|288:92|256:44|256:44|224:92|132:92,1,233.999989288331,4|8,0:0|0:0,0:0:0:0:
152,296,53091,2,0,B|223:295|255:343|255:343|287:295|355:295,1,233.999989288331,0|0,0:0|0:0,0:0:0:0:
256,192,53654,1,8,0:0:0:0:
256,192,53841,1,2,0:0:0:0:
154,92,54029,2,0,B|154:160|106:192|106:192|154:224|154:316,1,233.999989288331,0|8,0:0|0:0,0:0:0:0:
356,296,54591,2,0,B|356:228|404:196|404:196|356:164|356:72,1,233.999989288331,0|0,0:0|0:0,0:0:0:0:
220,32,55154,1,8,0:0:0:0:
108,64,55341,1,8,0:0:0:0:
88,104,55435,1,8,0:0:0:0:
72,148,55529,6,0,P|48:220|172:328,1,233.999989288331,4|8,0:0|0:0,0:0:0:0:
256,124,56279,2,0,L|384:124,1,116.999994644165
472,56,56654,2,0,L|348:56,1,116.999994644165,8|2,0:0|0:0,0:0:0:0:
240,36,57029,1,0,0:0:0:0:
120,56,57216,1,0,0:0:0:0:
52,152,57404,2,0,L|169:152,1,116.999994644165,8|0,0:0|0:0,0:0:0:0:
256,224,57779,2,0,L|140:224,2,116.999994644165,0|0|8,0:0|0:0|0:0,0:0:0:0:
360,16,58529,6,0,P|456:64|392:160,1,233.999989288331,4|8,0:0|0:0,0:0:0:0:
296,188,59091,1,0,0:0:0:0:
408,224,59279,2,0,P|455:317|359:365,1,233.999989288331,0|8,0:0|0:0,0:0:0:0:
257,247,59841,69,10,0:0:0:0:
156,190,60216,1,8,0:0:0:0:
256,128,60591,1,8,0:0:0:0:
432,192,60966,5,8,0:0:0:0:
256,336,61154,1,2,0:0:0:0:
80,192,61341,1,8,0:0:0:0:
256,48,61529,22,0,B|312:40|312:40|312:64|312:64|360:48|428:48|470:142,1,270,2|0,0:0|0:0,0:0:0:0:
378,238,62279,2,0,P|360:200|380:160,1,90
460,200,62654,2,0,P|480:240|461:278,1,90,8|0,0:0|0:0,0:0:0:0:
384,324,63029,6,0,B|328:324|328:324|312:320|312:320|312:328|312:328|296:324|296:324|204:324,1,180
92,244,63591,2,0,B|176:244|176:244|192:248|192:248|192:240|192:240|208:244|208:244|264:244,1,180
16,224,64154,2,0,P|4:176|28:140,1,90,8|0,0:0|0:0,0:0:0:0:
32,63,64529,6,0,P|44:111|20:147,1,90,4|0,0:0|0:0,0:0:0:0:
112,172,64904,1,0,0:0:0:0:
220,24,65091,1,0,0:0:0:0:
328,172,65279,1,0,0:0:0:0:
160,96,65466,1,0,0:0:0:0:
284,96,65654,1,8,0:0:0:0:
220,176,65841,2,0,P|164:240|188:344,2,180
344,312,66966,5,0,0:0:0:0:
476,280,67154,1,8,0:0:0:0:
396,220,67341,1,8,0:0:0:0:
364,188,67435,1,8,0:0:0:0:
320,176,67529,54,0,P|242:136|106:244,1,270,4|0,0:0|0:0,0:0:0:0:
180,344,68279,1,0,0:0:0:0:
32,344,68466,1,0,0:0:0:0:
108,232,68654,2,0,P|88:192|120:144,1,90,8|0,0:0|0:0,0:0:0:0:
405,75,69029,2,0,P|425:115|393:163,1,90
336,208,69404,1,0,0:0:0:0:
360,304,69591,2,0,P|240:268|277:135,1,270,0|8,0:0|0:0,0:0:0:0:
332,80,70341,2,0,P|304:52|236:48,1,90,0|4,0:0|0:0,0:0:0:0:
80,80,70904,6,0,P|108:52|176:48,1,90
152,140,71279,2,0,P|124:168|56:172,2,90,0|0|8,0:0|0:0|0:0,0:0:0:0:
228,188,71841,2,0,P|168:256|48:260,2,180
380,92,72966,1,0,0:0:0:0:
380,92,73154,1,8,0:0:0:0:
228,188,73529,6,0,P|200:148|208:96,1,90,4|8,0:0|0:0,0:0:0:0:
132,52,73904,2,0,P|93:82|41:76,1,90,0|8,0:0|0:0,0:0:0:0:
28,168,74279,2,0,P|56:208|48:260,1,90,8|8,0:0|0:0,0:0:0:0:
224,280,74841,6,0,P|296:328|400:308,1,180,0|8,0:0|0:0,0:0:0:0:
408,289,75310,1,8,0:0:0:0:
428,259,75404,1,8,0:0:0:0:
429,169,75591,1,4,0:0:0:0:
