osu file format v14

[General]
AudioFilename: Nobody knows.mp3
AudioLeadIn: 890
PreviewTime: 37110
Countdown: 0
SampleSet: Soft
StackLeniency: 0.7
Mode: 0
LetterboxInBreaks: 0
EpilepsyWarning: 1
WidescreenStoryboard: 0

[Editor]
DistanceSpacing: 1
BeatDivisor: 4
GridSize: 4
TimelineZoom: 1

[Metadata]
Title:Nobodyknows (TV Size)
TitleUnicode:Nobodyknows (TV Size)
Artist:16th Labo
ArtistUnicode:16th Labo
Creator:[Luxord]
Version:Hard
Source:Holy Knight
Tags:Kelvinli
BeatmapID:232172
BeatmapSetID:78627

[Difficulty]
HPDrainRate:6
CircleSize:4
OverallDifficulty:6
ApproachRate:8
SliderMultiplier:1.6
SliderTickRate:1

[Events]
//Background and Video events
0,0,"BG.jpg",0,0
//Break Periods
//Storyboard Layer 0 (Background)
//Storyboard Layer 1 (Fail)
//Storyboard Layer 2 (Pass)
//Storyboard Layer 3 (Foreground)
//Storyboard Sound Samples

[TimingPoints]
1538.18318130547,375,4,2,1,40,1,0
25538,-100,4,2,0,30,0,0
31163,-100,4,2,1,10,0,0
31538,-100,4,2,1,15,0,0
31913,-100,4,2,1,20,0,0
32288,-100,4,2,1,25,0,0
32663,-100,4,2,1,30,0,0
33038,-100,4,2,1,35,0,0
33413,-100,4,2,1,40,0,0
37538,-100,4,2,1,40,0,1
61538,-100,4,2,1,40,0,0
70538,-100,4,2,1,30,0,0
70913,-100,4,2,1,28,0,0
71288,-100,4,2,1,26,0,0
71663,-100,4,2,1,24,0,0
72038,-100,4,2,1,22,0,0
75600,-100,4,2,1,20,0,0

[Colours]
Combo1 : 208,0,208
Combo2 : 255,128,255
Combo3 : 255,0,0
Combo4 : 0,176,0
Combo5 : 64,128,128
Combo6 : 0,64,0
Combo7 : 176,0,0

[HitObjects]
24,56,1538,2,0,P|56:80|112:72,1,80,4|0,0:0|0:0,0:0:0:0:
168,48,1903,1,8,0:0:0:0:
96,160,2090,2,0,P|128:224|216:224,2,160
224,96,3215,5,0,0:0:0:0:
272,160,3403,1,8,0:0:0:0:
312,96,3590,1,0,0:0:0:0:
360,160,3778,2,0,L|360:256,1,80
296,288,4153,1,8,0:0:0:0:
256,300,4246,1,8,0:0:0:0:
216,288,4340,1,8,0:0:0:0:
136,288,4528,5,4,0:0:0:0:
60,312,4715,2,0,P|32:276|28:236,1,80,0|8,0:0|0:0,0:0:0:0:
72,176,5090,2,0,P|40:112|80:40,1,160
160,64,5653,1,0,0:0:0:0:
160,64,5840,2,0,P|192:128|128:208,1,160
88,256,6403,1,8,0:0:0:0:
104,336,6590,1,0,0:0:0:0:
160,280,6778,2,0,L|256:280,1,80
320,280,7153,1,8,0:0:0:0:
360,280,7246,1,8,0:0:0:0:
400,280,7340,2,0,L|400:176,2,80,8|4|0,0:0|0:0|0:0,0:0:0:0:
472,320,7903,6,0,P|480:208|344:56,1,320,8|0,0:0|0:0,0:0:0:0:
312,56,8746,1,0,0:0:0:0:
272,64,8840,2,0,L|272:168,1,80
336,192,9215,1,0,0:0:0:0:
336,192,9403,2,0,L|336:280,1,80,8|0,0:0|0:0,0:0:0:0:
280,328,9778,2,0,P|208:360|128:304,1,160
96,256,10340,1,8,0:0:0:0:
96,216,10434,1,8,0:0:0:0:
96,176,10528,54,0,P|56:112|104:48,1,160,4|8,0:0|0:0,0:0:0:0:
168,96,11090,2,0,P|216:160|160:224,1,160
260,244,11653,1,0,0:0:0:0:
340,216,11840,2,0,P|300:152|348:96,1,160
396,160,12403,2,0,P|440:224|388:280,2,160,8|0|8,0:0|0:0|0:0,0:0:0:0:
364,136,13246,1,8,0:0:0:0:
328,117,13340,1,8,0:0:0:0:
288,124,13434,1,8,0:0:0:0:
256,148,13528,6,0,L|256:332,1,160,4|8,0:0|0:0,0:0:0:0:
320,344,14090,2,0,P|256:384|185:326,2,160
424,192,15215,5,0,0:0:0:0:
376,128,15403,1,8,0:0:0:0:
328,192,15590,1,0,0:0:0:0:
376,256,15778,1,8,0:0:0:0:
424,320,15965,1,0,0:0:0:0:
376,384,16153,1,8,0:0:0:0:
328,320,16340,1,8,0:0:0:0:
288,320,16434,1,8,0:0:0:0:
248,320,16528,6,0,P|176:344|96:312,1,160,4|8,0:0|0:0,0:0:0:0:
32,352,17090,2,0,P|0:272|48:200,1,160
31,211,17653,1,0,0:0:0:0:
32,48,18028,54,0,L|112:128,1,80
116,24,18403,1,8,0:0:0:0:
172,88,18590,1,0,0:0:0:0:
216,24,18778,2,0,L|296:104,1,80
256,152,19153,1,0,0:0:0:0:
256,232,19340,1,0,0:0:0:0:
334,245,19528,6,0,P|308:292|200:288,1,160,4|8,0:0|0:0,0:0:0:0:
152,352,20090,2,0,P|96:288|96:200,1,160
92,136,20653,1,0,0:0:0:0:
92,56,20840,1,0,0:0:0:0:
248,56,21215,6,0,L|248:160,1,80,0|8,0:0|0:0,0:0:0:0:
248,216,21590,1,0,0:0:0:0:
248,296,21778,1,0,0:0:0:0:
304,352,21965,1,0,0:0:0:0:
384,352,22153,1,0,0:0:0:0:
500,240,22528,6,0,L|500:160,1,80,4|0,0:0|0:0,0:0:0:0:
432,208,22903,2,0,L|432:128,1,80,8|0,0:0|0:0,0:0:0:0:
364,168,23278,2,0,L|364:8,1,160
40,348,24028,54,0,L|40:268,1,80
108,316,24403,2,0,L|108:228,1,80,8|0,0:0|0:0,0:0:0:0:
176,276,24778,2,0,L|176:116,1,160,0|8,0:0|0:0,0:0:0:0:
176,76,25246,6,0,L|140:52,3,40,8|8|8|4,0:0|0:0|0:0|0:0,0:0:0:0:
256,40,25715,1,0,0:0:0:0:
304,104,25903,1,8,0:0:0:0:
352,168,26090,1,0,0:0:0:0:
400,104,26278,1,0,0:0:0:0:
452,44,26465,1,0,0:0:0:0:
484,200,26840,2,0,P|508:280|468:360,1,160
400,344,27403,6,0,L|304:344,1,80,8|0,0:0|0:0,0:0:0:0:
272,276,27778,2,0,L|352:276,1,80
400,208,28153,2,0,L|320:208,1,80,8|0,0:0|0:0,0:0:0:0:
240,208,28528,6,0,P|200:276|256:349,2,160,4|8|0,0:0|0:0|0:0,0:0:0:0:
240,208,29465,1,0,0:0:0:0:
240,56,29840,1,0,0:0:0:0:
240,56,30028,2,0,B|164:40|164:40|64:64,1,160,0|8,0:0|0:0,0:0:0:0:
32,120,30590,2,0,B|108:136|108:136|197:115,1,160,0|8,0:0|0:0,0:0:0:0:
232,176,31153,1,8,0:0:0:0:
348,64,31528,53,0,0:0:0:0:
348,64,31715,1,0,0:0:0:0:
400,128,31903,2,0,L|488:128,1,80,8|0,0:0|0:0,0:0:0:0:
480,208,32278,2,0,L|480:304,2,80
400,208,32840,2,0,L|400:304,1,80
400,368,33215,1,0,0:0:0:0:
400,368,33403,2,0,L|232:368,1,160,8|0,0:0|0:0,0:0:0:0:
288,208,34153,6,0,L|112:208,1,160,0|4,0:0|0:0,0:0:0:0:
76,288,34715,1,0,0:0:0:0:
20,208,34903,1,8,0:0:0:0:
76,128,35090,2,0,P|100:64|204:44,2,160
240,128,36215,1,0,0:0:0:0:
392,184,36590,1,0,0:0:0:0:
392,184,36778,2,0,L|392:0,1,160
472,24,37340,1,0,0:0:0:0:
472,24,37528,38,0,L|472:184,1,160,4|8,0:0|0:0,0:0:0:0:
476,344,38278,2,0,P|444:274|359:254,1,160,0|8,0:0|0:0,0:0:0:0:
384,344,38840,2,0,L|208:344,1,160,0|0,0:0|0:0,0:0:0:0:
192,260,39403,1,2,0:0:0:0:
112,220,39590,2,0,P|42:184|59:95,2,160
120,140,40528,6,0,P|192:128|272:204,1,160,4|8,0:0|0:0,0:0:0:0:
256,336,41278,2,0,L|256:248,2,80,0|0|8,0:0|0:0|0:0,0:0:0:0:
336,336,41840,2,0,L|336:168,2,160,2|0|0,0:0|0:0|0:0,0:0:0:0:
416,256,42965,1,0,0:0:0:0:
416,256,43153,2,0,L|416:168,1,80,8|8,0:0|0:0,0:0:0:0:
416,136,43434,1,8,0:0:0:0:
416,96,43528,6,0,P|384:48|288:48,1,160,4|8,0:0|0:0,0:0:0:0:
128,32,44278,2,0,P|48:104|60:164,1,160,0|8,0:0|0:0,0:0:0:0:
128,116,44840,2,0,B|164:180|136:228|120:228|100:228|72:312|148:352,1,240,2|12,0:0|0:0,0:0:0:0:
368,352,45965,69,0,0:0:0:0:
304,304,46153,1,8,0:0:0:0:
368,256,46340,1,0,0:0:0:0:
432,208,46528,2,0,B|368:168|368:168|368:80,1,160,4|8,0:0|0:0,0:0:0:0:
208,80,47278,2,0,B|208:168|208:168|139:221,1,160,0|8,0:0|0:0,0:0:0:0:
136,133,47840,2,0,B|80:176|80:176|80:288,2,160,2|0|0,0:0|0:0|0:0,0:0:0:0:
256,24,48965,1,2,0:0:0:0:
256,24,49153,1,12,0:0:0:0:
256,192,49528,6,0,L|256:88,1,80,4|0,0:0|0:0,0:0:0:0:
328,64,49903,2,0,L|328:160,1,80,8|0,0:0|0:0,0:0:0:0:
400,192,50278,2,0,L|400:24,1,160,0|8,0:0|0:0,0:0:0:0:
480,56,50840,2,0,L|480:224,1,160,2|0,0:0|0:0,0:0:0:0:
392,352,51590,2,0,L|224:352,1,160
376,280,52340,6,0,L|272:280,1,80,0|4,0:0|0:0,0:0:0:0:
136,280,52903,1,8,0:0:0:0:
204,136,53278,2,0,L|204:236,1,80
220,294,53653,1,8,0:0:0:0:
136,280,53840,2,0,B|44:192|44:192|44:64,1,240,2|8,0:0|0:0,0:0:0:0:
160,192,54778,2,0,P|116:120|148:28,1,160,0|8,0:0|0:0,0:0:0:0:
200,32,55340,1,8,0:0:0:0:
270,53,55528,70,0,P|281:120|235:196,1,160,4|8,0:0|0:0,0:0:0:0:
360,296,56278,2,0,L|288:224,1,80
360,88,56653,2,0,L|288:160,1,80,8|2,0:0|0:0,0:0:0:0:
256,80,57028,1,0,0:0:0:0:
152,88,57215,2,0,L|224:160,1,80,0|10,0:0|0:0,0:0:0:0:
152,296,57590,2,0,L|224:224,2,80,0|0|0,0:0|0:0|0:0,0:0:0:0:
72,296,58153,2,0,L|32:336,2,40,8|8|8,0:0|0:0|0:0,0:0:0:0:
72,216,58528,6,0,P|48:128|88:48,2,160,4|8|0,0:0|0:0|0:0,0:0:0:0:
144,176,59465,1,0,0:0:0:0:
216,136,59653,1,8,0:0:0:0:
288,96,59840,2,0,P|312:184|272:264,2,160,2|0|0,0:0|0:0|0:0,0:0:0:0:
432,32,60965,5,8,0:0:0:0:
480,96,61153,1,2,0:0:0:0:
432,160,61340,1,8,0:0:0:0:
380,96,61528,6,0,B|236:160|236:160|388:224,1,320,2|0,0:0|0:0,0:0:0:0:
460,252,62465,1,0,0:0:0:0:
439,329,62653,1,8,0:0:0:0:
280,328,63028,6,0,L|112:328,1,160
76,260,63590,2,0,L|244:260,1,160
280,208,64153,2,0,L|280:104,2,80,8|0|4,0:0|0:0|0:0,0:0:0:0:
352,352,64903,6,0,L|352:264,1,80
420,316,65278,2,0,L|420:220,1,80
488,92,65840,2,0,L|488:260,2,160
320,96,66965,1,0,0:0:0:0:
256,144,67153,1,8,0:0:0:0:
192,96,67340,1,8,0:0:0:0:
192,96,67434,1,8,0:0:0:0:
192,96,67528,6,0,P|80:96|40:136,1,160,12|0,0:0|0:0,0:0:0:0:
40,208,68090,2,0,L|40:312,2,80
112,248,68653,1,8,0:0:0:0:
112,248,68840,1,0,0:0:0:0:
184,208,69028,2,0,L|184:312,2,80
256,248,69590,2,0,P|356:312|456:252,1,240,0|8,0:0|0:0,0:0:0:0:
399,190,70340,2,0,P|427:158|475:138,2,80,0|4|0,0:0|0:0|0:0,0:0:0:0:
312,196,70903,53,0,0:0:0:0:
244,156,71090,1,0,0:0:0:0:
192,96,71278,1,0,0:0:0:0:
124,52,71465,2,0,B|52:156|52:156|52:220,1,160
41,349,72215,1,0,0:0:0:0:
172,256,72590,1,0,0:0:0:0:
304,348,72965,1,4,0:0:0:0:
348,280,73153,1,8,0:0:0:0:
368,120,73528,6,0,P|400:48|480:48,2,160,4|0|0,0:0|0:0|0:0,0:0:0:0:
368,200,74465,1,0,0:0:0:0:
208,200,74840,1,0,0:0:0:0:
48,184,75215,2,8,L|48:240,2,40
48,104,75590,1,4,0:0:0:0:
