osu file format v12

[General]
AudioFilename: amatsuki no jaku.mp3
AudioLeadIn: 0
PreviewTime: 66447
Countdown: 0
SampleSet: None
StackLeniency: 0.7
Mode: 0
LetterboxInBreaks: 1
WidescreenStoryboard: 1

[Editor]
DistanceSpacing: 1.2
BeatDivisor: 4
GridSize: 4

[Metadata]
Title:Ama no Jaku
TitleUnicode:天ノ弱
Artist:164 feat. amatsuki
ArtistUnicode:164 feat. 天月
Creator:RLC
Version:Amatsuki no Jaku
Source:
Tags:
BeatmapID:298574
BeatmapSetID:115550

[Difficulty]
HPDrainRate:6
CircleSize:4
OverallDifficulty:7
ApproachRate:9
SliderMultiplier:1.6
SliderTickRate:1

[Events]
//Background and Video events
0,0,"i cant find pv bg.jpg",0,0
//Break Periods
2,124174,131703
//Storyboard Layer 0 (Background)
//Storyboard Layer 1 (Fail)
//Storyboard Layer 2 (Pass)
//Storyboard Layer 3 (Foreground)
//Storyboard Sound Samples
//Background Colour Transformations
3,100,163,162,255

[TimingPoints]
1741,300,4,2,1,80,1,0
1741,-200,4,2,1,80,0,0
20791,-200,4,2,1,5,0,0
20941,-100,4,1,1,80,0,0
40141,-113.636363636364,4,2,1,80,0,0
58141,-113.636363636364,4,1,1,80,0,0
59341,300,3,1,1,80,1,0
59341,-133.333333333333,3,1,1,80,0,0
62341,-86.9565217391304,3,2,1,40,0,0
62935,292.682926829268,3,1,1,80,1,0
62935,-133.333333333333,3,1,1,80,0,0
63813,-113.636363636364,3,1,1,80,0,0
64252,-113.636363636364,3,1,1,80,0,0
64691,292.682926829268,4,1,1,80,1,0
64691,-100,4,1,1,80,0,0
65861,-100,4,1,1,80,0,0
67032,292.682926829268,4,1,1,80,1,0
67032,-86.9565217391304,4,1,1,80,0,1
81084,298.507462686567,4,1,1,80,1,0
83472,-100,4,2,1,80,0,1
85856,298.507462686567,4,1,1,80,1,0
85860,-113.636363636364,4,2,1,80,0,0
95408,-113.636363636364,4,1,1,50,0,0
96602,-86.9565217391304,4,1,1,50,0,0
97497,-113.636363636364,4,2,1,20,0,0
97788,299.25187032419,4,1,1,80,1,0
97788,-113.636363636364,4,2,1,80,0,0
103773,-113.636363636364,4,1,1,80,0,0
104371,-100,4,1,1,80,0,0
104965,297.029702970297,4,1,1,80,1,0
104965,-133.333333333333,4,1,1,80,0,0
109717,-113.636363636364,4,1,1,80,0,0
110608,-133.333333333333,4,1,1,80,0,0
114172,-100,4,1,1,80,0,0
119222,-133.333333333333,4,1,1,80,0,0
120410,-133.333333333333,4,2,1,80,0,0
121598,-133.333333333333,4,1,1,80,0,0
123972,297.545251673692,4,1,1,15,1,0
133493,300.902708124373,4,1,1,40,1,0
133493,-200,4,1,0,25,0,0
141918,292.682926829268,4,1,1,80,1,0
143088,-86.9565217391304,4,1,1,80,0,1
151283,293.398533007335,4,1,1,80,1,1
151283,-86.9565217391304,4,1,1,80,0,1
155977,296.73590504451,4,1,1,80,1,0
155977,-86.9565217391304,4,1,1,80,0,1
157163,-100,4,1,1,80,0,0
159537,-100,4,2,1,80,0,1
161911,298.507462686567,4,1,1,80,1,0
181015,-113.636363636364,4,3,1,25,0,0

[Colours]
Combo1 : 255,94,55
Combo2 : 173,255,95
Combo3 : 255,88,100
Combo4 : 17,254,176

[HitObjects]
256,192,19741,12,0,20791,2:0:0:0:
34,102,20941,6,0,P|26:46|44:3,1,80,4|0,0:0|0:0,0:0:0:0:
153,77,21241,2,0,P|164:123|142:244,1,160,8|0,0:0|0:0,0:0:0:0:
87,372,21691,1,0,0:0:0:0:
49,276,21841,1,8,0:0:0:0:
187,328,21991,6,0,B|270:303|266:360|350:330,1,160
308,168,22441,2,0,P|297:216|319:268,1,80,8|0,0:0|0:0,0:0:0:0:
447,296,22741,1,0,0:0:0:0:
500,153,22891,1,8,0:0:0:0:
356,97,23041,1,8,0:0:0:0:
48,334,23341,6,0,P|21:280|23:225,1,80
240,180,23641,2,0,P|206:228|101:259,1,160,8|0,0:0|0:0,0:0:0:0:
50,177,24091,1,0,0:0:0:0:
84,83,24241,1,8,0:0:0:0:
186,74,24391,6,2,L|280:85,1,80,4|0,0:0|0:0,0:0:0:0:
452,138,24691,1,2,0:2:0:0:
452,138,24766,1,0,0:0:0:0:
452,138,24841,2,2,L|355:155,1,80,8|8,0:0|0:0,0:0:0:0:
237,236,25141,1,6,0:0:0:0:
310,368,25291,1,2,0:2:0:0:
310,368,25366,1,0,0:0:0:0:
310,368,25441,2,2,P|330:323|320:202,1,160,8|6,0:0|0:0,0:0:0:0:
325,214,26041,5,8,0:0:0:0:
237,236,26191,1,0,0:0:0:0:
310,368,26341,2,0,L|414:375,1,80
183,353,26641,1,8,0:0:0:0:
237,236,26791,6,0,P|250:174|219:69,1,160
347,8,27241,2,0,P|335:53|350:97,1,80,8|0,0:0|0:0,0:0:0:0:
388,208,27541,1,0,0:0:0:0:
431,47,27691,1,8,0:0:0:0:
226,81,27841,1,8,0:0:0:0:
226,81,28141,6,0,P|221:140|221:171,1,80
322,132,28441,1,8,0:0:0:0:
118,132,28591,2,0,P|128:202|132:300,1,160
57,373,29041,1,8,0:0:0:0:
246,346,29191,6,2,P|235:294|235:253,1,80,4|0,0:0|0:0,0:0:0:0:
322,132,29491,1,0,0:0:0:0:
322,132,29566,1,0,0:0:0:0:
322,132,29641,2,2,P|333:184|333:225,1,80,8|2,0:0|0:0,0:0:0:0:
129,305,29941,1,2,0:0:0:0:
111,289,30016,1,0,0:0:0:0:
101,266,30091,1,0,0:0:0:0:
99,242,30166,1,0,0:0:0:0:
107,219,30241,1,2,0:0:0:0:
120,199,30316,1,0,0:0:0:0:
125,175,30391,1,0,0:0:0:0:
125,151,30466,1,0,0:0:0:0:
117,128,30541,6,0,L|98:86,3,40,4|0|4|0,0:3|0:3|0:3|0:3,0:0:0:0:
16,84,30841,2,0,P|21:129|31:181,1,80,4|0,0:0|0:0,0:0:0:0:
256,233,31141,2,0,P|251:188|241:136,1,80
179,40,31441,1,8,0:0:0:0:
134,189,31591,6,0,P|142:260|159:352,1,160
252,362,32041,1,8,0:0:0:0:
324,299,32191,1,0,0:0:0:0:
419,311,32341,2,0,P|464:310|521:280,1,80,0|8,0:0|0:0,0:0:0:0:
493,100,32641,1,8,0:0:0:0:
217,51,32941,6,0,L|202:157,1,80
83,259,33241,2,0,P|55:194|82:85,1,160,8|0,0:0|0:0,0:0:0:0:
206,130,33691,2,0,P|257:139|308:117,1,80,0|8,0:0|0:0,0:0:0:0:
390,214,33991,6,2,L|401:134,1,80,4|0,0:0|0:0,0:0:0:0:
273,53,34291,1,2,0:2:0:0:
273,53,34366,1,0,0:0:0:0:
273,53,34441,2,2,L|287:152,1,80,8|2,0:0|0:2,0:0:0:0:
194,203,34741,2,2,P|141:185|36:240,1,160,4|10,0:0|0:0,0:0:0:0:
55,346,35191,1,0,0:0:0:0:
170,376,35341,6,0,P|179:337|173:285,1,80,4|0,0:0|0:0,0:0:0:0:
194,204,35641,2,0,P|292:188|366:189,1,160,8|0,0:0|0:0,0:0:0:0:
386,364,36091,2,0,P|377:315|376:268,1,80,0|8,0:0|0:0,0:0:0:0:
430,13,36391,6,0,P|440:77|446:179,1,160
197,125,36841,1,8,0:0:0:0:
197,125,37141,2,0,P|200:81|221:42,1,80,0|8,0:0|0:0,0:0:0:0:
314,148,37441,2,0,P|311:192|290:231,1,80,8|8,0:0|0:0,0:0:0:0:
201,292,37741,5,0,0:0:0:0:
426,377,37891,2,0,P|419:316|443:211,1,160,8|0,0:0|0:0,0:0:0:0:
313,149,38341,2,0,L|327:228,1,80,8|0,0:0|0:0,0:0:0:0:
282,332,38641,1,0,0:0:0:0:
91,309,38791,1,8,0:0:0:0:
91,309,38866,1,0,0:0:0:0:
91,309,38941,6,2,P|33:319|-2:324,1,80,0|0,0:0|0:0,0:0:0:0:
13,322,39166,1,0,0:0:0:0:
13,322,39241,1,2,0:0:0:0:
117,218,39391,1,2,0:0:0:0:
49,96,39541,1,2,0:0:0:0:
49,96,39616,1,0,0:0:0:0:
49,96,39691,1,0,0:2:0:0:
49,96,39766,1,0,0:0:0:0:
49,96,39841,1,2,0:2:0:0:
49,96,39916,1,0,0:0:0:0:
49,96,39991,1,0,0:2:0:0:
49,96,40066,1,0,0:0:0:0:
49,96,40141,6,0,P|38:148|53:246,1,140.800004296875,4|0,1:0|0:0,0:0:0:0:
48,234,40591,2,0,L|136:213,1,70.4000021484376,0|8,1:0|0:1,0:0:0:0:
235,277,40891,2,0,L|147:298,1,70.4000021484376,0|0,0:0|1:0,0:0:0:0:
320,384,41191,6,0,P|332:329|313:233,1,140.800004296875,8|8,0:1|0:1,0:0:0:0:
318,246,41641,2,0,L|398:228,1,70.4000021484376,0|0,0:0|1:0,0:0:0:0:
231,358,41941,2,0,L|154:350,1,70.4000021484376,8|0,0:1|0:0,0:0:0:0:
78,309,42241,1,2,0:0:0:0:
78,309,42391,1,2,0:0:0:0:
78,309,42541,6,0,L|-2:317,2,70.4000021484376,0|0|0,1:0|0:0|0:0,0:0:0:0:
146,200,42991,2,0,L|223:192,1,70.4000021484376,0|8,1:0|0:1,0:0:0:0:
297,150,43291,1,0,0:0:0:0:
297,150,43591,6,2,P|310:104|291:8,1,140.800004296875,4|8,1:2|0:1,0:0:0:0:
112,24,44041,2,0,P|104:64|115:115,1,70.4000021484376,0|2,0:0|1:2,0:0:0:0:
180,225,44341,1,12,0:2:0:0:
214,121,44491,1,8,0:1:0:0:
80,194,44641,2,0,L|-2:212,1,70.4000021484376,0|2,0:0|0:2,0:0:0:0:
180,225,44941,6,0,P|195:274|179:362,1,140.800004296875,4|0,1:2|0:0,0:0:0:0:
179,360,45391,2,0,L|267:371,1,70.4000021484376,0|8,1:0|0:1,0:0:0:0:
368,271,45691,2,0,L|280:281,1,70.4000021484376,0|0,0:0|1:0,0:0:0:0:
338,168,45991,6,0,B|394:162|394:162|413:151|413:151|475:145,1,140.800004296875,0|8,1:0|0:1,0:0:0:0:
477,52,46441,1,0,0:0:0:0:
386,63,46591,1,0,1:0:0:0:
295,47,46741,2,0,L|205:56,1,70.4000021484376,8|0,0:1|0:0,0:0:0:0:
136,78,47041,1,2,0:0:0:0:
136,78,47191,1,2,0:0:0:0:
136,78,47341,6,0,P|132:38|134:3,2,70.4000021484376,0|8|0,1:0|0:1|0:0,0:0:0:0:
187,175,47791,2,0,P|191:215|189:250,1,70.4000021484376,0|8,1:0|0:1,0:0:0:0:
189,245,48241,1,0,1:0:0:0:
2,283,48391,6,2,P|18:245|120:204,1,140.800004296875,4|8,1:2|0:1,0:0:0:0:
119,361,48841,2,0,P|101:323|105:281,1,70.4000021484376,0|0,0:0|1:2,0:0:0:0:
263,172,49141,2,2,P|281:210|277:252,1,70.4000021484376,8|0,0:1|1:0,0:0:0:0:
221,340,49441,1,0,1:0:0:0:
189,245,49591,1,2,1:2:0:0:
263,171,49741,6,0,L|404:147,1,140.800004296875,4|0,1:0|0:0,0:0:0:0:
401,147,50191,2,0,P|400:190|409:228,1,70.4000021484376,0|8,1:0|0:1,0:0:0:0:
471,279,50491,1,0,0:0:0:0:
418,353,50641,1,0,1:0:0:0:
343,299,50791,6,0,P|306:292|200:337,1,140.800004296875,0|8,1:0|0:1,0:0:0:0:
73,263,51241,2,0,L|149:270,1,70.4000021484376,0|0,0:0|1:0,0:0:0:0:
301,203,51541,2,0,L|225:210,1,70.4000021484376,8|0,0:1|0:0,0:0:0:0:
152,160,51841,1,2,0:0:0:0:
152,160,51991,1,2,0:0:0:0:
222,101,52141,6,0,P|226:58|213:14,2,70.4000021484376,0|8|0,1:0|0:1|0:0,0:0:0:0:
66,167,52591,2,0,P|60:132|64:97,1,70.4000021484376,0|8,1:0|0:1,0:0:0:0:
136,39,52891,1,0,0:0:0:0:
178,234,53191,6,2,P|188:293|179:382,1,140.800004296875,4|8,1:2|0:1,0:0:0:0:
13,267,53641,2,0,P|49:258|102:256,1,70.4000021484376,4|0,0:2|1:0,0:0:0:0:
72,365,53941,2,2,P|36:374|-17:376,1,70.4000021484376,8|0,0:1|1:0,0:0:0:0:
178,234,54241,1,4,0:2:0:0:
202,328,54391,1,8,0:1:0:0:
271,259,54541,6,0,P|343:257|429:269,1,140.800004296875,4|0,1:0|0:0,0:0:0:0:
488,176,54991,2,0,P|504:139|505:90,1,70.4000021484376,0|8,1:0|0:1,0:0:0:0:
403,20,55291,2,0,P|387:57|386:106,1,70.4000021484376,0|0,0:0|1:0,0:0:0:0:
267,166,55591,6,0,P|267:107|237:7,1,140.800004296875,0|8,1:0|0:1,0:0:0:0:
155,32,56041,1,0,0:0:0:0:
95,101,56191,1,0,1:0:0:0:
18,50,56341,1,8,0:1:0:0:
103,271,56641,1,2,0:0:0:0:
103,271,56791,1,2,0:0:0:0:
103,271,56941,6,0,P|96:223|107:119,1,140.800004296875,0|0,1:0|0:0,0:0:0:0:
103,131,57391,2,0,L|187:118,1,70.4000021484376,0|8,1:0|0:1,0:0:0:0:
260,150,57691,1,0,0:0:0:0:
260,150,57841,2,0,P|264:195|260:236,1,70.4000021484376,0|0,1:0|1:0,0:0:0:0:
322,289,58141,6,0,L|342:337,5,46.933334765625,2|0|2|0|2|0,0:2|0:0|0:2|0:0|0:2|0:0,0:0:0:0:
381,218,58741,2,0,L|431:234,5,46.933334765625,2|0|2|0|2|0,0:2|0:0|0:2|0:0|0:2|0:0,0:0:0:0:
407,137,59341,6,0,P|416:84|407:41,1,80.0000030517579,0|2,0:0|2:0,0:0:0:0:
412,58,59641,1,0,0:0:0:0:
142,71,59841,2,0,P|200:58|276:72,1,120.000004577637,2|0,0:2|0:0,0:0:0:0:
288,78,60241,5,8,0:0:0:0:
318,168,60441,1,0,0:0:0:0:
318,168,60541,2,0,L|335:258,1,80.0000030517579
332,246,60841,1,0,0:0:0:0:
213,334,61041,1,0,0:0:0:0:
213,334,61141,6,0,L|198:225,1,80.0000030517579,0|0,0:0|0:0,0:0:0:0:
202,254,61441,1,0,0:0:0:0:
92,132,61641,2,0,P|77:177|86:266,1,120.000004577637,2|2,0:2|0:2,0:0:0:0:
42,321,62041,6,0,L|-10:346,2,40.000001525879,8|8|8,0:0|0:0|0:0,0:0:0:0:
127,338,62341,2,2,P|130:345|138:363,12,23.0000004386902,2|0|0|0|2|2|2|2|2|2|2|2|2,0:0|0:0|0:0|0:0|0:0|0:0|0:0|0:0|0:0|0:0|0:0|0:0|0:0,0:0:0:0:
202,254,62935,6,0,L|209:161,1,80.0000030517579,4|0,0:2|0:0,0:0:0:0:
207,174,63227,1,8,0:0:0:0:
324,175,63374,2,0,L|313:316,1,120.000004577637,4|0,0:0|0:0,0:0:0:0:
113,258,63813,6,0,L|120:126,1,105.600003222656,4|0,0:2|0:0,0:0:0:0:
118,152,64105,1,8,0:0:0:0:
413,169,64252,2,0,L|402:334,1,140.800004296875,4|0,0:0|0:0,0:0:0:0:
260,298,64691,6,0,L|270:116,2,160,4|2|2,0:2|0:2|0:2,0:0:0:0:
260,298,65569,1,2,0:2:0:0:
260,298,65861,5,0,0:0:0:0:
226,319,65934,1,0,0:0:0:0:
185,324,66008,1,0,0:0:0:0:
146,313,66081,1,0,0:0:0:0:
121,281,66154,1,0,0:0:0:0:
114,241,66227,1,0,0:0:0:0:
86,211,66300,1,0,0:0:0:0:
46,209,66373,1,0,0:0:0:0:
11,229,66447,2,0,L|19:108,1,106.666666666667
18,122,66739,1,0,0:0:0:0:
403,14,67032,6,2,P|458:30|508:154,1,184.000003509522,4|12,0:0|0:2,0:0:0:0:
300,338,67471,2,2,P|278:280|289:221,1,92.0000017547608,0|0,0:0|0:0,0:0:0:0:
396,131,67763,1,0,0:0:0:0:
468,270,67910,2,2,P|416:282|346:269,1,92.0000017547608,8|2,0:0|0:0,0:0:0:0:
35,119,68202,6,0,P|87:107|157:120,1,92.0000017547608,2|0,0:0|0:0,0:0:0:0:
211,187,68495,1,12,0:2:0:0:
357,70,68641,1,2,0:2:0:0:
357,70,68714,1,2,0:2:0:0:
357,70,68788,2,2,P|305:82|235:69,1,92.0000017547608,0|0,0:0|0:2,0:0:0:0:
35,119,69080,2,2,P|22:167|35:229,1,92.0000017547608,8|2,0:0|0:2,0:0:0:0:
340,354,69373,6,2,P|365:302|348:154,1,184.000003509522,4|12,0:0|0:2,0:0:0:0:
128,312,69812,2,2,P|193:319|235:302,1,92.0000017547608,0|0,0:0|0:0,0:0:0:0:
359,178,70105,1,2,0:0:0:0:
202,51,70251,2,2,P|137:44|95:61,1,92.0000017547608,8|2,0:0|0:0,0:0:0:0:
245,235,70544,6,0,L|260:132,1,92.0000017547608,2|0,0:0|0:0,0:0:0:0:
288,35,70836,1,12,0:2:0:0:
441,92,70983,1,0,0:0:0:0:
441,92,71056,1,0,0:0:0:0:
441,92,71129,1,0,0:0:0:0:
512,184,71275,1,10,0:0:0:0:
454,297,71422,1,8,0:0:0:0:
380,198,71568,1,10,0:0:0:0:
512,184,71714,6,0,P|523:236|507:290,1,92.0000017547608,6|0,0:0|0:0,0:0:0:0:
380,198,72007,2,2,P|361:138|408:15,2,184.000003509522,12|0|10,0:2|0:0|0:0,0:0:0:0:
390,324,72739,1,0,0:0:0:0:
269,185,72885,6,0,P|218:170|148:183,1,92.0000017547608,6|0,0:0|0:0,0:0:0:0:
202,260,73178,2,2,P|226:215|224:67,1,184.000003509522,8|0,0:0|0:0,0:0:0:0:
34,23,73617,1,0,0:0:0:0:
34,23,73690,1,0,0:0:0:0:
34,23,73763,2,2,P|22:75|45:139,1,92.0000017547608,8|2,0:0|0:0,0:0:0:0:
230,84,74056,6,2,L|342:69,1,92.0000017547608,6|0,0:0|0:0,0:0:0:0:
497,200,74349,2,2,L|385:215,1,92.0000017547608,8|2,0:0|0:0,0:0:0:0:
97,199,74641,2,2,L|208:183,1,92.0000017547608,14|0,0:0|0:0,0:0:0:0:
364,315,74934,2,0,L|252:330,1,92.0000017547608,10|2,0:0|0:0,0:0:0:0:
29,278,75227,5,6,0:0:0:0:
10,246,75300,1,0,0:0:0:0:
13,209,75373,1,0,0:0:0:0:
39,183,75446,1,0,0:0:0:0:
75,177,75519,1,0,0:0:0:0:
108,192,75592,1,0,0:0:0:0:
126,224,75666,1,0,0:0:0:0:
125,260,75739,1,0,0:0:0:0:
141,292,75812,1,0,0:0:0:0:
171,312,75885,1,0,0:0:0:0:
207,317,75958,1,0,0:0:0:0:
241,304,76031,1,0,0:0:0:0:
271,283,76105,1,0,0:0:0:0:
299,259,76178,1,0,0:0:0:0:
335,252,76251,1,0,0:0:0:0:
370,259,76324,1,0,0:0:0:0:
401,277,76397,6,2,P|432:219|413:90,1,184.000003509522,4|8,0:0|0:0,0:0:0:0:
150,52,76836,2,2,P|142:102|160:154,1,92.0000017547608,0|4,0:0|0:2,0:0:0:0:
271,283,77129,1,0,0:0:0:0:
328,104,77275,2,2,P|280:90|220:102,1,92.0000017547608,8|2,0:0|0:0,0:0:0:0:
48,228,77568,5,2,0:0:0:0:
19,117,77714,1,2,0:2:0:0:
134,90,77861,1,8,0:2:0:0:
159,201,78007,1,2,0:2:0:0:
240,95,78153,2,2,P|287:77|346:86,1,92.0000017547608,4|2,0:2|0:2,0:0:0:0:
329,328,78446,2,2,P|283:329|241:312,1,92.0000017547608,8|0,0:0|0:2,0:0:0:0:
304,204,78739,6,2,P|377:195|494:203,2,184.000003509522,4|8|6,0:0|0:0|0:2,0:0:0:0:
241,312,79471,1,0,0:0:0:0:
410,372,79617,2,2,P|421:322|422:271,1,92.0000017547608,12|2,0:2|0:0,0:0:0:0:
207,132,79910,6,0,P|196:182|195:233,1,92.0000017547608,2|0,0:0|0:0,0:0:0:0:
330,291,80202,2,0,P|282:308|220:310,1,92.0000017547608,12|0,0:2|0:0,0:0:0:0:
88,380,80494,2,0,P|98:333|101:280,1,92.0000017547608,2|8,0:0|0:0,0:0:0:0:
85,32,80787,2,0,P|98:93|99:138,1,92.0000017547608,12|0,0:2|0:0,0:0:0:0:
187,147,81084,5,4,0:3:0:0:
277,115,81233,1,0,0:0:0:0:
277,115,81307,1,0,0:0:0:0:
277,115,81382,1,8,0:3:0:0:
331,193,81531,1,0,0:0:0:0:
331,193,81606,1,0,0:0:0:0:
331,193,81681,1,8,0:0:0:0:
280,274,81830,1,4,0:3:0:0:
189,242,81979,1,4,0:3:0:0:
331,193,82128,6,0,P|385:175|427:166,1,80,4|0,0:3|0:0,0:0:0:0:
207,335,82427,1,4,0:3:0:0:
187,147,82576,2,0,P|147:126|116:97,1,80,8|0,0:3|0:0,0:0:0:0:
280,274,82875,2,0,P|296:326|303:368,1,80,8|4,0:0|0:3,0:0:0:0:
277,115,83173,2,0,P|303:81|333:47,1,80,4|0,0:3|0:0,0:0:0:0:
189,242,83472,5,4,1:0:0:0:
158,267,83546,1,0,0:0:0:0:
118,274,83621,1,2,0:0:0:0:
78,267,83695,1,0,0:0:0:0:
47,240,83770,1,8,1:0:0:0:
32,202,83845,1,0,0:0:0:0:
36,162,83919,1,2,0:0:0:0:
56,127,83994,1,0,0:0:0:0:
91,108,84069,1,0,1:0:0:0:
130,111,84143,1,0,0:0:0:0:
162,135,84218,1,2,0:0:0:0:
198,149,84292,1,0,0:0:0:0:
237,144,84367,2,0,L|262:95,3,40,8|2|2|2,1:0|0:0|0:0|0:0,0:0:0:0:
278,74,84666,5,4,1:2:0:0:
314,58,84740,1,0,0:0:0:0:
353,65,84815,1,2,1:2:0:0:
382,91,84889,1,2,0:0:0:0:
389,130,84964,1,8,1:0:0:0:
371,166,85039,1,0,0:0:0:0:
336,185,85113,1,2,1:2:0:0:
307,213,85188,1,0,0:0:0:0:
298,252,85263,1,8,1:0:0:0:
305,290,85337,1,0,0:0:0:0:
329,322,85412,1,2,1:2:0:0:
365,338,85486,1,2,0:0:0:0:
405,340,85561,1,8,1:0:0:0:
442,325,85636,1,0,0:0:0:0:
460,290,85710,1,2,1:2:0:0:
463,249,85785,1,0,0:0:0:0:
447,211,85856,5,4,1:0:0:0:
38,161,86154,1,0,0:0:0:0:
38,161,86303,2,0,L|53:236,1,70.4000021484376,0|8,1:0|0:1,0:0:0:0:
95,82,86602,2,0,L|184:79,1,70.4000021484376,0|0,0:0|1:0,0:0:0:0:
379,90,86900,6,0,P|350:120|249:139,1,140.800004296875,0|8,1:0|0:1,0:0:0:0:
177,180,87348,2,0,L|166:252,1,70.4000021484376,0|0,0:0|1:0,0:0:0:0:
97,309,87647,1,8,0:1:0:0:
319,309,87945,1,2,0:0:0:0:
319,309,88094,1,2,0:0:0:0:
408,320,88244,6,0,P|426:270|408:168,1,140.800004296875,0|0,1:0|0:0,0:0:0:0:
328,158,88691,1,0,1:0:0:0:
245,117,88841,2,0,P|236:75|252:26,2,70.4000021484376,8|0|0,0:1|0:0|0:0,0:0:0:0:
158,154,89288,6,2,P|125:124|17:120,1,140.800004296875,4|8,1:2|0:1,0:0:0:0:
65,322,89736,2,0,P|105:318|138:300,1,70.4000021484376,0|0,0:0|1:0,0:0:0:0:
235,203,90035,2,2,P|225:242|229:289,1,70.4000021484376,12|8,0:2|0:1,0:0:0:0:
429,314,90333,2,0,P|439:275|435:228,1,70.4000021484376,0|8,0:0|0:1,0:0:0:0:
352,104,90632,6,0,P|340:154|334:258,1,140.800004296875,4|0,1:2|0:0,0:0:0:0:
335,334,91079,1,0,1:0:0:0:
252,292,91229,2,0,P|205:298|161:313,1,70.4000021484376,8|0,0:1|0:0,0:0:0:0:
106,345,91527,1,0,1:0:0:0:
22,169,91676,6,0,P|64:170|145:236,1,140.800004296875,0|8,1:0|0:1,0:0:0:0:
156,105,92124,2,0,P|146:54|161:12,1,70.4000021484376,0|0,0:0|1:0,0:0:0:0:
297,8,92423,2,0,P|285:50|253:81,1,70.4000021484376,8|0,0:1|0:0,0:0:0:0:
344,146,92721,2,0,P|387:139|439:152,1,70.4000021484376,2|2,0:0|0:0,0:0:0:0:
486,219,93020,5,0,1:0:0:0:
486,219,93169,2,0,L|477:317,1,70.4000021484376,8|0,0:1|0:0,0:0:0:0:
396,365,93467,1,0,1:0:0:0:
396,365,93617,2,0,L|405:267,1,70.4000021484376,8|0,0:1|0:0,0:0:0:0:
327,242,93915,1,0,1:0:0:0:
327,242,94064,6,0,P|274:268|187:262,1,140.800004296875,4|8,1:2|0:1,0:0:0:0:
133,195,94512,1,0,0:0:0:0:
143,104,94661,1,0,1:0:0:0:
217,157,94811,1,8,0:1:0:0:
48,218,94960,5,0,1:0:0:0:
0,141,95109,1,2,1:2:0:0:
56,66,95258,1,2,1:2:0:0:
77,143,95408,6,0,L|100:294,1,140.800004296875,4|0,0:0|0:0,0:0:0:0:
211,312,95856,2,0,L|192:217,1,70.4000021484376
251,88,96154,2,0,L|271:177,1,70.4000021484376
374,232,96453,1,0,0:0:0:0:
370,219,96503,1,0,0:0:0:0:
370,205,96553,1,0,0:0:0:0:
372,192,96602,6,0,P|422:174|493:190,1,92.0000017547608
437,322,96900,1,0,0:2:0:0:
437,322,97497,2,0,L|520:310,1,70.4000021484376,0|0,2:0|2:0,0:0:0:0:
354,367,97788,5,0,1:0:0:0:
283,300,97937,2,0,P|238:268|134:255,1,140.800004296875,8|0,0:1|1:0,0:0:0:0:
26,334,98386,2,0,P|68:306|86:279,1,70.4000021484376,8|0,0:1|0:0,0:0:0:0:
44,205,98685,1,0,1:0:0:0:
129,170,98835,6,0,P|134:110|213:37,1,140.800004296875,4|8,1:2|0:1,0:0:0:0:
391,220,99284,2,0,P|354:247|306:275,1,70.4000021484376,4|0,0:2|1:0,0:0:0:0:
311,77,99583,2,0,P|353:95|401:122,1,70.4000021484376,8|0,0:1|1:0,0:0:0:0:
230,217,99882,2,0,P|224:171|223:115,1,70.4000021484376,4|8,0:2|0:1,0:0:0:0:
311,168,100182,5,4,1:0:0:0:
112,229,100481,1,0,0:0:0:0:
112,229,100630,2,0,L|124:305,1,70.4000021484376,0|8,1:0|0:1,0:0:0:0:
222,358,100930,2,0,L|210:282,1,70.4000021484376,0|0,0:0|1:0,0:0:0:0:
211,288,101229,6,0,P|276:280|360:288,1,140.800004296875,0|8,1:0|0:1,0:0:0:0:
441,300,101678,1,0,1:0:0:0:
455,209,101827,1,0,1:0:0:0:
343,99,101977,1,8,0:1:0:0:
357,190,102126,1,0,0:0:0:0:
264,161,102276,2,0,P|223:152|170:160,1,70.4000021484376,0|8,0:0|0:1,0:0:0:0:
75,222,102576,6,0,P|123:233|217:232,1,140.800004296875,4|0,1:0|0:0,0:0:0:0:
325,359,103024,2,0,P|312:315|312:277,1,70.4000021484376,0|8,1:0|0:1,0:0:0:0:
357,190,103324,1,0,0:0:0:0:
456,209,103473,2,0,P|469:253|469:291,1,70.4000021484376,0|0,0:0|1:0,0:0:0:0:
357,190,103773,6,0,P|347:129|354:72,1,93.8666695312501
387,98,104072,2,0,L|446:87,2,46.933334765625
226,111,104371,1,0,0:0:0:0:
202,117,104446,1,0,0:0:0:0:
178,120,104521,1,0,0:0:0:0:
154,121,104595,1,0,0:0:0:0:
129,119,104670,1,0,0:0:0:0:
105,115,104745,1,0,0:0:0:0:
81,108,104820,1,0,0:0:0:0:
58,98,104895,1,0,0:0:0:0:
36,86,104965,6,0,P|16:145|39:225,1,120.000004577637,4|0,0:0|2:0,0:0:0:0:
118,249,105410,2,0,L|257:236,1,120.000004577637
280,363,105856,6,0,P|306:313|454:252,1,210.000008010865,12|0,0:0|0:0,0:0:0:0:
439,250,106450,1,0,0:0:0:0:
387,178,106598,1,0,0:0:0:0:
384,87,106747,1,0,0:0:0:0:
447,23,106895,5,0,0:0:0:0:
476,124,107044,1,0,0:0:0:0:
387,178,107192,1,0,0:0:0:0:
301,110,107341,6,0,P|253:99|162:111,1,120.000004577637,4|0,0:0|2:0,0:0:0:0:
112,150,107786,2,0,L|130:289,1,120.000004577637
215,315,108232,6,0,B|305:300|308:342|406:317,1,180.000006866455,12|0,0:0|0:0,0:0:0:0:
463,232,108826,2,0,L|486:173,2,40.000001525879
348,102,109123,2,0,L|368:147,2,40.000001525879
201,208,109420,2,0,L|244:189,2,40.000001525879
126,311,109717,5,0,0:0:0:0:
126,311,109791,1,0,0:0:0:0:
112,219,109940,1,0,0:0:0:0:
112,219,110014,1,0,0:0:0:0:
201,208,110163,2,0,P|208:164|185:56,1,140.800004296875
191,70,110534,1,0,0:0:0:0:
191,70,110608,6,0,B|238:53|285:46|285:46|326:56|376:79,1,180.000006866455,4|0,0:0|0:0,0:0:0:0:
394,230,111202,2,0,P|390:278|380:323,1,80.0000030517579
302,248,111499,2,0,P|297:203|301:161,1,80.0000030517579
202,208,111796,2,0,P|206:266|195:343,1,120.000004577637,0|4,0:0|0:0,0:0:0:0:
0,280,112242,6,0,P|43:283|138:267,1,120.000004577637,8|0,0:0|0:0,0:0:0:0:
202,208,112687,1,8,0:0:0:0:
115,172,112836,6,0,P|109:127|118:32,2,120.000004577637,0|0|8,0:0|0:0|0:0,0:0:0:0:
202,208,113578,1,8,0:0:0:0:
290,188,113727,1,8,0:0:0:0:
352,123,113875,1,8,0:0:0:0:
438,97,114024,1,8,0:0:0:0:
507,153,114172,2,0,L|507:253,1,80,0|2,0:0|2:0,0:0:0:0:
392,325,114469,5,4,0:0:0:0:
311,263,114618,1,2,0:2:0:0:
392,325,114766,1,8,0:0:0:0:
305,362,114915,1,2,0:2:0:0:
92,246,115212,5,2,0:2:0:0:
47,131,115361,1,8,0:0:0:0:
173,93,115509,1,2,0:2:0:0:
92,246,115658,5,4,0:2:0:0:
133,169,115806,1,0,0:0:0:0:
209,209,115955,1,12,0:2:0:0:
404,185,116252,5,0,0:0:0:0:
432,100,116400,1,2,0:2:0:0:
404,185,116549,1,8,0:0:0:0:
346,119,116697,1,2,0:2:0:0:
404,185,116846,6,0,P|412:232|402:276,1,80
325,317,117143,5,10,0:2:0:0:
237,337,117291,1,0,0:0:0:0:
162,198,117440,5,2,0:2:0:0:
250,218,117588,1,0,0:0:0:0:
131,292,117737,5,10,0:2:0:0:
43,312,117885,1,0,0:0:0:0:
70,224,118034,6,0,P|68:178|73:130,1,80,4|0,0:2|0:0,0:0:0:0:
218,132,118331,1,12,0:2:0:0:
218,132,118628,5,0,0:0:0:0:
319,114,118776,1,0,0:0:0:0:
303,17,118925,1,10,0:2:0:0:
200,34,119073,1,2,0:2:0:0:
124,100,119222,6,0,L|141:240,1,120.000004577637,4|0,0:0|0:0,0:0:0:0:
138,219,119667,1,0,0:0:0:0:
236,250,119816,2,0,L|218:132,1,120.000004577637,8|0,0:0|0:0,0:0:0:0:
218,132,120262,1,0,0:0:0:0:
390,54,120410,6,0,L|443:34,2,40.000001525879,2|0|0,2:0|2:0|0:0,0:0:0:0:
426,135,120707,2,0,L|480:144,2,40.000001525879,2|0|0,0:0|0:0|0:0,0:0:0:0:
415,222,121004,2,0,L|452:252,2,40.000001525879,10|0|0,1:2|0:0|0:0,0:0:0:0:
373,298,121301,2,0,L|390:342,2,40.000001525879,2|0|0,0:0|0:0|0:0,0:0:0:0:
138,219,121598,5,0,0:0:0:0:
138,219,121746,2,0,L|124:100,1,120.000004577637
37,146,122192,2,0,L|1:163,2,40.000001525879,8|0|0,0:0|0:0|0:0,0:0:0:0:
47,58,122489,2,0,L|7:55,2,40.000001525879
185,41,122786,6,0,L|238:21,2,40.000001525879,2|0|0,0:2|0:0|0:0,0:0:0:0:
221,122,123083,2,0,L|275:131,2,40.000001525879,2|0|0,0:2|0:0|0:0,0:0:0:0:
239,231,123380,2,2,P|281:218|477:237,1,240.000009155274,2|0,0:2|2:0,0:0:0:0:
256,192,132303,12,4,133493,0:3:0:0:
56,76,134094,5,8,0:0:0:0:
56,76,134395,2,0,P|42:136|62:237,1,160,4|4,0:3|0:3,0:0:0:0:
160,221,135298,2,0,B|238:208|246:249|329:226,1,160,8|4,0:0|0:3,0:0:0:0:
357,149,136201,6,0,P|339:208|356:306,1,160,4|0,0:3|2:0,0:0:0:0:
486,235,137103,2,0,L|503:69,2,160,4|4|4,0:3|0:3|0:3,0:0:0:0:
377,333,138608,6,0,B|320:323|320:323|295:295|295:295|226:284,2,160,4|4|4,0:3|0:3|0:3,0:0:0:0:
370,236,140112,2,0,P|363:177|435:95,1,160,8|0,0:0|2:0,0:0:0:0:
69,154,141918,6,0,L|78:226,7,40
48,264,142503,5,0,0:0:0:0:
87,270,142576,1,0,0:0:0:0:
124,255,142649,1,0,0:0:0:0:
146,222,142722,1,0,0:0:0:0:
162,184,142796,1,0,0:0:0:0:
193,159,142869,1,0,0:0:0:0:
232,151,142942,1,0,0:0:0:0:
271,159,143015,1,0,0:0:0:0:
306,178,143088,6,2,P|322:235|310:362,1,184.000003509522,4|12,0:0|0:2,0:0:0:0:
73,182,143527,2,2,P|127:174|170:186,1,92.0000017547608,0|0,0:0|0:0,0:0:0:0:
306,178,143820,1,0,0:0:0:0:
213,311,143966,2,2,P|159:319|116:307,1,92.0000017547608,8|2,0:0|0:0,0:0:0:0:
256,74,144259,6,0,B|348:43|354:106|459:65,2,184.000003509522,2|12|2,0:0|0:2|0:0,0:0:0:0:
160,51,144991,1,8,0:0:0:0:
285,264,145137,2,2,P|305:223|306:178,1,92.0000017547608,10|0,0:0|0:0,0:0:0:0:
0,145,145430,6,2,P|-8:204|79:309,1,184.000003509522,4|12,0:0|0:2,0:0:0:0:
178,322,145869,1,2,0:0:0:0:
181,124,146015,2,2,P|127:120|67:159,1,92.0000017547608,0|2,0:0|0:0,0:0:0:0:
318,234,146308,6,2,P|386:234|467:140,1,184.000003509522,8|2,0:0|0:0,0:0:0:0:
500,30,146747,1,0,0:0:0:0:
383,6,146893,1,12,0:2:0:0:
355,122,147039,1,0,0:0:0:0:
355,122,147113,1,0,0:0:0:0:
355,122,147186,1,2,0:0:0:0:
180,124,147332,1,10,0:0:0:0:
305,49,147478,1,8,0:0:0:0:
318,234,147625,1,10,0:0:0:0:
180,124,147771,6,0,P|170:65|197:10,1,92.0000017547608,6|0,0:0|0:0,0:0:0:0:
355,122,148064,2,2,P|374:191|329:313,1,184.000003509522,12|0,0:2|0:0,0:0:0:0:
470,305,148503,1,0,0:0:0:0:
226,252,148649,2,2,L|114:275,1,92.0000017547608,8|0,0:0|0:0,0:0:0:0:
9,67,148942,6,0,L|121:90,1,92.0000017547608,6|0,0:0|0:0,0:0:0:0:
191,41,149235,2,2,P|140:71|98:209,1,184.000003509522,8|2,0:0|0:0,0:0:0:0:
357,360,149674,1,8,0:0:0:0:
357,360,149747,1,0,0:0:0:0:
357,360,149820,2,0,L|374:261,1,92.0000017547608,8|0,0:0|0:0,0:0:0:0:
264,35,150113,6,2,L|281:134,1,92.0000017547608,6|0,0:0|0:0,0:0:0:0:
123,191,150405,2,2,L|140:92,1,92.0000017547608,12|2,0:2|0:0,0:0:0:0:
211,283,150698,2,2,L|194:382,1,92.0000017547608,14|0,0:0|0:0,0:0:0:0:
19,345,150991,2,2,L|2:246,1,92.0000017547608,12|2,0:2|0:0,0:0:0:0:
33,69,151283,5,6,0:0:0:0:
64,49,151356,1,0,0:0:0:0:
100,45,151429,1,0,0:0:0:0:
133,60,151503,1,0,0:0:0:0:
155,88,151576,1,0,0:0:0:0:
160,124,151649,1,0,0:0:0:0:
148,159,151723,1,0,0:0:0:0:
129,190,151796,1,0,0:0:0:0:
132,226,151869,1,0,0:0:0:0:
155,254,151943,1,0,0:0:0:0:
191,258,152016,1,0,0:0:0:0:
219,234,152089,1,0,0:0:0:0:
221,196,152163,1,0,0:0:0:0:
238,163,152236,1,0,0:0:0:0:
268,142,152309,1,0,0:0:0:0:
304,137,152383,1,0,0:0:0:0:
337,151,152456,6,2,L|436:155,1,92.0000017547608,4|0,0:0|0:0,0:0:0:0:
512,34,152749,2,2,L|413:38,1,92.0000017547608,8|2,0:0|0:0,0:0:0:0:
391,39,152970,1,0,0:0:0:0:
363,40,153043,1,4,0:2:0:0:
303,262,153190,2,2,L|402:258,1,92.0000017547608,0|10,0:0|0:0,0:0:0:0:
426,353,153483,1,2,0:0:0:0:
223,346,153630,6,0,P|176:334|117:342,1,92.0000017547608,2|0,0:0|0:0,0:0:0:0:
0,208,153923,2,2,P|47:220|106:212,1,92.0000017547608,8|2,0:0|0:0,0:0:0:0:
115,206,154143,1,0,0:0:0:0:
139,194,154216,1,4,0:2:0:0:
286,130,154363,1,0,0:0:0:0:
176,20,154510,1,10,0:0:0:0:
233,207,154657,1,0,0:0:0:0:
408,129,154803,6,2,P|414:180|410:226,1,92.0000017547608,2|0,0:0|0:0,0:0:0:0:
354,329,155097,1,8,0:0:0:0:
179,112,155243,1,2,0:0:0:0:
179,112,155317,1,0,0:0:0:0:
179,112,155390,2,2,P|173:61|177:15,1,92.0000017547608,4|2,0:2|0:0,0:0:0:0:
233,207,155683,2,2,P|182:220|135:220,1,92.0000017547608,12|0,0:2|0:0,0:0:0:0:
408,129,155977,6,2,P|449:169|438:305,1,184.000003509522,4|4,0:0|0:2,0:0:0:0:
183,311,156422,1,0,0:0:0:0:
183,311,156496,1,0,0:0:0:0:
183,311,156570,1,6,0:0:0:0:
125,213,156718,1,0,0:0:0:0:
179,112,156867,1,4,0:2:0:0:
233,208,157015,1,0,0:0:0:0:
287,111,157163,5,4,0:3:0:0:
374,67,157312,1,0,0:0:0:0:
374,67,157386,1,0,0:0:0:0:
374,67,157460,1,8,0:3:0:0:
367,165,157609,1,0,0:0:0:0:
367,165,157683,1,0,0:0:0:0:
367,165,157757,1,8,0:3:0:0:
287,111,157905,6,0,P|235:103|198:81,1,80,4|4,0:3|0:3,0:0:0:0:
367,165,158202,2,0,P|395:223|419:333,1,160,4|8,0:3|0:3,0:0:0:0:
374,67,158647,2,0,P|407:28|438:5,1,80,4|0,0:3|0:0,0:0:0:0:
283,206,158944,5,8,0:3:0:0:
196,118,159092,1,0,0:0:0:0:
196,118,159166,1,4,0:3:0:0:
103,212,159315,1,0,0:0:0:0:
103,212,159389,1,4,0:3:0:0:
192,297,159538,5,4,1:0:0:0:
225,322,159613,1,0,0:0:0:0:
265,325,159686,1,2,0:2:0:0:
302,308,159761,1,0,0:0:0:0:
341,304,159835,1,8,1:0:0:0:
377,319,159909,1,0,0:0:0:0:
402,349,159983,1,2,0:2:0:0:
438,364,160057,1,0,0:0:0:0:
476,353,160131,1,0,1:0:0:0:
499,319,160206,1,0,0:0:0:0:
494,279,160280,1,2,1:2:0:0:
462,254,160354,1,0,0:0:0:0:
423,244,160428,1,8,1:0:0:0:
394,215,160502,1,0,0:0:0:0:
377,178,160577,1,2,1:2:0:0:
375,138,160651,1,0,0:0:0:0:
397,104,160725,5,4,1:2:0:0:
357,110,160799,1,0,0:0:0:0:
317,102,160873,1,2,1:2:0:0:
283,80,160947,1,2,0:2:0:0:
262,44,161022,1,12,1:2:0:0:
225,28,161096,1,0,0:0:0:0:
192,49,161169,1,2,1:2:0:0:
180,87,161244,1,0,0:0:0:0:
200,120,161318,1,12,1:2:0:0:
232,142,161392,1,0,0:0:0:0:
252,176,161466,1,10,1:2:0:0:
246,215,161540,1,2,0:2:0:0:
223,247,161614,1,12,1:2:0:0:
184,260,161689,1,0,0:0:0:0:
144,258,161763,1,10,1:2:0:0:
110,236,161837,1,0,0:0:0:0:
94,199,161911,6,0,P|91:122|98:35,2,160,4|8|0,0:0|0:0|0:0,0:0:0:0:
246,215,162657,2,0,L|347:195,1,80,2|8,0:2|0:0,0:0:0:0:
493,366,162955,6,0,P|475:322|359:265,1,160,2|0,0:2|0:0,0:0:0:0:
382,265,163403,1,8,0:0:0:0:
364,17,163702,2,0,P|372:75|365:112,1,80,0|2,0:0|0:2,0:0:0:0:
246,215,164000,2,0,P|238:157|245:120,1,80,8|0,0:0|0:0,0:0:0:0:
476,129,164299,5,2,0:2:0:0:
148,88,164597,1,8,0:0:0:0:
148,88,164896,1,0,0:0:0:0:
63,50,165045,1,2,0:2:0:0:
0,122,165194,1,8,0:0:0:0:
89,166,165343,6,2,B|106:206|116:242|116:242|116:290|101:347,1,160,2|0,0:2|0:0,0:0:0:0:
226,363,165791,2,0,P|218:309|219:264,1,80,8|0,0:0|0:0,0:0:0:0:
276,129,166090,2,2,P|278:188|270:230,1,80,2|8,0:2|0:0,0:0:0:0:
89,166,166388,2,0,P|137:160|174:161,1,80,8|0,0:0|0:0,0:0:0:0:
355,87,166687,6,2,P|299:99|197:32,2,160,2|10|2,0:2|0:0|0:2,0:0:0:0:
447,62,167433,1,2,0:2:0:0:
422,154,167582,1,8,0:0:0:0:
511,140,167731,6,0,P|511:183|505:229,1,80,2|0,0:2|0:0,0:0:0:0:
342,314,168030,2,0,P|342:271|348:225,1,80,0|8,0:0|0:0,0:0:0:0:
59,63,168478,1,2,0:2:0:0:
97,150,168627,1,2,0:2:0:0:
152,71,168776,2,0,L|237:62,1,80,8|0,0:0|0:0,0:0:0:0:
51,328,169075,6,0,P|18:273|23:166,2,160,2|8|0,0:2|0:0|0:0,0:0:0:0:
180,284,169821,2,0,L|268:256,1,80,2|8,0:2|0:0,0:0:0:0:
245,164,170119,6,0,P|187:161|100:239,1,160,2|0,0:2|0:0,0:0:0:0:
343,170,170567,2,0,P|337:129|300:89,1,80,8|0,0:0|0:0,0:0:0:0:
348,272,170866,1,0,0:0:0:0:
386,264,170940,1,0,0:0:0:0:
418,240,171015,1,0,0:0:0:0:
439,206,171090,1,0,0:0:0:0:
448,167,171164,2,0,L|444:118,3,40
368,12,171463,6,2,P|359:54|342:182,1,160,4|8,0:0|0:0,0:0:0:0:
234,242,171911,1,0,0:0:0:0:
411,356,172060,2,2,P|417:306|418:269,1,80,0|2,0:0|0:2,0:0:0:0:
311,346,172358,1,8,0:0:0:0:
259,146,172508,6,2,B|180:131|180:180|88:161,1,160,2|0,0:2|0:0,0:0:0:0:
122,251,172955,2,0,P|130:299|121:348,1,80,8|2,0:0|0:2,0:0:0:0:
38,379,173254,2,0,P|30:331|39:282,1,80,0|2,0:0|0:2,0:0:0:0:
0,196,173552,1,10,0:2:0:0:
348,212,173702,1,2,0:2:0:0:
379,215,173776,1,2,0:2:0:0:
410,210,173851,6,0,L|423:113,1,80
219,64,174149,2,0,L|206:161,1,80,8|0,0:0|0:0,0:0:0:0:
306,218,174448,2,2,L|328:45,1,160,0|8,0:0|0:0,0:0:0:0:
219,64,174896,6,0,P|165:73|62:24,1,160,2|0,0:2|0:0,0:0:0:0:
70,33,175343,1,8,0:0:0:0:
40,280,175642,1,2,0:2:0:0:
77,191,175791,1,8,0:0:0:0:
166,226,175940,2,0,P|174:278|169:321,1,80,8|0,0:0|0:0,0:0:0:0:
260,323,176239,6,2,B|343:298|345:348|428:320,2,160,2|8|0,0:2|0:0|0:0,0:0:0:0:
381,237,176985,2,0,P|394:192|386:145,1,80,0|8,0:0|0:0,0:0:0:0:
309,113,177284,6,2,P|359:124|473:83,1,160,2|0,0:2|0:0,0:0:0:0:
204,119,177731,2,2,P|154:108|40:149,1,160,8|2,0:0|0:0,0:0:0:0:
262,204,178179,2,0,P|269:245|262:296,1,80,2|8,0:2|0:0,0:0:0:0:
90,352,178478,1,2,0:2:0:0:
58,356,178552,1,2,0:2:0:0:
27,346,178627,6,2,L|19:231,1,80,2|0,0:0|0:0,0:0:0:0:
68,157,178925,1,10,0:2:0:0:
68,157,179075,1,0,0:0:0:0:
162,275,179224,1,10,0:2:0:0:
162,275,179373,1,0,0:0:0:0:
204,119,179522,1,10,0:2:0:0:
204,119,179672,1,0,0:0:0:0:
461,162,179821,5,6,0:2:0:0:
461,162,179896,1,0,0:0:0:0:
461,162,179970,1,0,0:0:0:0:
461,162,180045,1,0,0:0:0:0:
461,162,180119,1,6,0:2:0:0:
461,162,180194,1,0,0:0:0:0:
461,162,180269,1,0,0:0:0:0:
461,162,180343,1,0,0:0:0:0:
461,162,180418,1,6,0:2:0:0:
461,162,180493,1,0,0:0:0:0:
461,162,180567,1,0,0:0:0:0:
461,162,180642,1,0,0:0:0:0:
461,162,180716,1,6,0:2:0:0:
461,162,180791,1,0,0:0:0:0:
461,162,180866,1,0,0:0:0:0:
461,162,180940,1,0,0:0:0:0:
461,162,181015,6,0,P|455:206|449:249,1,70.4000021484376
315,307,181313,2,0,P|318:274|327:220,1,70.4000021484376,2|0,0:0|0:0,0:0:0:0:
398,22,181612,2,0,P|387:83|378:170,1,140.800004296875,2|0,0:0|0:0,0:0:0:0:
243,204,182060,6,0,P|248:153|250:119,1,70.4000021484376,2|0,0:0|0:0,0:0:0:0:
136,152,182358,2,0,P|130:199|121:309,1,140.800004296875,2|0,0:0|0:0,0:0:0:0:
212,352,182806,2,0,P|219:310|221:274,1,70.4000021484376,2|0,0:0|0:0,0:0:0:0:
41,203,183105,1,2,0:2:0:0:
