osu file format v13

[General]
AudioFilename: um.mp3
AudioLeadIn: 0
PreviewTime: 65624
Countdown: 0
SampleSet: Soft
StackLeniency: 0.7
Mode: 0
LetterboxInBreaks: 1
WidescreenStoryboard: 0

[Editor]
DistanceSpacing: 1.2
BeatDivisor: 4
GridSize: 4
TimelineZoom: 1.5

[Metadata]
Title:Shuuen no Shiori
TitleUnicode:終焉ノ栞
Artist:150P
ArtistUnicode:150P
Creator:Yasora
Version:Insane
Source:
Tags:IA vocaloid3 Bookmark of Demise Shuuen -Re:write- Suzumu Betsuto
BeatmapID:446237
BeatmapSetID:186644

[Difficulty]
HPDrainRate:7
CircleSize:4
OverallDifficulty:7
ApproachRate:8.5
SliderMultiplier:1.6
SliderTickRate:1

[Events]
//Background and Video events
0,0,"1407466.jpg",0,0
Video,-200,"asd.avi"
//Break Periods
2,158196,166806
//Storyboard Layer 0 (Background)
//Storyboard Layer 1 (Fail)
//Storyboard Layer 2 (Pass)
//Storyboard Layer 3 (Foreground)
//Storyboard Sound Samples
//Background Colour Transformations
3,100,163,162,255

[TimingPoints]
1767.66333548011,285.714285714286,4,1,1,60,1,0
10767,-100,4,1,1,70,0,0
19196,-100,4,2,2,70,0,0
19910,-100,4,1,1,70,0,0
47481,-100,4,2,1,80,0,0
56624,-100,4,1,1,70,0,0
65767,-100,4,1,2,80,0,1
84053,-100,4,1,1,70,0,0
111481,-100,4,2,1,80,0,0
120624,-100,4,1,1,70,0,0
130910,-100,4,1,2,80,0,1
149196,-100,4,1,1,70,0,0
167481,-100,4,2,2,60,0,0
185767,-100,4,1,2,80,0,1
204053,-100,4,1,1,70,0,0
222339,-100,4,2,1,40,0,0

[Colours]
Combo1 : 0,128,255
Combo2 : 255,128,128
Combo3 : 128,0,255
Combo4 : 128,255,0

[HitObjects]
184,308,1767,6,0,P|256:344|324:304,1,160,4|0,0:0|0:0,0:0:0:0:
384,100,2339,1,0,0:0:0:0:
320,176,2481,1,0,0:0:0:0:
320,176,2767,6,0,L|132:176,1,160,2|0,0:0|0:0,0:0:0:0:
96,104,3196,1,0,0:0:0:0:
96,104,3481,1,0,0:0:0:0:
68,196,3624,2,0,P|68:252|72:284,1,80
208,336,3910,6,0,P|216:264|208:168,1,160,2|0,0:0|0:0,0:0:0:0:
264,96,4339,2,0,P|320:128|412:88,1,160,0|0,0:0|0:0,0:0:0:0:
480,36,4767,1,0,0:0:0:0:
480,36,5053,1,2,0:0:0:0:
460,228,5339,6,0,L|464:176,2,40,0|0|0,0:0|0:0|0:0,0:0:0:0:
448,328,5624,2,0,P|412:316|376:280,1,80
323,207,5910,2,0,P|284:208|244:216,1,80
232,312,6196,6,0,P|172:284|152:188,1,160,4|0,0:0|0:0,0:0:0:0:
128,100,6624,1,0,0:0:0:0:
128,100,6910,2,0,P|176:108|276:48,1,160
356,96,7339,6,0,P|388:180|360:248,1,160,2|0,0:0|0:0,0:0:0:0:
280,288,7767,1,0,0:0:0:0:
280,288,8053,1,0,0:0:0:0:
207,228,8196,2,0,P|168:233|133:214,1,80
48,196,8481,6,0,P|92:136|184:144,1,160,2|0,0:0|0:0,0:0:0:0:
256,160,8910,1,0,0:0:0:0:
424,304,9196,2,0,B|404:276|436:252|416:212,1,80
380,148,9481,1,0,0:0:0:0:
332,224,9624,6,0,P|292:264|188:268,1,160,2|0,0:0|0:0,0:0:0:0:
100,248,10053,1,0,0:0:0:0:
100,248,10124,1,0,0:0:0:0:
100,248,10196,1,0,0:0:0:0:
156,168,10339,2,0,P|124:152|72:156,2,80,0|0|0,0:0|0:0|0:0,0:0:0:0:
244,128,10767,6,0,B|276:140|276:140|344:104|400:152,1,160,4|0,0:0|0:0,0:0:0:0:
332,224,11196,2,0,P|296:300|212:352,1,160,2|0,0:0|0:0,0:0:0:0:
132,324,11624,1,0,0:0:0:0:
60,172,11767,1,2,0:0:0:0:
100,248,11910,6,0,P|176:228|232:160,1,160
208,72,12339,2,0,P|264:80|376:56,1,160,2|0,0:0|0:0,0:0:0:0:
444,116,12767,1,0,0:0:0:0:
420,288,12910,1,2,0:0:0:0:
432,204,13053,6,0,P|376:200|260:260,1,160,0|0,0:0|0:0,0:0:0:0:
204,296,13481,1,2,0:0:0:0:
116,260,13624,2,0,P|112:216|112:168,2,80,0|2|0,0:0|0:0|0:0,0:0:0:0:
204,296,14053,1,2,0:0:0:0:
192,200,14196,6,0,P|200:144|264:56,1,160
352,68,14624,1,2,0:0:0:0:
352,68,14910,1,0,0:0:0:0:
384,160,15053,1,0,0:0:0:0:
416,252,15196,1,2,0:0:0:0:
320,232,15339,6,0,P|284:272|176:292,1,160,0|0,0:0|0:0,0:0:0:0:
112,232,15767,2,0,P|112:184|100:136,2,80,2|0|0,0:0|0:0|0:0,0:0:0:0:
72,320,16196,1,0,0:0:0:0:
112,232,16339,1,2,0:0:0:0:
52,80,16481,6,0,P|116:60|220:76,1,160
276,136,16910,1,2,0:0:0:0:
276,136,17196,1,0,0:0:0:0:
368,156,17339,1,0,0:0:0:0:
385,62,17481,1,2,0:0:0:0:
292,40,17624,6,0,P|220:52|176:128,1,160
212,212,18053,2,0,P|220:256|208:304,1,80,2|0,0:0|0:0,0:0:0:0:
316,352,18339,2,0,P|308:304|324:264,1,80
304,180,18624,1,2,0:0:0:0:
212,212,18767,2,0,P|168:232|128:260,2,80,0|0|0,0:0|0:0|0:0,0:0:0:0:
318,275,19196,6,0,P|352:292|396:304,2,80,2|0|0,0:0|0:0|0:0,0:0:0:0:
212,212,19624,1,0,0:0:0:0:
76,68,19910,6,0,P|140:60|232:112,1,160,4|0,0:0|0:0,0:0:0:0:
312,68,20339,2,0,P|340:100|396:116,1,80,8|0,0:0|0:0,0:0:0:0:
464,84,20624,2,0,P|468:132|456:168,1,80
400,240,20910,1,8,0:0:0:0:
292,356,21053,6,0,P|272:272|312:204,1,160
328,128,21481,1,8,0:0:0:0:
244,140,21624,2,0,L|192:216,1,80
136,280,21910,2,0,L|88:188,1,80,0|8,0:0|0:0,0:0:0:0:
123,60,22196,6,0,P|167:124|246:140,1,160,0|0,0:0|0:0,0:0:0:0:
312,72,22624,2,0,P|360:56|400:72,1,80,8|0,0:0|0:0,0:0:0:0:
476,156,22910,2,0,P|424:164|400:148,1,80
386,63,23196,1,8,0:0:0:0:
476,156,23339,6,0,P|460:224|416:308,1,160
336,256,23767,2,0,P|284:260|240:284,1,80,8|0,0:0|0:0,0:0:0:0:
112,332,24053,2,0,P|148:340|204:328,1,80
72,244,24339,1,8,0:0:0:0:
136,84,24481,6,0,B|156:132|156:212|156:212|208:196,1,160,4|0,0:0|0:0,0:0:0:0:
240,124,24910,2,0,P|276:108|320:116,1,80,8|0,0:0|0:0,0:0:0:0:
315,283,25196,2,0,P|300:247|292:207,1,80
384,184,25481,1,8,0:0:0:0:
316,284,25624,6,0,P|256:312|176:252,1,160
116,196,26053,1,8,0:0:0:0:
60,116,26196,2,0,P|108:100|140:104,1,80
224,48,26481,2,0,P|228:96|248:140,1,80,0|8,0:0|0:0,0:0:0:0:
330,95,26767,6,0,P|400:113|384:184,1,160
268,212,27196,2,0,P|228:220|180:260,1,80,8|0,0:0|0:0,0:0:0:0:
76,360,27481,2,0,P|100:332|112:272,1,80
56,212,27767,1,8,0:0:0:0:
92,124,27910,6,0,P|152:104|256:124,1,160
308,48,28339,2,0,P|360:64|396:88,1,80,8|0,0:0|0:0,0:0:0:0:
412,168,28624,2,0,P|420:188|420:220,3,40,0|0|0|0,0:0|0:0|0:0|0:0,0:0:0:0:
420,248,28910,2,0,P|412:272|404:284,3,40,0|0|0|0,0:0|0:0|0:0|0:0,0:0:0:0:
380,316,29196,6,0,P|308:340|228:288,1,160,4|8,0:0|0:0,0:0:0:0:
148,324,29624,2,0,P|164:240|236:212,1,160,2|0,0:0|0:0,0:0:0:0:
320,228,30053,1,8,0:0:0:0:
226,211,30196,1,0,0:0:0:0:
168,136,30339,6,0,L|248:116,1,80,2|0,0:0|0:0,0:0:0:0:
340,132,30624,2,0,P|336:88|308:48,2,80,8|2|2,0:0|0:0|0:0,0:0:0:0:
320,228,31053,2,0,P|360:228|400:212,2,80,0|8|0,0:0|0:0|0:0,0:0:0:0:
108,172,31481,6,0,P|104:236|144:328,1,160,2|8,0:0|0:0,0:0:0:0:
236,336,31910,2,0,P|272:308|324:300,1,80,2|2,0:0|0:0,0:0:0:0:
400,324,32196,1,0,0:0:0:0:
464,252,32339,2,0,P|464:200|452:160,1,80,8|0,0:0|0:0,0:0:0:0:
420,84,32624,6,0,P|360:64|260:96,1,160,2|8,0:0|0:0,0:0:0:0:
308,180,33053,1,0,0:0:0:0:
212,168,33196,2,0,P|140:172|84:104,1,160,2|8,0:0|0:0,0:0:0:0:
176,80,33624,1,0,0:0:0:0:
44,216,33767,6,0,L|64:320,1,80,2|2,0:0|0:0,0:0:0:0:
140,352,34053,2,0,L|152:268,1,80,8|0,0:0|0:0,0:0:0:0:
248,256,34339,1,2,0:0:0:0:
240,352,34481,1,0,0:0:0:0:
212,168,34624,2,0,P|260:160|300:176,1,80,8|0,0:0|0:0,0:0:0:0:
360,240,34910,6,0,P|388:184|348:100,1,160,2|8,0:0|0:0,0:0:0:0:
476,168,35339,2,0,P|468:236|408:324,1,160,2|0,0:0|0:0,0:0:0:0:
360,240,35767,1,8,0:0:0:0:
320,152,35910,1,0,0:0:0:0:
240,100,36053,6,0,P|160:80|72:112,1,160,2|8,0:0|0:0,0:0:0:0:
44,188,36481,2,0,P|84:200|124:188,1,80,2|2,0:0|0:0,0:0:0:0:
216,192,36767,1,0,0:0:0:0:
216,288,36910,2,0,L|248:364,1,80,8|0,0:0|0:0,0:0:0:0:
340,328,37196,6,0,P|412:320|448:240,1,160,2|8,0:0|0:0,0:0:0:0:
360,160,37624,2,0,P|355:199|359:239,1,80,2|2,0:0|0:0,0:0:0:0:
436,100,37910,2,0,L|476:124,2,40,0|0|8,0:0|0:0|0:0,0:0:0:0:
376,28,38196,1,0,0:0:0:0:
300,88,38339,6,0,P|224:64|128:80,1,160,4|8,0:0|0:0,0:0:0:0:
76,140,38767,2,0,P|60:108|48:56,2,80,2|2|0,0:0|0:0|0:0,0:0:0:0:
176,164,39196,1,8,0:0:0:0:
108,232,39339,1,0,0:0:0:0:
188,280,39481,6,0,P|240:272|344:308,1,160,2|8,0:0|0:0,0:0:0:0:
428,348,39910,2,0,P|428:304|412:248,1,80,2|2,0:0|0:0,0:0:0:0:
356,192,40196,1,0,0:0:0:0:
272,148,40339,1,8,0:0:0:0:
176,164,40481,1,0,0:0:0:0:
272,148,40624,6,0,P|240:84|152:76,1,160,2|8,0:0|0:0,0:0:0:0:
176,164,41053,2,0,P|212:228|300:240,1,160,2|0,0:0|0:0,0:0:0:0:
356,192,41481,1,8,0:0:0:0:
272,148,41624,1,0,0:0:0:0:
104,112,41767,6,0,P|92:192|156:252,1,160,2|8,0:0|0:0,0:0:0:0:
188,80,42196,2,0,P|128:28|40:56,1,160,2|0,0:0|0:0,0:0:0:0:
104,112,42624,1,8,0:0:0:0:
176,164,42767,1,0,0:0:0:0:
188,80,42910,6,0,P|232:80|284:88,1,80,2|0,0:0|0:0,0:0:0:0:
400,168,43196,2,0,P|360:168|312:160,1,80,8|2,0:0|0:0,0:0:0:0:
244,211,43481,1,2,0:0:0:0:
164,256,43624,2,0,P|148:296|156:344,1,80,0|8,0:0|0:0,0:0:0:0:
240,308,43910,1,0,0:0:0:0:
336,304,44053,6,0,P|376:296|404:264,2,80,2|0|8,0:0|0:0|0:0,0:0:0:0:
324,208,44481,1,2,0:0:0:0:
264,136,44624,2,0,P|220:124|176:136,1,80,2|0,0:0|0:0,0:0:0:0:
64,224,44910,2,0,P|104:228|140:212,1,80,8|0,0:0|0:0,0:0:0:0:
84,132,45196,6,0,P|76:64|156:36,1,160,2|8,0:0|0:0,0:0:0:0:
232,84,45624,1,2,0:0:0:0:
380,152,45767,2,0,P|320:148|268:128,1,80,2|0,0:0|0:0,0:0:0:0:
400,64,46053,2,0,P|440:56|496:60,1,80,8|0,0:0|0:0,0:0:0:0:
480,152,46339,6,0,P|480:212|472:256,1,80,2|0,0:0|0:0,0:0:0:0:
384,244,46624,2,0,P|356:272|308:292,1,80,10|0,0:0|0:0,0:0:0:0:
244,228,46910,2,0,L|168:224,3,40,2|0|0|0,0:0|0:0|0:0|0:0,0:0:0:0:
172,264,47196,2,0,L|124:272,3,40,0|0|0|0,0:0|0:0|0:0|0:0,0:0:0:0:
84,280,47481,6,0,B|40:268|40:268|56:216|56:136,1,160,4|2,0:0|0:0,0:0:0:0:
36,60,47910,2,0,P|92:52|136:52,1,80,0|2,0:0|0:0,0:0:0:0:
192,108,48196,1,0,0:0:0:0:
264,44,48339,2,0,P|312:40|368:48,1,80,2|0,0:0|0:0,0:0:0:0:
448,152,48624,6,0,P|392:156|288:140,1,160,2|2,0:0|0:0,0:0:0:0:
192,108,49053,1,0,0:0:0:0:
128,176,49196,2,0,P|132:232|136:264,1,80,2|0,0:0|0:0,0:0:0:0:
96,344,49481,2,0,P|152:344|192:336,1,80,2|0,0:0|0:0,0:0:0:0:
224,320,49696,1,0,0:0:0:0:
260,284,49767,6,0,P|296:268|404:324,1,160,4|2,0:0|0:0,0:0:0:0:
448,228,50196,2,0,L|436:144,1,80,0|2,0:0|0:0,0:0:0:0:
336,56,50481,2,0,L|352:152,1,80,0|2,0:0|0:0,0:0:0:0:
420,52,50767,2,0,P|348:52|244:84,1,160
196,144,51196,5,0,0:0:0:0:
208,240,51339,1,0,0:0:0:0:
280,180,51481,1,2,0:0:0:0:
196,144,51624,1,0,0:0:0:0:
120,200,51767,1,2,0:0:0:0:
128,296,51910,5,0,0:0:0:0:
128,296,51981,1,0,0:0:0:0:
128,296,52053,2,0,P|180:332|276:308,1,160,4|2,0:0|0:0,0:0:0:0:
344,252,52481,2,0,L|408:320,1,80,0|2,0:0|0:0,0:0:0:0:
440,204,52767,1,0,0:0:0:0:
408,108,52910,2,0,P|368:104|320:112,1,80,2|0,0:0|0:0,0:0:0:0:
240,152,53196,6,0,P|160:140|92:92,1,160,2|2,0:0|0:0,0:0:0:0:
40,188,53624,1,0,0:0:0:0:
56,280,53767,2,0,L|152:272,1,80,2|0,0:0|0:0,0:0:0:0:
216,328,54053,1,2,0:0:0:0:
288,252,54196,5,0,0:0:0:0:
288,252,54267,1,0,0:0:0:0:
288,252,54339,2,0,P|316:304|420:296,1,160,4|0,0:0|0:0,0:0:0:0:
492,260,54767,2,0,P|464:228|428:216,1,80,0|2,0:0|0:0,0:0:0:0:
344,168,55053,2,0,P|308:152|264:156,1,80,0|2,0:0|0:0,0:0:0:0:
180,116,55339,6,0,P|172:164|184:204,1,80,0|2,0:0|0:0,0:0:0:0:
168,288,55624,2,0,L|80:284,2,80,0|0|0,0:0|0:0|0:0,0:0:0:0:
256,328,56053,1,2,0:0:0:0:
256,328,56124,1,0,0:0:0:0:
256,328,56196,1,0,0:0:0:0:
320,256,56339,2,0,P|360:240|400:200,1,80,0|0,1:0|1:0,0:0:0:0:
380,96,56624,6,0,P|300:72|224:132,1,160,4|8,0:0|0:0,0:0:0:0:
184,188,57053,1,2,0:0:0:0:
96,156,57196,2,0,P|88:200|100:244,1,80,2|0,0:0|0:0,0:0:0:0:
184,265,57481,2,0,P|192:226|184:188,1,80,8|0,0:0|0:0,0:0:0:0:
124,336,57767,6,0,P|196:360|260:312,1,160,2|8,0:0|0:0,0:0:0:0:
336,260,58196,1,2,0:0:0:0:
416,308,58339,2,0,L|444:212,1,80,2|0,0:0|0:0,0:0:0:0:
396,96,58624,2,0,L|376:180,1,80,8|0,0:0|0:0,0:0:0:0:
320,36,58910,6,0,B|300:124|300:124|272:104|216:112,1,160,2|8,0:0|0:0,0:0:0:0:
136,96,59339,2,0,P|140:144|164:180,1,80,2|2,0:0|0:0,0:0:0:0:
244,204,59624,1,0,0:0:0:0:
292,284,59767,2,0,P|324:256|336:208,1,80,8|0,0:0|0:0,0:0:0:0:
244,204,60053,6,0,P|196:268|224:348,1,160,2|8,0:0|0:0,0:0:0:0:
292,284,60481,2,0,L|384:292,1,80,2|2,0:0|0:0,0:0:0:0:
456,244,60767,1,0,0:0:0:0:
400,164,60910,2,0,P|400:112|408:72,1,80,8|0,0:0|0:0,0:0:0:0:
304,116,61196,6,0,P|240:96|144:120,1,160,2|8,0:0|0:0,0:0:0:0:
48,216,61624,2,0,L|128:204,1,80,2|2,0:0|0:0,0:0:0:0:
156,296,61910,1,0,0:0:0:0:
252,284,62053,2,0,P|252:236|248:196,1,80,8|0,0:0|0:0,0:0:0:0:
156,296,62339,6,0,P|192:364|280:376,1,160,2|8,0:0|0:0,0:0:0:0:
340,316,62767,1,2,0:0:0:0:
428,352,62910,2,0,P|432:304|420:264,2,80,2|0|8,0:0|0:0|0:0,0:0:0:0:
404,184,63339,1,0,0:0:0:0:
360,104,63481,6,0,L|268:80,1,80,4|0,0:0|0:0,0:0:0:0:
196,128,63767,1,8,0:0:0:0:
84,200,63910,2,0,L|172:224,1,80,0|0,0:0|0:0,0:0:0:0:
248,240,64196,1,0,0:0:0:0:
248,240,64481,6,0,P|264:308|360:328,1,160,8|0,0:0|0:0,0:0:0:0:
420,272,64910,2,0,L|412:176,1,80,8|0,0:0|0:0,0:0:0:0:
413,192,65124,1,0,0:0:0:0:
413,192,65196,1,8,0:0:0:0:
328,92,65339,2,0,L|324:176,1,80,0|4,0:0|3:0,0:0:0:0:
192,308,65767,6,0,P|144:312|44:268,1,160,4|8,0:0|0:0,0:0:0:0:
56,172,66196,1,0,0:0:0:0:
88,80,66339,1,2,0:0:0:0:
156,148,66481,2,0,P|193:152|242:134,1,80,0|8,0:0|0:0,0:0:0:0:
332,64,66767,6,0,P|404:48|468:112,1,160,2|0,0:0|0:0,0:0:0:0:
384,212,67196,2,0,P|384:168|388:120,1,80,8|0,0:0|0:0,0:0:0:0:
468,240,67481,2,0,P|464:284|456:320,1,80,2|0,0:0|0:0,0:0:0:0:
360,336,67767,1,8,0:0:0:0:
264,252,67910,6,0,P|192:260|112:216,1,160,2|0,0:0|0:0,0:0:0:0:
56,144,68339,1,8,0:0:0:0:
100,60,68481,1,0,0:0:0:0:
184,16,68624,2,0,P|224:16|272:24,1,80,2|0,0:0|0:0,0:0:0:0:
292,116,68910,1,8,0:0:0:0:
428,100,69053,6,0,P|448:172|424:260,1,160,2|0,0:0|0:0,0:0:0:0:
376,336,69481,2,0,P|324:336|288:328,1,80,8|0,0:0|0:0,0:0:0:0:
212,284,69767,1,2,0:0:0:0:
140,220,69910,1,0,0:0:0:0:
136,124,70053,1,8,0:0:0:0:
304,52,70196,6,0,B|372:40|404:40|404:40|460:80,1,160,6|0,0:0|0:0,0:0:0:0:
440,168,70624,2,0,P|428:212|400:252,1,80,8|0,0:0|0:0,0:0:0:0:
320,256,70910,1,2,0:0:0:0:
224,236,71053,2,0,P|232:292|256:332,1,80,0|8,0:0|0:0,0:0:0:0:
320,256,71339,6,0,P|312:196|272:92,1,160,2|0,0:0|0:0,0:0:0:0:
188,64,71767,2,0,P|164:116|148:164,1,80,8|0,0:0|0:0,0:0:0:0:
124,228,72053,1,2,0:0:0:0:
60,304,72196,2,0,P|92:324|140:324,1,80,0|8,0:0|0:0,0:0:0:0:
224,236,72481,6,0,P|272:176|368:188,1,160,2|0,0:0|0:0,0:0:0:0:
440,88,72910,2,0,L|440:176,1,80,8|0,0:0|0:0,0:0:0:0:
404,260,73196,1,2,0:0:0:0:
332,324,73339,2,0,L|216:312,1,80,0|8,0:0|0:0,0:0:0:0:
116,308,73624,6,0,P|96:256|80:132,1,160,2|0,0:0|0:0,0:0:0:0:
124,68,74053,1,8,0:0:0:0:
204,124,74196,2,0,L|196:208,2,80,0|2|0,0:0|0:0|0:0,0:0:0:0:
240,32,74624,1,8,0:0:0:0:
328,84,74767,6,0,P|376:72|460:152,1,160,6|2,0:0|0:0,0:0:0:0:
400,216,75196,2,0,P|392:256|372:296,1,80,8|0,0:0|0:0,0:0:0:0:
300,232,75481,2,0,P|280:272|252:312,1,80,2|0,0:0|0:0,0:0:0:0:
164,304,75767,1,8,0:0:0:0:
80,260,75910,6,0,P|76:184|88:92,1,160,2|2,0:0|0:0,0:0:0:0:
168,48,76339,2,0,P|200:80|224:124,1,80,8|0,0:0|0:0,0:0:0:0:
300,60,76624,2,0,P|332:92|348:124,1,80,2|0,0:0|0:0,0:0:0:0:
424,184,76910,1,8,0:0:0:0:
396,276,77053,6,0,P|340:276|240:212,1,160,2|0,0:0|0:0,0:0:0:0:
176,168,77481,2,0,P|168:216|152:252,1,80,8|0,0:0|0:0,0:0:0:0:
84,180,77767,2,0,P|96:128|112:100,1,80,2|0,0:0|0:0,0:0:0:0:
204,80,78053,1,8,0:0:0:0:
300,92,78196,6,0,B|356:88|356:88|368:140|336:208,1,160,2|0,0:0|0:0,0:0:0:0:
296,272,78624,1,8,0:0:0:0:
208,308,78767,1,0,0:0:0:0:
120,272,78910,2,0,L|44:320,2,80,2|0|8,0:0|0:0|0:0,0:0:0:0:
84,180,79339,6,0,B|168:132|168:132|212:68,1,160,6|2,0:0|0:0,0:0:0:0:
296,56,79767,1,8,0:0:0:0:
336,144,79910,2,0,B|344:200|344:200|368:236,1,80,0|2,0:0|0:0,0:0:0:0:
452,240,80196,1,0,0:0:0:0:
436,144,80339,1,8,0:0:0:0:
452,240,80481,6,0,P|408:304|324:308,1,160,6|2,0:0|0:0,0:0:0:0:
240,284,80910,1,8,0:0:0:0:
172,216,81053,2,0,P|124:224|96:248,2,80,0|2|0,0:0|0:0|0:0,0:0:0:0:
240,284,81481,1,8,0:0:0:0:
260,188,81624,6,0,P|248:132|200:24,1,160,6|2,0:0|0:0,0:0:0:0:
112,32,82053,2,0,P|120:80|152:128,1,80,8|0,0:0|0:0,0:0:0:0:
208,37,82339,1,2,0:0:0:0:
304,52,82481,2,0,P|368:48|400:52,1,80,0|8,0:0|0:0,0:0:0:0:
472,176,82767,6,0,P|416:188|308:172,1,160,6|0,0:0|0:0,0:0:0:0:
220,164,83196,1,8,0:0:0:0:
220,164,83481,1,2,0:0:0:0:
140,216,83624,2,0,L|136:264,4,40,0|0|8|0|6,0:0|0:0|0:0|0:0|0:0,0:0:0:0:
256,192,84053,12,0,87481,0:0:0:0:
152,184,87767,5,8,0:0:0:0:
152,184,88053,1,0,0:0:0:0:
232,268,88196,2,0,P|272:276|316:264,1,80,0|8,0:0|0:0,0:0:0:0:
376,180,88481,1,4,0:0:0:0:
256,192,88624,12,0,92053,0:0:0:0:
168,252,92339,5,8,0:0:0:0:
168,252,92624,2,0,L|145:218,3,40,0|0|0|0,0:0|0:0|0:0|0:0,0:0:0:0:
120,188,92910,2,0,L|112:136,3,40,8|0|0|0,0:0|0:0|0:0|0:0,0:0:0:0:
132,96,93196,6,0,P|204:72|280:116,1,160,4|8,0:0|0:0,0:0:0:0:
372,84,93624,2,0,P|360:168|300:208,1,160,2|0,0:0|0:0,0:0:0:0:
208,180,94053,1,8,0:0:0:0:
302,207,94196,1,0,0:0:0:0:
359,283,94339,6,0,P|323:302|278:298,1,80,2|0,0:0|0:0,0:0:0:0:
192,272,94624,2,0,P|184:316|200:352,2,80,8|2|2,0:0|0:0|0:0,0:0:0:0:
208,180,95053,2,0,P|164:180|124:204,2,80,0|8|0,0:0|0:0|0:0,0:0:0:0:
376,152,95481,6,0,P|364:88|272:56,1,160,2|8,0:0|0:0,0:0:0:0:
188,56,95910,2,0,P|152:84|100:92,1,80,2|2,0:0|0:0,0:0:0:0:
40,40,96196,1,0,0:0:0:0:
44,136,96339,2,0,P|44:188|56:228,1,80,8|0,0:0|0:0,0:0:0:0:
104,296,96624,6,0,P|164:316|264:284,1,160,2|8,0:0|0:0,0:0:0:0:
376,152,97053,2,0,P|396:224|376:312,1,160,2|0,0:0|0:0,0:0:0:0:
292,200,97481,1,8,0:0:0:0:
260,328,97624,1,0,0:0:0:0:
292,200,97767,6,0,L|272:96,1,80,2|2,0:0|0:0,0:0:0:0:
388,72,98053,2,0,L|376:156,1,80,8|0,0:0|0:0,0:0:0:0:
292,200,98339,1,2,0:0:0:0:
200,184,98481,1,0,0:0:0:0:
168,92,98624,2,0,P|132:64|84:60,1,80,8|0,0:0|0:0,0:0:0:0:
96,152,98910,6,0,P|68:208|108:292,1,160,2|8,0:0|0:0,0:0:0:0:
200,308,99339,2,0,P|264:280|360:312,1,160,2|0,0:0|0:0,0:0:0:0:
436,264,99767,1,8,0:0:0:0:
472,176,99910,1,0,0:0:0:0:
376,32,100053,6,0,P|356:112|388:200,1,160,2|8,0:0|0:0,0:0:0:0:
284,208,100481,2,0,P|248:216|204:204,1,80,2|2,0:0|0:0,0:0:0:0:
148,132,100767,1,0,0:0:0:0:
243,115,100910,2,0,P|233:77|206:48,1,80,8|0,0:0|0:0,0:0:0:0:
108,44,101196,6,0,P|56:104|68:192,1,160,2|8,0:0|0:0,0:0:0:0:
148,132,101624,2,0,P|152:180|144:220,1,80,2|2,0:0|0:0,0:0:0:0:
80,280,101910,2,0,L|28:288,2,40,0|0|8,0:0|0:0|0:0,0:0:0:0:
156,340,102196,1,0,0:0:0:0:
224,272,102339,6,0,P|300:296|396:280,1,160,4|8,0:0|0:0,0:0:0:0:
396,192,102767,2,0,P|432:196|473:209,2,80,2|2|0,0:0|0:0|0:0,0:0:0:0:
300,180,103196,1,8,0:0:0:0:
332,88,103339,1,0,0:0:0:0:
236,100,103481,6,0,P|164:72|80:76,1,160,2|8,0:0|0:0,0:0:0:0:
44,164,103910,2,0,P|40:208|64:264,1,80,2|2,0:0|0:0,0:0:0:0:
132,196,104196,1,0,0:0:0:0:
224,172,104339,1,8,0:0:0:0:
200,264,104481,1,0,0:0:0:0:
200,264,104624,6,0,P|232:328|320:336,1,160,2|8,0:0|0:0,0:0:0:0:
384,224,105053,2,0,P|344:160|256:160,1,160,2|0,0:0|0:0,0:0:0:0:
172,184,105481,1,8,0:0:0:0:
292,248,105624,1,0,0:0:0:0:
292,248,105767,6,0,P|320:164|304:84,1,160,2|8,0:0|0:0,0:0:0:0:
200,264,106196,2,0,P|248:332|336:328,1,160,2|0,0:0|0:0,0:0:0:0:
400,284,106624,1,8,0:0:0:0:
388,188,106767,1,0,0:0:0:0:
308,132,106910,6,0,P|264:132|212:124,1,80,2|0,0:0|0:0,0:0:0:0:
72,184,107196,2,0,P|112:184|160:192,1,80,8|2,0:0|0:0,0:0:0:0:
249,205,107481,1,2,0:0:0:0:
308,132,107624,2,0,P|320:96|316:48,1,80,0|8,0:0|0:0,0:0:0:0:
228,84,107910,1,0,0:0:0:0:
136,56,108053,6,0,P|108:68|76:116,2,80,2|0|8,0:0|0:0|0:0,0:0:0:0:
172,148,108481,1,2,0:0:0:0:
249,205,108624,2,0,P|281:221|325:221,1,80,2|0,0:0|0:0,0:0:0:0:
464,148,108910,2,0,P|424:144|388:160,1,80,8|0,0:0|0:0,0:0:0:0:
440,240,109196,6,0,P|448:308|368:336,1,160,2|8,0:0|0:0,0:0:0:0:
280,312,109624,1,2,0:0:0:0:
136,236,109767,2,0,P|196:240|248:260,1,80,2|0,0:0|0:0,0:0:0:0:
112,324,110053,2,0,P|72:332|16:328,1,80,8|0,0:0|0:0,0:0:0:0:
36,236,110339,6,0,P|36:176|44:132,1,80,2|0,0:0|0:0,0:0:0:0:
132,140,110624,2,0,P|160:112|208:92,1,80,10|0,0:0|0:0,0:0:0:0:
280,140,110910,2,0,L|356:144,3,40,2|0|0|0,0:0|0:0|0:0|0:0,0:0:0:0:
352,104,111196,2,0,L|400:96,3,40,0|0|0|0,0:0|0:0|0:0|0:0,0:0:0:0:
440,104,111481,6,0,B|484:116|484:116|468:168|468:248,1,160,4|2,0:0|0:0,0:0:0:0:
476,324,111910,2,0,P|420:332|376:332,1,80,0|2,0:0|0:0,0:0:0:0:
320,276,112196,1,0,0:0:0:0:
248,340,112339,2,0,P|200:344|144:336,1,80,2|0,0:0|0:0,0:0:0:0:
64,232,112624,6,0,P|120:228|224:244,1,160,2|2,0:0|0:0,0:0:0:0:
320,276,113053,1,0,0:0:0:0:
384,208,113196,2,0,P|380:152|376:120,1,80,2|0,0:0|0:0,0:0:0:0:
416,40,113481,2,0,P|360:40|320:48,1,80,2|0,0:0|0:0,0:0:0:0:
288,64,113696,1,0,0:0:0:0:
252,100,113767,6,0,P|216:116|108:60,1,160,4|2,0:0|0:0,0:0:0:0:
64,156,114196,2,0,L|76:240,1,80,0|2,0:0|0:0,0:0:0:0:
176,328,114481,2,0,L|160:232,1,80,0|2,0:0|0:0,0:0:0:0:
92,332,114767,2,0,P|164:332|268:300,1,160
320,240,115196,5,0,0:0:0:0:
304,144,115339,1,0,0:0:0:0:
232,204,115481,1,2,0:0:0:0:
320,240,115624,1,0,0:0:0:0:
392,180,115767,1,2,0:0:0:0:
376,84,115910,5,0,0:0:0:0:
376,84,115981,1,0,0:0:0:0:
376,84,116053,2,0,P|316:52|228:88,1,160,4|2,0:0|0:0,0:0:0:0:
152,128,116481,2,0,P|124:168|88:192,1,80,0|2,0:0|0:0,0:0:0:0:
64,272,116767,2,0,P|84:320|104:344,1,80,0|2,0:0|0:0,0:0:0:0:
196,320,117053,1,0,0:0:0:0:
288,292,117196,6,0,P|368:304|440:344,1,160,2|2,0:0|0:0,0:0:0:0:
460,248,117624,1,0,0:0:0:0:
464,152,117767,2,0,L|368:160,1,80,2|0,0:0|0:0,0:0:0:0:
328,80,118053,1,2,0:0:0:0:
252,140,118196,5,0,0:0:0:0:
252,140,118267,1,0,0:0:0:0:
252,140,118339,2,0,P|224:88|120:96,1,160,4|0,0:0|0:0,0:0:0:0:
48,132,118767,2,0,P|76:164|120:180,1,80,0|2,0:0|0:0,0:0:0:0:
196,224,119053,2,0,P|228:216|280:240,1,80,0|2,0:0|0:0,0:0:0:0:
360,276,119339,6,0,P|368:228|356:188,1,80,0|2,0:0|0:0,0:0:0:0:
340,104,119624,2,0,L|436:116,2,80,0|0|0,0:0|0:0|0:0,0:0:0:0:
244,96,120053,1,2,0:0:0:0:
244,96,120124,1,0,0:0:0:0:
244,96,120196,1,0,0:0:0:0:
148,112,120339,2,0,P|128:152|120:208,1,80,0|0,1:0|1:0,0:0:0:0:
140,288,120624,6,0,P|220:312|296:252,1,160,4|8,0:0|0:0,0:0:0:0:
328,196,121053,1,2,0:0:0:0:
416,236,121196,2,0,P|420:192|408:148,1,80,2|0,0:0|0:0,0:0:0:0:
327,118,121481,2,0,P|319:157|328:196,1,80,8|0,0:0|0:0,0:0:0:0:
384,44,121767,6,0,P|312:24|244:72,1,160,2|8,0:0|0:0,0:0:0:0:
176,128,122196,1,2,0:0:0:0:
96,76,122339,2,0,L|68:172,1,80,2|0,0:0|0:0,0:0:0:0:
116,288,122624,2,0,L|140:208,1,80,8|0,0:0|0:0,0:0:0:0:
192,348,122910,6,0,B|220:264|220:264|244:280|292:280,1,160,2|8,0:0|0:0,0:0:0:0:
380,304,123339,2,0,P|380:256|348:208,1,80,2|2,0:0|0:0,0:0:0:0:
284,180,123624,1,0,0:0:0:0:
240,100,123767,2,0,P|208:128|192:168,1,80,8|0,0:0|0:0,0:0:0:0:
284,180,124053,6,0,P|324:124|300:36,1,160,2|8,0:0|0:0,0:0:0:0:
240,100,124481,2,0,L|148:92,1,80,2|2,0:0|0:0,0:0:0:0:
76,136,124767,1,0,0:0:0:0:
116,220,124910,2,0,P|108:260|120:312,1,80,8|0,0:0|0:0,0:0:0:0:
200,264,125196,6,0,P|264:284|360:264,1,160,2|8,0:0|0:0,0:0:0:0:
468,172,125624,2,0,L|388:184,1,80,2|2,0:0|0:0,0:0:0:0:
356,100,125910,1,0,0:0:0:0:
272,120,126053,2,0,P|272:168|276:208,1,80,8|0,0:0|0:0,0:0:0:0:
356,100,126339,6,0,P|296:36|220:52,1,160,2|0,0:0|0:0,0:0:0:0:
160,96,126767,1,2,0:0:0:0:
78,136,126910,2,0,P|70:176|66:228,2,80,2|0|8,0:0|0:0|0:0,0:0:0:0:
160,248,127339,1,0,0:0:0:0:
160,248,127481,6,0,L|252:272,1,80,4|0,0:0|0:0,0:0:0:0:
332,248,127767,1,8,0:0:0:0:
480,212,127910,2,0,L|392:188,1,80,0|0,0:0|0:0,0:0:0:0:
324,136,128196,1,0,0:0:0:0:
324,136,128481,6,0,P|308:68|212:48,1,160,0|0,0:0|0:0,0:0:0:0:
144,88,128910,2,0,P|124:136|120:176,1,80,8|0,0:0|0:0,0:0:0:0:
120,163,129124,1,0,0:0:0:0:
120,163,129196,1,8,0:0:0:0:
116,260,129339,2,0,L|37:246,2,80,0|8|0,0:0|0:0|0:0,0:0:0:0:
176,340,129767,6,0,L|216:348,3,40,0|0|0|0,0:0|0:0|0:0|0:0,0:0:0:0:
260,336,130053,2,0,L|308:320,3,40,0|0|0|0,0:0|0:0|0:0|0:0,0:0:0:0:
348,324,130339,2,0,L|404:344,3,40,8|0|0|0,0:0|0:0|0:0|0:0,0:0:0:0:
432,348,130624,1,8,0:0:0:0:
432,348,130910,6,0,P|448:284|456:184,1,160,4|8,0:0|0:0,0:0:0:0:
452,100,131339,1,0,0:0:0:0:
380,52,131481,1,2,0:0:0:0:
324,120,131624,2,0,P|285:146|246:154,1,80,0|8,0:0|0:0,0:0:0:0:
160,52,131910,6,0,P|84:48|40:120,1,160,2|0,0:0|0:0,0:0:0:0:
124,204,132339,2,0,P|124:160|120:112,1,80,8|0,0:0|0:0,0:0:0:0:
56,256,132624,2,0,P|60:300|68:336,1,80,2|0,0:0|0:0,0:0:0:0:
164,360,132910,1,8,0:0:0:0:
268,272,133053,6,0,P|340:280|420:236,1,160,2|0,0:0|0:0,0:0:0:0:
480,168,133482,1,8,0:0:0:0:
440,80,133624,1,0,0:0:0:0:
348,56,133767,2,0,P|308:56|260:64,1,80,2|0,0:0|0:0,0:0:0:0:
240,156,134053,1,8,0:0:0:0:
100,128,134196,6,0,B|72:176|88:240|88:240|128:292,1,160,2|0,0:0|0:0,0:0:0:0:
196,344,134624,2,0,P|248:344|284:336,1,80,8|0,0:0|0:0,0:0:0:0:
372,320,134910,1,2,0:0:0:0:
388,224,135053,1,0,0:0:0:0:
376,128,135196,1,8,0:0:0:0:
244,56,135339,6,0,B|176:44|128:48|128:48|88:84,1,160,6|0,0:0|0:0,0:0:0:0:
68,184,135767,2,0,P|80:228|112:264,1,80,8|0,0:0|0:0,0:0:0:0:
196,272,136053,1,2,0:0:0:0:
292,256,136196,2,0,P|288:300|276:340,1,80,0|8,0:0|0:0,0:0:0:0:
196,272,136482,6,0,P|204:212|244:108,1,160,2|0,0:0|0:0,0:0:0:0:
324,76,136910,2,0,P|348:128|364:176,1,80,8|0,0:0|0:0,0:0:0:0:
380,244,137196,1,2,0:0:0:0:
436,324,137339,2,0,P|400:340|344:332,1,80,0|8,0:0|0:0,0:0:0:0:
292,256,137624,6,0,P|244:192|156:184,1,160,2|0,0:0|0:0,0:0:0:0:
76,96,138053,2,0,L|76:184,1,80,8|0,0:0|0:0,0:0:0:0:
100,268,138339,1,2,0:0:0:0:
168,336,138482,2,0,L|264:332,1,80,0|8,0:0|0:0,0:0:0:0:
436,324,138767,6,0,P|464:272|480:164,1,160,2|0,0:0|0:0,0:0:0:0:
432,88,139196,1,8,0:0:0:0:
352,144,139339,2,0,L|360:228,2,80,0|2|0,0:0|0:0|0:0,0:0:0:0:
275,68,139767,1,8,0:0:0:0:
172,92,139910,6,0,P|124:80|40:160,1,160,6|0,0:0|0:0,0:0:0:0:
60,240,140339,2,0,P|96:228|148:228,1,80,8|0,0:0|0:0,0:0:0:0:
280,308,140624,2,0,P|244:312|184:300,1,80,2|0,0:0|0:0,0:0:0:0:
288,204,140910,1,8,0:0:0:0:
424,272,141053,6,0,P|428:196|416:104,1,160,2|0,0:0|0:0,0:0:0:0:
332,68,141482,2,0,P|292:76|248:56,1,80,8|0,0:0|0:0,0:0:0:0:
128,136,141767,2,0,P|168:136|208:156,1,80,2|0,0:0|0:0,0:0:0:0:
76,224,142053,1,8,0:0:0:0:
112,320,142196,6,0,P|168:320|268:256,1,160,2|0,0:0|0:0,0:0:0:0:
328,204,142624,2,0,P|336:252|352:288,1,80,8|0,0:0|0:0,0:0:0:0:
412,188,142910,2,0,P|400:136|384:108,1,80,2|0,0:0|0:0,0:0:0:0:
300,80,143196,1,8,0:0:0:0:
200,80,143339,6,0,B|144:76|144:76|132:128|164:196,1,160,2|0,0:0|0:0,0:0:0:0:
196,264,143767,1,8,0:0:0:0:
280,312,143910,1,0,0:0:0:0:
372,280,144053,2,0,L|448:328,2,80,2|0|8,0:0|0:0|0:0,0:0:0:0:
412,188,144482,6,0,B|320:124|320:124|292:68,1,160,6|2,0:0|0:0,0:0:0:0:
200,80,144910,1,8,0:0:0:0:
140,152,145053,2,0,B|132:208|132:208|108:244,1,80,0|2,0:0|0:0,0:0:0:0:
48,296,145339,1,0,0:0:0:0:
44,200,145482,1,8,0:0:0:0:
48,296,145624,6,0,P|112:336|204:352,1,160,6|2,0:0|0:0,0:0:0:0:
272,292,146053,1,8,0:0:0:0:
340,224,146196,2,0,P|380:232|416:256,2,80,0|2|0,0:0|0:0|0:0,0:0:0:0:
272,292,146624,1,8,0:0:0:0:
244,200,146767,6,0,P|256:144|304:36,1,160,6|2,0:0|0:0,0:0:0:0:
392,44,147196,2,0,P|384:92|352:140,1,80,8|0,0:0|0:0,0:0:0:0:
296,49,147482,1,2,0:0:0:0:
200,64,147624,2,0,P|136:60|104:64,1,80,0|8,0:0|0:0,0:0:0:0:
88,200,147910,6,0,P|144:212|252:196,1,160,6|0,0:0|0:0,0:0:0:0:
340,188,148339,1,8,0:0:0:0:
340,188,148624,1,2,0:0:0:0:
420,240,148767,2,0,L|424:288,4,40,0|0|8|0|6,0:0|0:0|0:0|0:0|0:0,0:0:0:0:
256,192,149196,12,0,152624,0:0:0:0:
256,64,152910,5,8,0:0:0:0:
256,64,153196,1,0,0:0:0:0:
254,161,153339,2,0,B|232:192|272:212|251:236,1,80,0|8,0:0|0:0,0:0:0:0:
252,336,153624,1,4,0:0:0:0:
256,192,153767,12,0,157196,0:0:0:0:
316,96,167481,6,0,P|244:63|167:79,1,160,4|2,0:0|0:0,0:0:0:0:
124,164,167910,1,0,0:0:0:0:
96,256,168053,2,0,P|144:272|240:228,1,160,2|0,0:0|0:0,0:0:0:0:
316,96,168481,6,0,P|356:84|424:164,1,160,2|0,0:0|0:0,0:0:0:0:
412,264,168910,1,2,0:0:0:0:
412,264,169196,1,2,0:0:0:0:
316,256,169339,2,0,L|228:268,1,80
172,336,169624,6,0,P|156:288|144:164,1,160,2|0,0:0|0:0,0:0:0:0:
84,104,170053,2,0,L|172:84,1,80,2|0,0:0|0:0,0:0:0:0:
248,44,170339,2,0,P|292:56|348:56,1,80,2|0,0:0|0:0,0:0:0:0:
420,48,170624,1,0,0:0:0:0:
456,136,170767,6,0,B|432:176|432:176|380:148|316:176,1,160,2|0,0:0|0:0,0:0:0:0:
252,240,171196,2,0,P|260:280|276:320,2,80,0|2|0,0:0|0:0|0:0,0:0:0:0:
168,192,171624,2,0,P|156:144|140:104,1,80,0|0,0:0|0:0,0:0:0:0:
96,260,171910,6,0,P|108:316|208:312,1,160,2|0,0:0|0:0,0:0:0:0:
252,240,172339,2,0,P|268:188|376:188,1,160,2|0,0:0|0:0,0:0:0:0:
436,240,172767,1,2,0:0:0:0:
436,240,173053,6,0,P|400:304|320:300,1,160,2|0,0:0|0:0,0:0:0:0:
252,240,173481,1,2,0:0:0:0:
252,240,173767,2,0,L|84:268,1,160,2|0,0:0|0:0,0:0:0:0:
40,184,174196,6,0,L|204:160,1,160,2|0,0:0|0:0,0:0:0:0:
232,72,174624,2,0,P|284:72|328:80,1,80,2|0,0:0|0:0,0:0:0:0:
400,116,174910,2,0,P|376:144|332:168,1,80,2|0,0:0|0:0,0:0:0:0:
240,164,175196,1,0,0:0:0:0:
216,252,175339,6,0,P|256:312|348:304,1,160,2|0,0:0|0:0,0:0:0:0:
380,224,175767,2,0,P|312:224|288:244,1,80,2|0,0:0|0:0,0:0:0:0:
216,252,176053,1,2,0:0:0:0:
148,320,176196,2,0,P|96:316|64:296,1,80
84,208,176481,6,0,P|84:160|120:56,1,160,2|0,0:0|0:0,0:0:0:0:
216,76,176910,2,0,P|208:116|188:164,1,80,2|0,0:0|0:0,0:0:0:0:
288,180,177196,1,2,0:0:0:0:
360,116,177339,2,0,P|334:85|320:48,1,80
416,32,177624,6,0,P|448:72|480:176,1,160,2|0,0:0|0:0,0:0:0:0:
416,244,178053,2,0,L|352:296,1,80,2|0,0:0|0:0,0:0:0:0:
268,336,178339,2,0,L|176:304,1,80,2|0,0:0|0:0,0:0:0:0:
100,288,178624,1,0,0:0:0:0:
56,204,178767,6,0,P|56:144|140:160,1,160,2|0,0:0|0:0,0:0:0:0:
200,224,179196,2,0,P|236:240|324:168,1,160,2|0,0:0|0:0,0:0:0:0:
300,84,179624,1,0,0:0:0:0:
216,128,179767,1,0,0:0:0:0:
200,224,179910,6,0,P|248:288|324:280,1,160,2|0,0:0|0:0,0:0:0:0:
408,232,180339,2,0,P|444:244|480:272,2,80,2|0|2,0:0|0:0|0:0,0:0:0:0:
384,140,180767,1,0,0:0:0:0:
300,84,180910,1,0,0:0:0:0:
216,128,181053,6,0,P|152:132|80:68,1,160,2|0,0:0|0:0,0:0:0:0:
56,196,181481,1,2,0:0:0:0:
72,292,181624,2,0,L|176:280,1,80,0|2,0:0|0:0,0:0:0:0:
228,232,181910,2,0,P|244:272|236:320,1,80
328,344,182196,6,0,P|336:276|308:184,1,160,2|0,0:0|0:0,0:0:0:0:
348,100,182624,2,0,L|408:36,2,80,2|0|2,0:0|0:0|0:0,0:0:0:0:
256,68,183053,1,0,0:0:0:0:
172,116,183196,1,0,0:0:0:0:
80,88,183339,6,0,P|80:152|156:208,1,160,2|0,0:0|0:0,0:0:0:0:
196,292,183767,2,0,L|256:228,1,80,2|0,0:0|0:0,0:0:0:0:
304,316,184053,2,0,L|400:292,1,80,2|0,0:0|0:0,0:0:0:0:
444,224,184339,1,0,0:0:0:0:
448,128,184481,1,2,0:0:0:0:
256,192,184624,12,0,185481,1:0:0:0:
192,76,185767,6,0,P|144:72|44:116,1,160,4|8,0:0|0:0,0:0:0:0:
56,212,186196,1,0,0:0:0:0:
88,304,186339,1,2,0:0:0:0:
156,236,186481,2,0,P|188:216|232:216,1,80,0|8,0:0|0:0,0:0:0:0:
320,328,186767,6,0,P|388:332|436:256,1,160,2|0,0:0|0:0,0:0:0:0:
352,172,187196,2,0,P|352:216|356:264,1,80,8|0,0:0|0:0,0:0:0:0:
436,144,187481,2,0,P|432:100|424:64,1,80,2|0,0:0|0:0,0:0:0:0:
328,48,187767,1,8,0:0:0:0:
200,100,187910,6,0,P|128:92|48:136,1,160,2|0,0:0|0:0,0:0:0:0:
64,232,188339,1,8,0:0:0:0:
108,316,188481,1,0,0:0:0:0:
200,340,188624,2,0,P|240:340|288:332,1,80,2|0,0:0|0:0,0:0:0:0:
304,240,188910,1,8,0:0:0:0:
432,144,189053,6,0,B|452:176|476:228,2,80,2|2|2,0:0|0:0|0:0,0:0:0:0:
348,96,189481,2,0,P|304:80|252:72,1,80,8|2,0:0|0:0,0:0:0:0:
176,68,189767,1,2,0:0:0:0:
96,124,189910,1,0,0:0:0:0:
68,216,190053,1,8,0:0:0:0:
200,232,190196,6,0,B|268:244|300:244|300:244|356:204,1,160,6|0,0:0|0:0,0:0:0:0:
444,216,190624,2,0,P|436:168|408:136,1,80,8|0,0:0|0:0,0:0:0:0:
324,128,190910,1,2,0:0:0:0:
232,148,191053,2,0,P|240:92|264:52,1,80,0|8,0:0|0:0,0:0:0:0:
324,128,191339,6,0,P|316:188|276:292,1,160,2|0,0:0|0:0,0:0:0:0:
196,320,191767,2,0,P|172:268|156:220,1,80,8|0,0:0|0:0,0:0:0:0:
124,156,192053,1,2,0:0:0:0:
68,76,192196,2,0,P|104:60|160:72,1,80,0|8,0:0|0:0,0:0:0:0:
232,148,192481,6,0,P|276:208|360:212,1,160,2|0,0:0|0:0,0:0:0:0:
444,296,192910,2,0,L|444:208,1,80,8|0,0:0|0:0,0:0:0:0:
408,128,193196,1,2,0:0:0:0:
336,64,193339,2,0,L|220:76,1,80,0|8,0:0|0:0,0:0:0:0:
124,152,193624,6,0,P|134:113|149:76,2,80,2|0|0,0:0|0:0|0:0,0:0:0:0:
144,248,194053,1,8,0:0:0:0:
244,260,194196,2,0,P|244:220|236:176,2,80,0|2|0,0:0|0:0|0:0,0:0:0:0:
248,356,194624,1,8,0:0:0:0:
328,300,194767,6,0,P|392:288|448:200,1,160,6|0,0:0|0:0,0:0:0:0:
372,152,195196,2,0,P|384:120|376:72,1,80,8|0,0:0|0:0,0:0:0:0:
212,76,195481,2,0,P|245:97|284:104,1,80,2|0,0:0|0:0,0:0:0:0:
124,108,195767,1,8,0:0:0:0:
60,176,195910,6,0,P|56:252|92:344,1,160,2|0,0:0|0:0,0:0:0:0:
180,336,196339,2,0,P|176:288|192:248,1,80,8|0,0:0|0:0,0:0:0:0:
320,232,196624,2,0,P|301:267|272:294,1,80,2|0,0:0|0:0,0:0:0:0:
412,204,196910,1,8,0:0:0:0:
396,108,197053,6,0,P|340:108|240:172,1,160,2|0,0:0|0:0,0:0:0:0:
176,216,197481,2,0,P|168:168|152:132,1,80,8|0,0:0|0:0,0:0:0:0:
84,204,197767,2,0,P|96:256|112:284,1,80,2|0,0:0|0:0,0:0:0:0:
204,304,198053,1,8,0:0:0:0:
300,292,198196,6,0,B|356:296|356:296|368:244|336:176,1,160,2|0,0:0|0:0,0:0:0:0:
296,112,198624,1,8,0:0:0:0:
208,76,198767,1,0,0:0:0:0:
120,112,198910,2,0,L|44:64,2,80,2|0|8,0:0|0:0|0:0,0:0:0:0:
84,204,199339,6,0,B|168:252|168:252|212:316,1,160,6|2,0:0|0:0,0:0:0:0:
296,328,199767,1,8,0:0:0:0:
336,240,199910,2,0,B|344:184|344:184|368:148,1,80,0|2,0:0|0:0,0:0:0:0:
452,144,200196,1,0,0:0:0:0:
436,240,200339,1,8,0:0:0:0:
452,144,200481,6,0,P|408:80|324:76,1,160,6|2,0:0|0:0,0:0:0:0:
240,100,200910,1,8,0:0:0:0:
172,168,201053,2,0,P|124:160|96:136,2,80,0|2|0,0:0|0:0|0:0,0:0:0:0:
240,100,201481,1,8,0:0:0:0:
260,196,201624,6,0,P|248:252|200:360,1,160,6|2,0:0|0:0,0:0:0:0:
112,352,202053,2,0,P|120:304|160:260,1,80,8|0,0:0|0:0,0:0:0:0:
208,347,202339,1,2,0:0:0:0:
304,332,202481,2,0,P|368:336|400:332,1,80,0|8,0:0|0:0,0:0:0:0:
424,304,202696,1,0,0:0:0:0:
444,260,202767,6,0,P|436:180|364:100,1,160,6|0,0:0|0:0,0:0:0:0:
292,124,203196,1,8,0:0:0:0:
292,124,203481,1,2,0:0:0:0:
200,152,203624,2,0,L|160:144,4,40,0|0|8|0|6,0:0|0:0|0:0|0:0|0:0,0:0:0:0:
256,192,204053,12,0,207481,0:0:0:0:
180,164,207767,5,8,0:0:0:0:
180,164,208053,1,0,0:0:0:0:
260,112,208196,2,0,P|293:140|333:185,1,80,0|8,0:0|0:0,0:0:0:0:
336,260,208481,1,4,0:0:0:0:
256,192,208624,12,0,212053,0:0:0:0:
256,192,212339,5,8,0:0:0:0:
256,192,212624,2,0,L|256:240,7,40,0|0|0|0|8|0|0|0,0:0|0:0|0:0|0:0|0:0|0:0|0:0|0:0,0:0:0:0:
256,280,213196,6,0,P|180:312|116:248,1,160,4|8,0:0|0:0,0:0:0:0:
72,188,213624,2,0,P|76:132|96:80,1,80
188,28,213910,2,0,P|184:72|168:120,1,80,0|8,0:0|0:0,0:0:0:0:
248,168,214196,6,0,P|308:152|400:188,1,160
424,276,214624,1,8,0:0:0:0:
340,324,214767,1,0,0:0:0:0:
256,280,214910,1,0,0:0:0:0:
168,316,215053,1,0,0:0:0:0:
92,260,215196,1,8,0:0:0:0:
96,164,215339,6,0,P|144:128|244:88,1,160,4|0,0:0|0:0,0:0:0:0:
324,52,215767,2,0,P|384:64|416:68,1,80,8|0,0:0|0:0,0:0:0:0:
448,152,216053,2,0,P|404:160|364:176,1,80
276,188,216339,1,8,0:0:0:0:
256,280,216481,6,0,L|184:240,1,80
160,72,216767,2,0,L|232:112,1,80,0|8,0:0|0:0,0:0:0:0:
276,188,217053,1,0,0:0:0:0:
348,252,217196,2,0,P|348:308|324:344,1,80,8|0,0:0|0:0,0:0:0:0:
256,280,217481,1,8,0:0:0:0:
164,308,217624,6,0,P|136:248|112:144,1,160,4|0,0:0|0:0,0:0:0:0:
160,72,218053,1,8,0:0:0:0:
252,96,218196,2,0,P|292:100|356:84,1,80
428,72,218481,1,0,0:0:0:0:
472,156,218624,1,8,0:0:0:0:
456,252,218767,6,0,P|420:304|320:340,1,160
236,340,219196,2,0,L|220:248,1,80,8|0,0:0|0:0,0:0:0:0:
128,236,219481,2,0,P|112:180|112:148,1,80
160,72,219767,1,8,0:0:0:0:
208,156,219910,6,0,B|256:152|256:152|292:220|372:204,1,160,4|0,0:0|0:0,0:0:0:0:
344,116,220339,1,8,0:0:0:0:
428,72,220481,1,0,0:0:0:0:
472,156,220624,1,0,0:0:0:0:
448,248,220767,2,0,L|428:336,2,80,0|8|0,0:0|0:0|0:0,0:0:0:0:
356,280,221196,6,0,L|280:328,1,80,8|0,0:0|0:0,0:0:0:0:
160,176,221481,2,0,P|208:168|260:180,1,80,8|0,0:0|0:0,0:0:0:0:
172,360,221767,1,8,0:0:0:0:
56,300,221910,2,0,P|36:240|32:212,2,80,8|0|4,0:0|0:0|0:0,0:0:0:0:
256,192,222339,12,0,224481,0:0:0:0:
