osu file format v14

[General]
AudioFilename: saru.mp3
AudioLeadIn: 0
PreviewTime: 54725
Countdown: 0
SampleSet: None
StackLeniency: 0.7
Mode: 0
LetterboxInBreaks: 1
WidescreenStoryboard: 0

[Editor]
Bookmarks: 25672
DistanceSpacing: 0.9
BeatDivisor: 4
GridSize: 4
TimelineZoom: 1

[Metadata]
Title:Sarumane Isu Tori Game
TitleUnicode:Sarumane Isu Tori Game
Artist:150P
ArtistUnicode:150P
Creator:osuyo
Version:Insane
Source:vocaloid
Tags:IA
BeatmapID:2140931
BeatmapSetID:1023424

[Difficulty]
HPDrainRate:5
CircleSize:4
OverallDifficulty:6
ApproachRate:9.2
SliderMultiplier:2.2
SliderTickRate:1

[Events]
//Background and Video events
0,0,"bg.jpg",0,0
//Break Periods
2,95082,101190
2,113813,121238
//Storyboard Layer 0 (Background)
//Storyboard Layer 1 (Fail)
//Storyboard Layer 2 (Pass)
//Storyboard Layer 3 (Foreground)
//Storyboard Layer 4 (Overlay)
//Storyboard Sound Samples

[TimingPoints]
16443,292.682926829268,4,1,1,80,1,0
45725,-100,4,2,1,70,0,0
50408,-100,4,2,1,90,0,0
53920,-100,4,2,1,70,0,0
54505,-100,4,2,1,90,0,0
55091,-100,4,1,1,80,0,1
65481,-200,4,1,1,80,0,1
66213,-100,4,1,1,80,0,1
73676,-100,4,1,1,80,0,0
132213,-200,4,1,1,80,0,0
133237,-100,4,1,1,80,0,0

[HitObjects]
256,64,16443,5,4,2:0:0:0:
256,64,16735,1,4,2:0:0:0:
256,284,17028,1,0,0:0:0:0:
200,192,17174,1,0,0:0:0:0:
200,192,17247,1,0,0:0:0:0:
200,192,17321,1,0,0:0:0:0:
312,192,17467,1,0,0:0:0:0:
312,192,17540,1,0,0:0:0:0:
312,192,17613,6,0,P|348:236|336:288,1,110
256,356,17906,1,8,0:0:0:0:
173,284,18052,2,0,P|164:236|200:192,1,110
256,284,18345,1,0,0:0:0:0:
256,100,18491,1,8,0:0:0:0:
200,192,18638,2,0,P|112:248|24:192,1,220
112,124,19077,1,8,0:0:0:0:
200,192,19223,2,0,L|324:192,1,110
400,124,19662,1,8,0:0:0:0:
188,72,19955,6,0,P|128:72|60:44,1,110
156,204,20247,1,8,0:0:0:0:
324,72,20394,2,0,P|384:72|452:44,1,110
356,204,20686,1,0,0:0:0:0:
256,72,20833,1,8,0:0:0:0:
256,312,20979,2,0,P|148:296|52:220,1,220
40,124,21418,1,8,0:0:0:0:
256,312,21711,1,0,0:0:0:0:
472,124,22003,5,8,0:0:0:0:
472,124,22077,1,8,0:0:0:0:
472,124,22150,1,8,0:0:0:0:
472,124,22223,1,8,0:0:0:0:
472,124,22296,2,0,P|428:156|376:220,1,110,8|0,0:0|0:0,0:0:0:0:
356,92,22589,1,8,0:0:0:0:
484,216,22735,2,0,P|480:268|436:328,1,110,0|0,0:0|0:0,0:0:0:0:
372,240,23028,1,0,0:0:0:0:
140,324,23174,1,8,0:0:0:0:
256,192,23321,2,0,P|164:128|64:88,1,220
32,252,23760,2,0,P|84:244|132:212,1,110,8|0,0:0|0:0,0:0:0:0:
256,108,24052,1,0,0:0:0:0:
256,276,24345,1,8,0:0:0:0:
256,56,24638,5,0,0:0:0:0:
200,152,24784,1,0,0:0:0:0:
309,152,24930,1,8,0:0:0:0:
256,56,25077,1,0,0:0:0:0:
144,248,25223,1,0,0:0:0:0:
308,152,25369,2,0,P|356:128|404:152,1,110,8|8,0:0|0:0,0:0:0:0:
476,300,25662,2,0,P|428:324|380:300,1,110,8|0,0:0|0:0,0:0:0:0:
256,192,25955,1,8,0:0:0:0:
131,300,26101,2,0,P|84:324|36:300,1,110,8|0,0:0|0:0,0:0:0:0:
44,148,26394,5,8,0:0:0:0:
52,128,26467,1,8,0:0:0:0:
60,108,26540,1,8,0:0:0:0:
72,88,26613,1,8,0:0:0:0:
92,76,26686,1,8,0:0:0:0:
112,68,26760,1,8,0:0:0:0:
132,60,26833,1,8,0:0:0:0:
152,56,26906,1,8,0:0:0:0:
172,52,26979,6,0,P|228:56|280:72,1,110,4|0,0:0|0:0,0:0:0:0:
328,172,27272,2,0,P|384:176|436:192,1,110,8|0,0:0|0:0,0:0:0:0:
176,236,27564,2,0,P|120:232|68:216,1,110
116,316,27857,1,8,0:0:0:0:
328,372,28003,2,0,P|272:368|220:352,1,110
440,364,28296,1,8,0:0:0:0:
232,292,28589,5,8,0:0:0:0:
440,216,28882,1,8,0:0:0:0:
336,248,29028,1,8,0:0:0:0:
372,144,29174,1,8,0:0:0:0:
268,176,29321,2,0,P|220:144|188:104,1,110
296,80,29613,1,8,0:0:0:0:
296,80,29760,1,0,0:0:0:0:
136,176,29906,2,0,P|84:194|20:188,1,110
88,96,30199,1,8,0:0:0:0:
184,256,30345,6,0,P|213:304|264:360,1,110,8|0,0:0|0:0,0:0:0:0:
328,128,30638,2,0,P|298:79|248:24,1,110,8|0,0:0|0:0,0:0:0:0:
184,256,30930,2,0,P|240:276|300:284,1,110,8|0,0:0|0:0,0:0:0:0:
328,128,31223,2,0,P|272:108|212:100,2,110,8|8|0,0:0|0:0|0:0,0:0:0:0:
256,212,31662,1,0,0:0:0:0:
376,72,31808,6,0,P|428:44|504:36,1,110,0|8,0:0|0:0,0:0:0:0:
456,144,32101,1,0,0:0:0:0:
304,36,32247,2,0,P|256:60|216:103,1,110
128,36,32540,2,0,P|98:80|86:137,1,110,8|0,0:0|0:0,0:0:0:0:
72,244,32833,1,0,0:0:0:0:
164,184,32979,1,0,0:0:0:0:
256,244,33125,1,8,0:0:0:0:
416,92,33418,1,8,0:0:0:0:
96,292,33711,5,8,0:0:0:0:
188,232,33857,1,0,0:0:0:0:
188,232,33930,1,0,0:0:0:0:
188,232,34003,2,0,P|244:256|304:316,1,110
376,228,34296,2,0,P|359:182|322:133,1,110,8|0,0:0|0:0,0:0:0:0:
224,80,34589,2,0,P|179:121|135:143,1,110
112,144,34808,1,0,0:0:0:0:
92,132,34882,1,8,0:0:0:0:
128,28,35028,6,0,P|256:56|344:116,1,220,8|0,0:0|0:0,0:0:0:0:
440,96,35467,1,8,0:0:0:0:
440,96,35540,1,0,0:0:0:0:
440,96,35613,2,0,P|420:144|364:204,1,110
284,144,35906,1,8,0:0:0:0:
436,252,36052,2,0,P|340:320|212:356,1,220,8|4,0:0|0:0,0:0:0:0:
144,304,36491,5,0,0:0:0:0:
144,304,36638,1,8,0:0:0:0:
144,304,36784,1,0,0:0:0:0:
192,204,36930,1,0,0:0:0:0:
292,248,37077,1,0,0:0:0:0:
340,148,37223,1,8,0:0:0:0:
440,196,37369,1,0,0:0:0:0:
488,96,37516,6,0,B|444:48|444:48|300:84,1,165,0|0,0:0|2:0,0:0:0:0:
348,72,37808,2,0,B|251:47|251:47|207:95,1,165,8|0,0:0|2:0,0:0:0:0:
208,96,38101,2,0,B|160:48|160:48|76:64,2,110,0|0|8,0:0|0:0|0:0,0:0:0:0:
268,188,38540,5,8,0:0:0:0:
160,200,38686,2,0,P|109:216|52:256,1,110
80,356,38979,2,0,P|130:339|188:300,1,110,8|0,0:0|0:0,0:0:0:0:
256,232,39272,1,0,0:0:0:0:
332,308,39418,1,0,0:0:0:0:
332,308,39491,1,0,0:0:0:0:
332,308,39564,1,8,0:0:0:0:
416,236,39711,6,0,P|452:184|468:116,1,110,8|0,0:0|0:0,0:0:0:0:
364,180,40003,2,0,P|320:208|248:232,1,110,8|0,0:0|0:0,0:0:0:0:
96,236,40296,2,0,P|60:184|46:139,1,110,8|0,0:0|0:0,0:0:0:0:
148,180,40589,2,0,P|192:208|246:228,1,110,8|8,0:0|0:0,0:0:0:0:
300,132,40882,1,8,0:0:0:0:
300,132,40955,1,0,0:0:0:0:
300,132,41028,1,0,0:0:0:0:
200,92,41174,6,0,P|236:52|324:20,2,110,0|8|0,0:0|0:0|0:0,0:0:0:0:
300,132,41613,1,0,0:0:0:0:
300,132,41760,1,0,0:0:0:0:
212,252,41906,1,8,0:0:0:0:
212,252,42052,1,0,0:0:0:0:
116,196,42199,6,0,P|160:176|268:152,1,110,0|0,0:0|0:0,0:0:0:0:
396,188,42491,2,0,P|352:208|244:232,1,110,8|0,0:0|0:0,0:0:0:0:
192,92,42784,1,8,0:0:0:0:
192,92,42857,1,0,0:0:0:0:
192,92,42930,1,0,0:0:0:0:
92,144,43077,6,0,P|68:192|92:240,1,110,8|0,0:0|0:0,0:0:0:0:
180,176,43369,1,0,0:0:0:0:
180,176,43516,1,0,0:0:0:0:
132,276,43662,2,0,P|180:300|228:276,1,110,8|0,0:0|0:0,0:0:0:0:
380,108,43955,2,0,P|332:84|284:108,1,110,0|0,0:0|0:0,0:0:0:0:
356,192,44247,1,8,0:0:0:0:
224,60,44394,2,0,P|104:56|12:160,1,220,8|0,0:0|0:0,0:0:0:0:
136,244,44833,2,0,P|173:206|194:154,1,110,8|0,0:0|0:0,0:0:0:0:
32,188,45125,5,0,0:0:0:0:
32,212,45199,1,0,0:0:0:0:
32,232,45272,1,8,0:0:0:0:
32,252,45345,1,0,0:0:0:0:
44,272,45418,1,8,0:0:0:0:
60,288,45491,1,0,0:0:0:0:
76,300,45564,1,8,0:0:0:0:
96,312,45638,1,0,0:0:0:0:
116,316,45711,6,0,B|164:296|164:296|168:316|168:316|248:316,1,110,8|2,0:0|0:0,0:0:0:0:
396,316,46003,2,0,B|348:296|348:296|344:316|344:316|264:316,1,110,8|2,0:0|0:0,0:0:0:0:
116,204,46296,2,0,B|164:184|164:184|168:204|168:204|248:204,1,110,8|2,0:0|0:0,0:0:0:0:
396,204,46589,2,0,B|348:184|348:184|344:204|344:204|264:204,1,110,8|2,0:0|0:0,0:0:0:0:
116,88,46882,2,0,B|164:68|164:68|168:88|168:88|248:88,1,110,8|2,0:0|0:0,0:0:0:0:
396,88,47174,2,0,B|348:68|348:68|344:88|344:88|264:88,1,110,8|2,0:0|0:0,0:0:0:0:
116,88,47467,6,0,P|92:140|92:204,1,110,8|2,0:0|0:0,0:0:0:0:
396,88,47760,2,0,P|420:140|420:204,1,110,8|2,0:0|0:0,0:0:0:0:
180,160,48052,2,0,P|144:208|132:276,1,110,8|2,0:0|0:0,0:0:0:0:
332,160,48345,2,0,P|368:208|380:276,1,110,8|2,0:0|0:0,0:0:0:0:
216,244,48638,2,0,L|200:360,1,110,8|2,0:0|0:0,0:0:0:0:
296,244,48930,2,0,L|312:360,1,110,8|2,0:0|0:0,0:0:0:0:
396,212,49223,5,8,0:0:0:0:
396,212,49369,1,2,0:0:0:0:
256,124,49516,1,8,0:0:0:0:
256,124,49662,1,2,0:0:0:0:
116,212,49808,1,8,0:0:0:0:
116,212,49955,1,2,0:0:0:0:
256,300,50101,1,10,0:0:0:0:
256,300,50174,1,8,0:0:0:0:
256,300,50247,1,8,0:0:0:0:
312,176,50394,5,8,0:0:0:0:
200,208,50540,1,8,0:0:0:0:
292,112,50686,1,10,0:0:0:0:
220,272,50833,1,8,0:0:0:0:
220,84,50979,1,8,0:0:0:0:
292,300,51125,1,8,0:0:0:0:
164,120,51272,6,0,P|128:152|96:208,1,110,10|8,0:0|0:0,0:0:0:0:
348,264,51564,2,0,P|384:232|416:176,1,110,8|8,0:0|0:0,0:0:0:0:
164,120,51857,6,0,B|172:168|172:168|156:192|172:240,1,110,10|8,0:0|0:0,0:0:0:0:
348,264,52150,2,0,B|340:216|340:216|356:192|340:144,1,110,8|8,0:0|0:0,0:0:0:0:
256,44,52442,1,10,0:0:0:0:
256,44,52516,1,8,0:0:0:0:
256,44,52589,1,8,0:0:0:0:
164,120,52735,5,8,0:0:0:0:
256,180,52882,1,8,0:0:0:0:
348,120,53028,1,10,0:0:0:0:
164,240,53174,5,8,0:0:0:0:
256,304,53321,1,8,0:0:0:0:
348,240,53467,1,8,0:0:0:0:
164,360,53613,5,10,0:0:0:0:
164,360,53686,1,8,0:0:0:0:
164,360,53760,1,8,0:0:0:0:
348,360,53906,6,0,P|408:332|452:280,1,110,10|0,0:0|0:0,0:0:0:0:
164,24,54199,2,0,P|104:52|60:104,1,110,2|0,0:0|0:0,0:0:0:0:
56,248,54491,5,8,0:0:0:0:
76,256,54564,1,8,0:0:0:0:
96,264,54638,1,8,0:0:0:0:
116,268,54711,1,8,0:0:0:0:
136,276,54784,1,8,0:0:0:0:
156,272,54857,1,8,0:0:0:0:
176,264,54930,1,8,0:0:0:0:
196,256,55003,1,8,0:0:0:0:
216,248,55077,6,0,P|260:280|320:304,1,110,4|0,0:0|0:0,0:0:0:0:
408,168,55369,2,0,P|349:183|290:226,1,110,8|0,0:0|0:0,0:0:0:0:
452,340,55662,2,0,P|424:288|360:248,1,110
308,336,55955,5,8,0:0:0:0:
308,336,56101,1,8,0:0:0:0:
112,232,56394,1,8,0:0:0:0:
308,136,56686,1,8,0:0:0:0:
112,36,56979,1,8,0:0:0:0:
72,140,57125,6,0,P|140:116|204:72,1,110,8|0,0:0|0:0,0:0:0:0:
440,140,57418,2,0,P|372:116|308:72,1,110
400,36,57711,1,8,0:0:0:0:
400,36,57857,1,0,0:0:0:0:
344,188,58003,2,0,P|299:219|223:231,1,110
268,124,58296,1,8,0:0:0:0:
400,244,58442,2,0,P|439:292|472:376,1,110
352,324,58735,2,0,P|297:354|209:371,1,110,8|8,0:0|0:0,0:0:0:0:
148,332,59028,2,0,P|216:232|188:140,1,220
88,104,59467,5,8,0:0:0:0:
88,104,59540,1,0,0:0:0:0:
88,104,59613,2,0,P|96:172|132:216,1,110
196,128,59906,1,0,0:0:0:0:
16,232,60052,1,8,0:0:0:0:
16,232,60125,1,0,0:0:0:0:
16,232,60199,2,0,P|24:300|60:344,1,110
124,256,60491,1,0,0:0:0:0:
124,256,60638,1,8,0:0:0:0:
196,336,60784,6,0,B|249:287|276:317|326:337|373:294|359:242,1,220
220,176,61223,2,0,P|244:224|300:248,1,110,8|0,0:0|0:0,0:0:0:0:
392,136,61516,2,0,P|336:144|296:176,1,110,8|0,0:0|0:0,0:0:0:0:
184,264,61808,1,8,0:0:0:0:
256,92,61955,1,0,0:0:0:0:
328,264,62101,6,0,B|392:320|392:320|432:280,1,110,8|0,0:0|0:0,0:0:0:0:
328,160,62394,2,0,B|392:216|392:216|432:176,1,110,8|0,0:0|0:0,0:0:0:0:
328,56,62686,2,0,B|392:112|392:112|432:72,1,110,8|0,0:0|0:0,0:0:0:0:
424,80,62906,1,0,0:0:0:0:
440,64,62979,1,8,0:0:0:0:
492,160,63125,5,0,0:0:0:0:
376,160,63418,1,0,0:0:0:0:
256,160,63711,1,0,0:0:0:0:
136,160,64003,1,0,0:0:0:0:
20,160,64296,1,8,0:0:0:0:
76,256,64442,6,0,P|108:304|168:344,1,110,8|0,0:0|0:0,0:0:0:0:
224,128,64735,2,0,P|256:80|316:40,1,110,8|0,0:0|0:0,0:0:0:0:
372,256,65028,2,0,P|404:304|464:344,1,110,8|0,0:0|0:0,0:0:0:0:
460,320,65247,1,0,0:0:0:0:
472,300,65321,1,0,0:0:0:0:
476,192,65467,6,0,L|476:112,1,55,0|0,0:0|2:0,0:0:0:0:
388,152,65760,2,0,L|388:72,1,55,0|0,0:0|2:0,0:0:0:0:
300,112,66052,2,0,L|300:32,1,55,0|0,0:0|2:0,0:0:0:0:
204,112,66345,5,0,0:0:0:0:
204,112,66418,1,0,0:0:0:0:
204,112,66491,1,8,0:0:0:0:
308,272,66638,1,0,0:0:0:0:
308,272,66711,1,0,0:0:0:0:
308,272,66784,2,0,P|264:308|192:340,1,110,0|0,0:0|0:0,0:0:0:0:
140,252,67077,2,0,P|104:212|40:172,1,110,8|0,0:0|0:0,0:0:0:0:
16,284,67369,1,0,0:0:0:0:
16,284,67516,1,0,0:0:0:0:
16,284,67662,1,8,0:0:0:0:
116,124,67808,6,0,P|160:88|232:56,1,110,8|0,0:0|0:0,0:0:0:0:
284,144,68101,2,0,P|320:184|384:224,1,110,0|8,0:0|0:0,0:0:0:0:
452,148,68394,2,0,P|456:252|368:328,1,220
232,240,68833,5,8,0:0:0:0:
328,188,68979,1,0,0:0:0:0:
328,209,69052,1,0,0:0:0:0:
328,232,69125,2,0,B|304:280|304:280|256:316,1,110,0|0,0:0|0:0,0:0:0:0:
136,200,69418,1,8,0:0:0:0:
232,148,69564,1,0,0:0:0:0:
232,169,69638,1,0,0:0:0:0:
232,192,69711,2,0,B|208:240|208:240|160:276,1,110,0|0,0:0|0:0,0:0:0:0:
40,160,70003,1,8,0:0:0:0:
140,116,70150,6,0,B|140:148|140:148|100:192|100:192|100:264|100:264|140:304,1,220
240,352,70589,2,0,B|312:352|312:352|312:312,1,110,8|0,0:0|0:0,0:0:0:0:
312,204,70882,2,0,B|384:204|384:204|384:164,1,110
384,56,71174,1,8,0:0:0:0:
384,56,71247,1,0,0:0:0:0:
384,56,71321,1,0,0:0:0:0:
276,56,71467,6,0,B|204:56|204:56|204:96,1,110
204,204,71760,2,0,B|132:204|132:204|132:244,1,110,8|0,0:0|0:0,0:0:0:0:
132,352,72052,1,0,0:0:0:0:
132,352,72125,1,0,0:0:0:0:
132,352,72199,1,0,0:0:0:0:
44,288,72345,2,0,B|44:208|44:208|80:156,1,110,8|8,0:0|0:0,0:0:0:0:
256,80,72784,1,0,0:0:0:0:
256,80,73077,1,0,0:0:0:0:
450,183,73369,2,0,B|468:208|468:208|468:288,1,110,8|8,0:0|0:0,0:0:0:0:
364,328,73662,5,0,0:0:0:0:
355,319,73735,1,0,0:0:0:0:
347,311,73808,1,0,0:0:0:0:
338,302,73882,1,0,0:0:0:0:
330,294,73955,1,0,0:0:0:0:
321,285,74028,1,0,0:0:0:0:
313,277,74101,1,8,0:0:0:0:
304,268,74174,1,0,0:0:0:0:
296,260,74247,1,0,0:0:0:0:
287,251,74321,1,0,0:0:0:0:
279,243,74394,1,0,0:0:0:0:
270,234,74467,1,0,0:0:0:0:
262,226,74540,1,8,0:0:0:0:
253,217,74613,1,0,0:0:0:0:
245,209,74686,1,0,0:0:0:0:
236,200,74760,1,0,0:0:0:0:
228,192,74833,1,8,0:0:0:0:
219,183,74906,5,0,0:0:0:0:
211,175,74979,1,0,0:0:0:0:
202,166,75052,1,0,0:0:0:0:
194,158,75125,1,8,0:0:0:0:
185,149,75199,1,0,0:0:0:0:
177,141,75272,1,0,0:0:0:0:
168,132,75345,1,0,0:0:0:0:
160,124,75418,1,8,0:0:0:0:
151,115,75491,1,0,0:0:0:0:
143,107,75564,1,8,0:0:0:0:
134,98,75638,1,8,0:0:0:0:
126,90,75711,1,8,0:0:0:0:
117,81,75784,1,8,0:0:0:0:
109,73,75857,1,8,0:0:0:0:
100,64,75930,1,8,0:0:0:0:
92,56,76003,1,8,0:0:0:0:
83,47,76077,1,8,0:0:0:0:
75,39,76150,6,0,P|140:20|200:16,1,110,4|0,0:0|0:0,0:0:0:0:
252,100,76442,2,0,P|317:116|371:142,1,110,8|0,0:0|0:0,0:0:0:0:
376,244,76735,2,0,P|424:290|458:340,1,110
356,132,77028,6,0,P|412:94|468:73,1,110,8|0,0:0|0:0,0:0:0:0:
188,221,77321,2,0,P|218:160|256:113,1,110
89,380,77613,2,0,P|85:312|94:253,2,110,8|0|0,0:0|0:0|0:0,0:0:0:0:
184,324,78052,1,0,0:0:0:0:
184,324,78199,1,8,0:0:0:0:
184,324,78345,1,0,0:0:0:0:
423,380,78491,6,0,P|426:312|417:253,1,110
328,324,78784,2,0,P|288:292|244:224,1,110,8|0,0:0|0:0,0:0:0:0:
184,60,79077,2,0,P|224:92|268:160,1,110
89,4,79369,2,0,P|85:71|94:130,1,110,8|0,0:0|0:0,0:0:0:0:
89,380,79662,6,0,P|85:312|94:253,1,110
172,192,79955,1,8,0:0:0:0:
60,192,80101,2,0,L|180:192,1,110
256,124,80394,1,0,0:0:0:0:
340,192,80540,1,8,0:0:0:0:
340,192,80613,1,0,0:0:0:0:
340,192,80686,1,0,0:0:0:0:
396,96,80833,6,0,P|456:124|508:196,1,110,4|0,0:0|0:0,0:0:0:0:
396,288,81125,2,0,P|456:260|508:188,1,110,8|0,0:0|0:0,0:0:0:0:
268,192,81418,2,0,L|380:192,1,110
268,192,81711,1,8,0:0:0:0:
268,192,81784,1,0,0:0:0:0:
268,192,81857,1,0,0:0:0:0:
116,96,82003,6,0,P|56:124|4:196,1,110
116,288,82296,2,0,P|56:260|4:188,1,110,8|0,0:0|0:0,0:0:0:0:
244,192,82589,2,0,L|132:192,1,110
244,192,82882,1,8,0:0:0:0:
244,192,82955,1,0,0:0:0:0:
244,192,83028,1,0,0:0:0:0:
256,192,83174,12,8,84052,0:0:0:0:
427,192,84345,5,8,0:0:0:0:
406,192,84418,1,0,0:0:0:0:
385,192,84491,1,8,0:0:0:0:
364,192,84564,1,0,0:0:0:0:
342,192,84638,1,8,0:0:0:0:
321,192,84711,1,0,0:0:0:0:
300,192,84784,1,8,0:0:0:0:
279,192,84857,1,0,0:0:0:0:
258,192,84930,5,8,0:0:0:0:
237,192,85003,1,0,0:0:0:0:
215,192,85077,1,8,0:0:0:0:
194,192,85150,1,0,0:0:0:0:
173,192,85223,1,8,0:0:0:0:
152,192,85296,1,8,0:0:0:0:
131,192,85369,1,8,0:0:0:0:
109,192,85442,1,8,0:0:0:0:
86,192,85516,2,0,P|112:136|160:88,1,110,4|0,0:0|0:0,0:0:0:0:
426,192,85808,2,0,P|400:248|352:296,2,110,8|0|0,0:0|0:0|0:0,0:0:0:0:
332,56,86247,5,0,0:0:0:0:
312,44,86321,1,0,0:0:0:0:
292,36,86394,1,8,0:0:0:0:
272,36,86467,1,0,0:0:0:0:
252,36,86540,1,0,0:0:0:0:
232,44,86613,1,0,0:0:0:0:
212,56,86686,2,0,P|178:98|156:172,1,110
300,328,86979,2,0,P|333:285|356:212,2,110,8|0|0,0:0|0:0|0:0,0:0:0:0:
136,352,87418,5,0,0:0:0:0:
116,348,87491,1,0,0:0:0:0:
96,340,87564,1,8,0:0:0:0:
76,328,87638,1,0,0:0:0:0:
60,316,87711,1,0,0:0:0:0:
52,296,87784,1,0,0:0:0:0:
48,276,87857,2,0,P|72:224|120:176,1,110
252,104,88150,2,0,P|216:142|192:194,1,110,8|0,0:0|0:0,0:0:0:0:
260,280,88442,2,0,P|295:241|319:189,1,110
464,108,88735,2,0,P|440:160|392:208,1,110,8|0,0:0|0:0,0:0:0:0:
472,288,89028,5,8,0:0:0:0:
404,200,89174,1,8,0:0:0:0:
336,288,89321,1,8,0:0:0:0:
268,200,89467,2,0,P|200:208|144:232,1,110
72,288,89760,1,8,0:0:0:0:
48,180,89906,1,8,0:0:0:0:
52,160,89979,1,0,0:0:0:0:
60,140,90052,1,0,0:0:0:0:
72,124,90125,1,0,0:0:0:0:
92,112,90199,6,0,P|136:136|200:156,1,110,4|0,0:0|0:0,0:0:0:0:
256,64,90491,1,8,0:0:0:0:
420,112,90638,2,0,P|376:136|319:154,1,110
256,64,90930,1,0,0:0:0:0:
256,176,91077,1,8,0:0:0:0:
256,197,91150,1,0,0:0:0:0:
256,218,91223,1,0,0:0:0:0:
256,239,91296,1,0,0:0:0:0:
256,260,91369,6,0,P|208:288|108:308,1,110,4|0,0:0|0:0,0:0:0:0:
120,200,91662,1,8,0:0:0:0:
256,260,91808,2,0,P|304:288|404:308,1,110
392,200,92101,1,0,0:0:0:0:
392,200,92174,1,0,0:0:0:0:
392,200,92247,1,8,0:0:0:0:
392,200,92321,1,0,0:0:0:0:
392,200,92394,1,0,0:0:0:0:
392,200,92467,1,0,0:0:0:0:
376,184,92540,5,0,0:0:0:0:
360,168,92613,1,0,0:0:0:0:
344,152,92686,1,0,0:0:0:0:
328,136,92760,1,0,0:0:0:0:
312,120,92833,1,8,0:0:0:0:
296,104,92906,1,0,0:0:0:0:
280,88,92979,1,0,0:0:0:0:
260,96,93052,5,0,0:0:0:0:
240,104,93125,1,0,0:0:0:0:
220,112,93199,1,0,0:0:0:0:
200,120,93272,1,8,0:0:0:0:
180,128,93345,1,0,0:0:0:0:
160,136,93418,1,8,0:0:0:0:
140,128,93491,5,0,0:0:0:0:
120,116,93564,1,8,0:0:0:0:
100,104,93638,1,0,0:0:0:0:
80,92,93711,2,0,L|12:184,1,110,8|0,0:0|0:0,0:0:0:0:
112,232,94003,2,0,L|44:324,1,110,8|0,0:0|0:0,0:0:0:0:
256,252,94442,5,8,0:0:0:0:
340,180,94589,1,8,0:0:0:0:
424,252,94735,1,8,0:0:0:0:
340,324,94882,1,4,0:0:0:0:
256,192,101760,12,0,102930,0:0:0:0:
148,100,103223,5,0,0:0:0:0:
148,121,103296,1,0,0:0:0:0:
148,142,103369,1,8,0:0:0:0:
256,168,103516,1,0,0:0:0:0:
256,189,103589,1,0,0:0:0:0:
256,210,103662,1,8,0:0:0:0:
364,228,103808,1,0,0:0:0:0:
364,250,103882,1,0,0:0:0:0:
364,271,103955,1,8,0:0:0:0:
364,292,104028,1,0,0:0:0:0:
364,313,104101,6,0,L|220:313,1,110
144,312,104394,1,0,0:0:0:0:
228,240,104540,2,0,L|96:240,1,110,8|0,0:0|0:0,0:0:0:0:
8,240,104833,1,0,0:0:0:0:
8,218,104906,1,0,0:0:0:0:
8,196,104979,1,0,0:0:0:0:
8,174,105052,1,0,0:0:0:0:
8,152,105125,1,8,0:0:0:0:
96,84,105272,6,0,P|136:128|188:164,1,110,0|0,0:0|2:0,0:0:0:0:
416,84,105564,2,0,P|376:128|324:164,1,110,0|0,0:0|2:0,0:0:0:0:
96,300,105857,2,0,P|136:256|188:220,1,110,0|0,0:0|2:0,0:0:0:0:
416,300,106150,1,0,0:0:0:0:
416,300,106223,1,0,0:0:0:0:
416,300,106296,1,8,0:0:0:0:
416,190,106442,1,0,0:0:0:0:
416,192,106516,1,0,0:0:0:0:
416,192,106589,6,0,P|364:224|308:240,1,110
96,192,106882,2,0,P|148:160|204:144,1,110,8|0,0:0|0:0,0:0:0:0:
256,236,107174,1,0,0:0:0:0:
316,144,107321,1,0,0:0:0:0:
194,144,107467,1,8,0:0:0:0:
156,248,107613,2,0,P|184:300|236:336,1,110
356,136,107906,2,0,P|328:84|276:48,1,110,0|8,0:0|0:0,0:0:0:0:
176,56,108199,2,0,B|112:76|120:152|120:152|76:140|20:96,1,220
32,216,108638,1,8,0:0:0:0:
32,237,108711,1,0,0:0:0:0:
32,258,108784,1,0,0:0:0:0:
124,320,108930,6,0,P|184:340|252:352,1,110
204,240,109223,2,0,P|264:220|332:208,1,110,8|0,0:0|0:0,0:0:0:0:
388,288,109516,1,0,0:0:0:0:
388,288,109662,1,0,0:0:0:0:
472,216,109808,1,8,0:0:0:0:
472,216,109955,1,0,0:0:0:0:
472,106,110101,5,0,0:0:0:0:
472,127,110174,1,0,0:0:0:0:
472,148,110247,1,0,0:0:0:0:
364,174,110394,1,8,0:0:0:0:
364,195,110467,1,0,0:0:0:0:
364,216,110540,1,0,0:0:0:0:
256,234,110686,1,0,0:0:0:0:
256,256,110760,1,0,0:0:0:0:
256,277,110833,1,0,0:0:0:0:
256,298,110906,1,0,0:0:0:0:
256,318,110979,1,8,0:0:0:0:
256,192,111125,12,0,112150,0:0:0:0:
256,192,112296,12,0,113613,2:0:0:0:
256,192,121808,12,0,122833,0:0:0:0:
256,72,123125,5,0,0:0:0:0:
144,260,123418,1,0,0:0:0:0:
368,260,123711,1,8,0:0:0:0:
268,216,123857,6,0,P|324:232|376:268,1,110,0|4,0:0|0:0,0:0:0:0:
256,180,124150,2,0,L|256:64,1,110
244,216,124442,2,0,P|188:232|136:268,1,110,8|0,0:0|0:0,0:0:0:0:
272,348,124735,5,8,0:0:0:0:
292,344,124808,1,8,0:0:0:0:
316,340,124882,1,8,0:0:0:0:
336,332,124955,1,8,0:0:0:0:
356,324,125028,1,8,0:0:0:0:
372,312,125101,1,0,0:0:0:0:
388,300,125174,1,0,0:0:0:0:
468,96,125467,1,0,0:0:0:0:
256,152,125760,1,0,0:0:0:0:
44,96,126052,1,8,0:0:0:0:
44,96,126125,1,8,0:0:0:0:
44,96,126199,6,0,P|104:124|136:196,1,110,8|0,0:0|0:0,0:0:0:0:
0,280,126491,2,0,P|24:236|72:196,1,110,4|0,0:0|0:0,0:0:0:0:
236,256,126784,2,0,P|184:252|108:208,1,110,8|0,0:0|0:0,0:0:0:0:
208,148,127077,1,0,0:0:0:0:
260,336,127223,1,0,0:0:0:0:
152,312,127369,1,8,0:0:0:0:
336,272,127516,2,0,P|384:236|432:176,1,110
320,148,127808,2,0,P|343:92|355:16,1,110,0|8,0:0|0:0,0:0:0:0:
176,108,128101,2,0,B|256:96|256:96|212:204|328:232,1,220,8|0,0:0|0:0,0:0:0:0:
392,188,128540,5,8,0:0:0:0:
392,188,128613,1,0,0:0:0:0:
392,188,128686,2,0,L|428:304,1,110
328,344,128979,1,0,0:0:0:0:
256,264,129125,1,8,0:0:0:0:
256,264,129199,1,0,0:0:0:0:
256,264,129272,2,0,P|224:304|160:356,1,110
80,296,129564,2,0,P|104:232|96:148,1,110,0|8,0:0|0:0,0:0:0:0:
60,88,129857,6,0,P|96:168|252:248,1,220,8|0,0:0|0:0,0:0:0:0:
308,144,130296,2,0,P|304:92|272:40,1,110,8|0,0:0|0:0,0:0:0:0:
204,240,130589,2,0,P|208:292|240:344,1,110
400,304,130882,1,8,0:0:0:0:
416,288,130955,1,8,0:0:0:0:
432,272,131028,1,8,0:0:0:0:
444,252,131101,1,8,0:0:0:0:
448,232,131174,2,0,L|448:116,1,110
360,188,131467,2,0,P|316:212|256:212,1,110,8|0,0:0|0:0,0:0:0:0:
128,108,131760,1,8,0:0:0:0:
44,248,131906,1,8,0:0:0:0:
172,352,132052,1,8,0:0:0:0:
256,212,132199,6,0,L|312:268,1,55,0|0,0:0|2:0,0:0:0:0:
344,124,132491,2,0,L|400:180,1,55,0|0,0:0|2:0,0:0:0:0:
256,212,132784,2,0,L|200:268,1,55,0|0,0:0|2:0,0:0:0:0:
168,124,133077,2,0,L|112:180,1,55,8|8,0:0|0:0,0:0:0:0:
52,40,133369,6,0,P|152:28|268:60,1,220,4|0,0:0|0:0,0:0:0:0:
344,124,133808,2,0,P|296:152|240:220,1,110,8|0,0:0|0:0,0:0:0:0:
252,300,134101,1,8,0:0:0:0:
264,324,134174,1,8,0:0:0:0:
284,340,134247,1,8,0:0:0:0:
308,352,134321,1,8,0:0:0:0:
336,356,134394,1,8,0:0:0:0:
364,356,134467,1,8,0:0:0:0:
392,352,134540,6,0,P|424:308|448:248,1,110,0|0,0:0|2:0,0:0:0:0:
416,40,134833,2,0,P|372:76|320:96,1,110,0|0,0:0|2:0,0:0:0:0:
189,95,135125,2,0,P|140:76|96:40,1,110,0|0,0:0|2:0,0:0:0:0:
66,257,135418,2,0,P|88:308|120:352,1,110,8|8,0:0|0:0,0:0:0:0:
188,264,135711,5,0,0:0:0:0:
284,316,135857,2,0,P|348:308|416:284,1,110
476,224,136150,2,0,P|412:216|344:192,1,110,8|0,0:0|0:0,0:0:0:0:
284,132,136442,2,0,P|348:124|416:100,1,110
312,36,136735,1,8,0:0:0:0:
392,112,136882,2,0,P|360:200|272:296,1,220
364,360,137321,1,8,0:0:0:0:
276,292,137467,2,0,P|184:244|64:216,1,220
28,320,137906,5,8,0:0:0:0:
28,320,137979,1,0,0:0:0:0:
28,320,138052,2,0,P|48:332|136:304,1,110
212,244,138345,1,0,0:0:0:0:
212,352,138491,1,8,0:0:0:0:
212,352,138564,1,0,0:0:0:0:
212,352,138638,2,0,P|232:364|320:336,1,110
284,184,138930,2,0,P|292:206|379:238,1,110,0|8,0:0|0:0,0:0:0:0:
456,104,139223,2,0,B|388:72|340:136|340:136|292:48,1,220,8|0,0:0|0:0,0:0:0:0:
192,36,139662,2,0,P|180:84|148:140,1,110,8|0,0:0|0:0,0:0:0:0:
192,348,139955,2,0,P|180:300|148:244,1,110,8|0,0:0|0:0,0:0:0:0:
56,208,140247,5,8,0:0:0:0:
56,208,140394,1,0,0:0:0:0:
152,152,140540,1,8,0:0:0:0:
152,152,140686,1,0,0:0:0:0:
256,192,140833,1,8,0:0:0:0:
256,192,140979,1,0,0:0:0:0:
360,152,141125,1,8,0:0:0:0:
360,152,141272,1,8,0:0:0:0:
360,152,141345,1,8,0:0:0:0:
360,152,141418,1,8,0:0:0:0:
456,208,141564,5,0,0:0:0:0:
364,272,141857,1,0,0:0:0:0:
256,300,142150,1,0,0:0:0:0:
256,192,142442,1,0,0:0:0:0:
256,192,142589,1,8,0:0:0:0:
256,192,142662,1,8,0:0:0:0:
256,192,142735,1,8,0:0:0:0:
256,84,143028,5,0,0:0:0:0:
148,112,143321,1,0,0:0:0:0:
56,176,143613,1,0,0:0:0:0:
56,176,143760,1,8,0:0:0:0:
56,176,143833,1,0,0:0:0:0:
56,176,143906,1,8,0:0:0:0:
256,192,144052,12,4,145223,0:0:0:0:
