osu file format v13

[General]
AudioFilename: ON VA NIQUER CE SOIR !!.mp3
AudioLeadIn: 0
PreviewTime: -1
Countdown: 0
SampleSet: None
StackLeniency: 0.7
Mode: 1
LetterboxInBreaks: 1
WidescreenStoryboard: 1

[Editor]
DistanceSpacing: 0.7
BeatDivisor: 4
GridSize: 8
TimelineZoom: 1.8

[Metadata]
Title:On va niquer ce soir !!
TitleUnicode:On va niquer ce soir !!
Artist:123Lunatic
ArtistUnicode:123Lunatic
Creator:Erodote
Version:PACHA VA ONIQUER CE SOIIIIR
Source:Youtube
Tags:Ace Attorney Cornered Remix Youtube Poop
BeatmapID:507414
BeatmapSetID:215846

[Difficulty]
HPDrainRate:6
CircleSize:4
OverallDifficulty:7
ApproachRate:9
SliderMultiplier:1.6
SliderTickRate:1

[Events]
//Background and Video events
0,0,"dc925c30a29205c863aa98eeb2321aaa.jpg",0,0
//Break Periods
//Storyboard Layer 0 (Background)
//Storyboard Layer 1 (Fail)
//Storyboard Layer 2 (Pass)
//Storyboard Layer 3 (Foreground)
//Storyboard Sound Samples
//Background Colour Transformations
3,100,163,162,255

[TimingPoints]
19650,405.405405405405,4,1,0,100,1,0

[Colours]
Combo1 : 175,56,239
Combo2 : 15,117,255
Combo3 : 255,139,23
Combo4 : 57,202,57

[HitObjects]
256,192,19650,5,8,0:0:0:0:
256,192,19852,1,0,0:0:0:0:
248,192,19954,1,8,0:0:0:0:
256,192,20156,1,8,0:0:0:0:
256,192,20258,1,8,0:0:0:0:
256,192,20460,1,0,0:0:0:0:
256,192,20562,1,8,0:0:0:0:
256,192,20764,1,0,0:0:0:0:
256,192,20866,1,8,0:0:0:0:
256,192,20967,1,0,0:0:0:0:
256,192,21068,1,8,0:0:0:0:
256,192,21271,1,8,0:0:0:0:
256,192,21474,1,0,0:0:0:0:
256,192,21575,1,8,0:0:0:0:
256,192,21778,1,0,0:0:0:0:
256,192,21879,1,8,0:0:0:0:
256,192,22082,1,0,0:0:0:0:
256,192,22183,1,8,0:0:0:0:
256,192,22386,1,0,0:0:0:0:
256,192,22487,1,8,0:0:0:0:
256,192,22589,1,0,0:0:0:0:
256,192,22690,1,0,0:0:0:0:
256,192,22791,1,0,0:0:0:0:
256,192,22893,1,8,0:0:0:0:
256,192,23095,1,0,0:0:0:0:
256,192,23197,1,0,0:0:0:0:
256,192,23298,1,8,0:0:0:0:
256,192,23501,1,0,0:0:0:0:
256,192,23704,1,8,0:0:0:0:
272,192,23906,1,0,0:0:0:0:
272,192,24109,1,8,0:0:0:0:
272,192,24210,1,8,0:0:0:0:
272,192,24312,1,0,0:0:0:0:
272,192,24514,1,8,0:0:0:0:
264,192,24717,1,0,0:0:0:0:
264,192,24818,1,8,0:0:0:0:
264,192,25021,1,0,0:0:0:0:
264,192,25122,1,8,0:0:0:0:
264,192,25325,1,8,0:0:0:0:
264,192,25427,1,0,0:0:0:0:
264,192,25528,1,0,0:0:0:0:
264,184,25629,1,0,0:0:0:0:
264,184,25731,1,8,0:0:0:0:
264,184,25832,1,0,0:0:0:0:
264,184,25933,1,0,0:0:0:0:
264,184,26035,1,0,0:0:0:0:
264,192,26136,1,8,0:0:0:0:
256,192,26339,1,0,0:0:0:0:
256,192,26440,1,8,0:0:0:0:
256,192,26643,1,8,0:0:0:0:
256,192,26744,1,8,0:0:0:0:
264,192,26947,1,0,0:0:0:0:
264,192,27048,1,8,0:0:0:0:
256,192,27251,1,8,0:0:0:0:
256,192,27352,1,0,0:0:0:0:
256,192,27555,1,8,0:0:0:0:
256,192,27758,1,12,0:0:0:0:
256,192,28163,1,0,0:0:0:0:
264,192,28366,1,8,0:0:0:0:
264,192,28568,1,0,0:0:0:0:
256,192,28974,1,8,0:0:0:0:
256,192,29379,1,0,0:0:0:0:
256,192,29582,1,0,0:0:0:0:
256,192,29785,1,8,0:0:0:0:
256,192,29987,1,0,0:0:0:0:
256,192,30190,1,8,0:0:0:0:
256,192,30393,1,0,0:0:0:0:
256,192,30595,1,0,0:0:0:0:
256,192,30798,1,8,0:0:0:0:
256,192,31001,1,8,0:0:0:0:
256,192,31102,1,0,0:0:0:0:
256,192,31204,1,0,0:0:0:0:
256,192,31305,1,0,0:0:0:0:
256,192,31406,1,8,0:0:0:0:
256,192,31609,1,0,0:0:0:0:
256,192,31812,1,8,0:0:0:0:
256,200,32014,1,0,0:0:0:0:
256,200,32116,1,0,0:0:0:0:
256,200,32217,1,8,0:0:0:0:
256,192,32420,1,0,0:0:0:0:
256,192,32622,1,8,0:0:0:0:
256,192,32724,1,0,0:0:0:0:
256,192,32825,1,0,0:0:0:0:
256,192,32927,1,0,0:0:0:0:
256,192,33028,1,8,0:0:0:0:
256,192,33129,1,0,0:0:0:0:
256,192,33231,1,0,0:0:0:0:
256,192,33332,1,0,0:0:0:0:
256,192,33433,1,8,0:0:0:0:
256,192,33535,1,8,0:0:0:0:
256,192,33636,1,0,0:0:0:0:
256,192,33737,1,0,0:0:0:0:
256,192,33839,1,8,0:0:0:0:
256,192,33940,1,8,0:0:0:0:
256,192,34041,1,0,0:0:0:0:
256,192,34143,1,0,0:0:0:0:
256,192,34244,1,8,0:0:0:0:
256,192,34447,1,0,0:0:0:0:
256,192,34548,1,8,0:0:0:0:
256,192,34751,1,8,0:0:0:0:
256,192,34852,1,8,0:0:0:0:
256,192,35055,1,0,0:0:0:0:
256,192,35156,1,8,0:0:0:0:
256,192,35359,1,0,0:0:0:0:
256,192,35460,1,8,0:0:0:0:
256,192,35562,1,0,0:0:0:0:
256,192,35663,1,8,0:0:0:0:
256,192,35866,1,8,0:0:0:0:
256,192,36068,1,0,0:0:0:0:
264,192,36271,1,8,0:0:0:0:
256,192,36372,1,0,0:0:0:0:
256,192,36474,1,8,0:0:0:0:
256,184,36677,1,0,0:0:0:0:
256,192,36879,5,8,0:0:0:0:
56,232,37082,2,0,P|264:64|440:176,1,480
256,192,38602,1,0,0:0:0:0:
256,192,38906,1,0,0:0:0:0:
256,192,39109,1,8,0:0:0:0:
256,192,39210,1,8,0:0:0:0:
256,200,39312,1,8,0:0:0:0:
248,192,39514,1,0,0:0:0:0:
240,192,39717,1,8,0:0:0:0:
248,200,39920,1,4,0:0:0:0:
248,200,40325,1,0,0:0:0:0:
240,208,40528,1,8,0:0:0:0:
240,208,40731,1,0,0:0:0:0:
240,200,40832,1,0,0:0:0:0:
240,200,40933,1,0,0:0:0:0:
248,208,41136,1,8,0:0:0:0:
240,208,41339,1,0,0:0:0:0:
240,208,41541,1,12,0:0:0:0:
240,208,41947,1,8,0:0:0:0:
240,208,42149,1,0,0:0:0:0:
240,208,42352,1,8,0:0:0:0:
240,208,42454,1,0,0:0:0:0:
248,208,42555,1,8,0:0:0:0:
248,208,42656,1,0,0:0:0:0:
240,208,42758,1,8,0:0:0:0:
248,208,42960,1,0,0:0:0:0:
248,208,43163,1,0,0:0:0:0:
248,208,43264,1,8,0:0:0:0:
240,208,43366,1,8,0:0:0:0:
240,208,43467,1,8,0:0:0:0:
240,208,43568,1,0,0:0:0:0:
248,208,43771,1,8,0:0:0:0:
240,208,43974,1,0,0:0:0:0:
240,208,44075,1,0,0:0:0:0:
240,208,44177,1,8,0:0:0:0:
248,208,44278,1,8,0:0:0:0:
248,208,44380,1,0,0:0:0:0:
248,208,44481,1,0,0:0:0:0:
248,208,44582,1,8,0:0:0:0:
248,208,44683,1,8,0:0:0:0:
248,208,44785,1,0,0:0:0:0:
240,208,44886,1,8,0:0:0:0:
240,208,44987,1,0,0:0:0:0:
240,208,45089,1,8,0:0:0:0:
248,208,45190,1,0,0:0:0:0:
240,208,45393,1,8,0:0:0:0:
240,208,45595,1,4,0:0:0:0:
248,208,46001,1,8,0:0:0:0:
248,208,46204,1,8,0:0:0:0:
240,208,46406,1,8,0:0:0:0:
248,208,46812,1,8,0:0:0:0:
248,208,46913,1,8,0:0:0:0:
248,208,47014,1,0,0:0:0:0:
248,208,47116,1,8,0:0:0:0:
248,208,47217,1,0,0:0:0:0:
248,208,47622,1,8,0:0:0:0:
248,208,47825,1,0,0:0:0:0:
248,208,48028,1,8,0:0:0:0:
248,208,48433,1,0,0:0:0:0:
248,208,48636,1,8,0:0:0:0:
248,208,48839,1,0,0:0:0:0:
248,208,48940,1,0,0:0:0:0:
248,208,49041,1,8,0:0:0:0:
248,208,49143,1,0,0:0:0:0:
248,208,49244,1,8,0:0:0:0:
248,208,49447,1,0,0:0:0:0:
248,200,49649,1,8,0:0:0:0:
248,208,49751,1,8,0:0:0:0:
248,208,49852,1,0,0:0:0:0:
248,208,49954,1,0,0:0:0:0:
248,208,50055,1,8,0:0:0:0:
248,208,50258,1,0,0:0:0:0:
248,200,50460,1,0,0:0:0:0:
248,200,50562,1,0,0:0:0:0:
248,200,50663,1,8,0:0:0:0:
248,200,50866,1,0,0:0:0:0:
248,200,50967,1,0,0:0:0:0:
248,200,51068,1,8,0:0:0:0:
248,200,51271,1,0,0:0:0:0:
256,200,51474,1,0,0:0:0:0:
256,200,51524,1,0,0:0:0:0:
256,192,51575,1,0,0:0:0:0:
256,192,51626,1,0,0:0:0:0:
256,192,51677,1,0,0:0:0:0:
256,200,51879,1,8,0:0:0:0:
256,200,52082,1,0,0:0:0:0:
256,200,52183,1,8,0:0:0:0:
256,200,52285,1,8,0:0:0:0:
256,200,52386,1,0,0:0:0:0:
256,200,52589,1,8,0:0:0:0:
256,200,52690,1,0,0:0:0:0:
256,200,52893,1,8,0:0:0:0:
256,200,53095,1,0,0:0:0:0:
256,200,53146,1,8,0:0:0:0:
256,200,53197,1,8,0:0:0:0:
256,200,53247,1,8,0:0:0:0:
256,200,53298,1,0,0:0:0:0:
256,200,53501,1,8,0:0:0:0:
256,200,53704,1,0,0:0:0:0:
256,200,53906,1,0,0:0:0:0:
256,200,54008,1,8,0:0:0:0:
256,200,54210,1,8,0:0:0:0:
256,200,54312,1,8,0:0:0:0:
256,200,54514,1,0,0:0:0:0:
256,200,54616,1,8,0:0:0:0:
256,208,54818,1,0,0:0:0:0:
256,208,54920,1,8,0:0:0:0:
256,208,55021,1,0,0:0:0:0:
256,208,55122,1,8,0:0:0:0:
256,208,55325,1,8,0:0:0:0:
256,208,55528,1,0,0:0:0:0:
256,208,55629,1,8,0:0:0:0:
256,208,55832,1,0,0:0:0:0:
256,208,55933,1,8,0:0:0:0:
256,208,56136,1,8,0:0:0:0:
256,208,56237,1,0,0:0:0:0:
264,208,56339,1,0,0:0:0:0:
256,208,56440,1,8,0:0:0:0:
256,208,56541,1,0,0:0:0:0:
256,208,56643,1,0,0:0:0:0:
256,208,56744,1,8,0:0:0:0:
256,208,56845,1,8,0:0:0:0:
256,208,56947,1,0,0:0:0:0:
256,208,57251,1,8,0:0:0:0:
264,208,57555,1,0,0:0:0:0:
256,200,57859,1,8,0:0:0:0:
256,200,58163,1,0,0:0:0:0:
256,200,58467,1,12,0:0:0:0:
