osu file format v13

[General]
AudioFilename: ON VA NIQUER CE SOIR !!.mp3
AudioLeadIn: 0
PreviewTime: -1
Countdown: 0
SampleSet: None
StackLeniency: 0.7
Mode: 0
LetterboxInBreaks: 0
WidescreenStoryboard: 1

[Editor]
Bookmarks: 206,19665,26151,32638,39124,45611,52097,58584
DistanceSpacing: 1
BeatDivisor: 4
GridSize: 4
TimelineZoom: 2.3

[Metadata]
Title:On va niquer ce soir !!
TitleUnicode:On va niquer ce soir !!
Artist:123Lunatic
ArtistUnicode:123Lunatic
Creator:Erodote
Version:On va Cere ce soir !
Source:Youtube
Tags:Ace Attorney Cornered Remix Youtube Poop Kurosanyan
BeatmapID:516210
BeatmapSetID:215846

[Difficulty]
HPDrainRate:5
CircleSize:4
OverallDifficulty:5
ApproachRate:9.4
SliderMultiplier:2.99999990463257
SliderTickRate:1

[Events]
//Background and Video events
0,0,"dc925c30a29205c863aa98eeb2321aaa.jpg",0,0
//Break Periods
//Storyboard Layer 0 (Background)
//Storyboard Layer 1 (Fail)
//Storyboard Layer 2 (Pass)
//Storyboard Layer 3 (Foreground)
//Storyboard Sound Samples
//Background Colour Transformations
3,100,163,162,255

[TimingPoints]
206,405.405405405405,4,2,0,60,1,0

[Colours]
Combo1 : 249,66,148
Combo2 : 201,1,111
Combo3 : 235,20,252

[HitObjects]
80,68,19665,5,0,0:0:0:0:
380,192,19969,1,0,0:0:0:0:
132,336,20273,1,0,0:0:0:0:
224,40,20577,1,0,0:0:0:0:
360,272,20881,2,0,P|376:312|476:356,1,149.999995231628,0|0,0:0|0:0,0:0:0:0:
460,255,21287,2,0,P|410:161|268:128,1,224.999992847443,0|0,0:0|0:0,0:0:0:0:
96,304,21895,1,0,0:0:0:0:
144,136,22097,2,0,P|152:96|152:60,1,74.9999976158142
276,84,22401,1,0,0:0:0:0:
313,98,22503,1,0,0:0:0:0:
349,98,22604,1,0,0:0:0:0:
88,88,22908,6,0,B|58:148|91:202|91:202|99:235|64:301,1,224.999992847443
332,344,23516,2,0,P|465:262|457:194,1,224.999992847443
176,68,24124,1,0,0:0:0:0:
160,104,24226,1,0,0:0:0:0:
128,132,24327,1,0,0:0:0:0:
80,52,24530,2,0,B|136:75|216:52|216:52|217:113|248:164,1,224.999992847443
360,324,25138,1,0,0:0:0:0:
400,144,25341,1,0,0:0:0:0:
400,144,25442,1,0,0:0:0:0:
184,76,25746,1,0,0:0:0:0:
184,76,25847,1,0,0:0:0:0:
184,76,25949,1,0,0:0:0:0:
47,112,26151,6,0,B|47:148|39:169|39:169|43:204|68:228|68:228|72:262|61:293|61:293|84:349,1,224.999992847443
81,332,26760,2,0,B|152:340|183:315|183:315|175:309|175:309|167:317|167:317|225:340|305:338,1,224.999992847443
424,180,27368,2,0,P|424:116|456:68,1,74.9999976158143
376,52,27570,2,0,P|344:96|220:128,1,149.999995231629
32,120,28077,2,0,P|24:160|32:240,1,74.9999976158143
119,145,28280,2,0,P|148:70|204:19,1,149.999995231629
252,77,28584,2,0,B|264:108|324:116|320:112|320:112|312:128|312:128|340:124|340:124|300:112|300:112|337:111|337:111|376:160|416:180,1,299.999990463257
420,324,29192,6,0,B|364:272|364:272|260:272,1,149.999995231629
140,292,29699,2,0,P|136:264|104:208,1,74.9999976158143
171,167,29901,2,0,P|208:234|210:343,1,149.999995231629
293,344,30205,2,0,P|281:196|190:76,1,299.999990463257
44,108,30814,5,0,0:0:0:0:
84,252,31016,2,0,B|92:288|92:288|68:336,1,74.9999976158143
159,254,31219,2,0,B|151:218|151:218|175:170,1,74.9999976158143
231,228,31422,2,0,B|244:282|244:282|144:362|144:362,2,149.999995231629,0|0|0,0:0|0:0|0:0,0:0:0:0:
219,89,32233,2,0,B|254:74|254:74|273:58|264:35|250:35|240:56|254:74|254:74|298:95,1,149.999995231629
424,324,32638,6,0,B|347:311|300:240|300:240|256:198|208:200,1,224.999992847443
215,201,33246,1,0,0:0:0:0:
187,211,33550,1,0,0:0:0:0:
167,226,33854,2,0,P|154:257|243:268,1,149.999995231629
356,188,34260,1,0,0:0:0:0:
164,68,34564,1,0,0:0:0:0:
224,284,34868,1,0,0:0:0:0:
239,138,35172,2,0,B|212:108|206:51|206:51|185:100|152:160,1,149.999995231629
136,244,35577,1,0,0:0:0:0:
416,64,35881,5,0,0:0:0:0:
353,276,36185,2,0,L|300:356,1,74.9999976158143
180,324,36388,2,0,L|36:204,1,149.999995231629
107,111,36692,2,0,L|408:40,1,299.999990463257
452,184,37300,1,0,0:0:0:0:
352,276,37503,2,0,L|292:340,1,74.9999976158143
216,320,37705,2,0,L|120:336,1,74.9999976158143
88,280,37908,2,0,P|76:180|32:84,1,149.999995231629
40,60,38212,2,0,B|148:35|216:148|216:148|312:152|353:64,1,374.999988079071
440,48,38922,6,0,L|465:211,1,149.999995231629
320,372,39428,1,0,0:0:0:0:
240,160,39733,1,0,0:0:0:0:
230,141,39834,1,0,0:0:0:0:
213,124,39935,1,0,0:0:0:0:
104,320,40239,1,0,0:0:0:0:
192,204,40442,2,0,P|254:160|348:152,1,149.999995231629
456,336,40949,5,0,0:0:0:0:
456,336,41050,1,0,0:0:0:0:
256,236,41253,1,0,0:0:0:0:
220,212,41354,1,0,0:0:0:0:
196,176,41456,1,0,0:0:0:0:
160,32,41658,1,0,0:0:0:0:
368,120,41962,2,0,P|424:168|512:184,1,149.999995231629
437,50,42368,2,0,B|454:64|470:58|462:10|431:8|394:25|369:58|257:55|244:26,1,224.999992847443
48,84,42976,1,0,0:0:0:0:
401,176,43280,1,0,0:0:0:0:
64,312,43584,1,0,0:0:0:0:
64,312,43787,1,0,0:0:0:0:
64,312,43989,2,0,B|104:236|57:118|28:186|136:192|199:178,1,224.999992847443
384,212,44496,5,0,0:0:0:0:
384,212,44597,1,0,0:0:0:0:
296,88,44901,1,0,0:0:0:0:
272,60,45002,1,0,0:0:0:0:
119,54,45205,2,0,P|87:150|1:171,1,149.999995231629
18,71,45611,2,0,P|102:139|282:191,1,224.999992847443
392,52,46219,1,0,0:0:0:0:
319,338,46523,1,0,0:0:0:0:
220,136,46827,2,0,P|183:74|101:37,1,149.999995231629
96,172,47233,2,0,P|183:262|316:211,1,224.999992847443
280,176,47638,6,0,B|272:120|228:72|228:72|232:64,1,74.9999976158143
355,200,47841,2,0,P|391:234|506:264,1,149.999995231629
296,252,48145,2,0,P|244:328|84:298,1,224.999992847443
160,188,48651,2,0,B|171:99|104:40|104:44,1,149.999995231629
12,252,49158,1,0,0:0:0:0:
232,288,49462,1,0,0:0:0:0:
448,232,49766,1,0,0:0:0:0:
392,12,50070,2,0,B|334:10|334:10|291:33|291:33|248:107,1,149.999995231629
392,156,50476,6,0,L|340:80,1,74.9999976158143
288,136,50678,2,0,L|208:72,1,74.9999976158143
180,144,50881,2,0,B|80:104|4:104|4:108,1,149.999995231629
20,180,51185,2,0,P|84:312|335:279,1,374.999988079071
360,188,51895,5,0,0:0:0:0:
364,40,52097,2,0,P|284:96|132:88,1,224.999992847443
396,172,52705,2,0,P|476:204|620:200,1,224.999992847443
431,0,53314,1,0,0:0:0:0:
182,165,53516,1,0,0:0:0:0:
316,300,53719,2,0,P|420:232|355:151,1,224.999992847443
160,38,54327,1,0,0:0:0:0:
108,304,54631,1,0,0:0:0:0:
372,160,54935,2,0,B|429:99|429:99|443:78|427:17|364:71,1,149.999995231629
243,115,55341,2,0,P|161:181|21:196,1,224.999992847443
72,49,55949,2,0,B|103:62|103:62|96:33|96:33|70:49|70:49|124:80|216:97|288:68,1,299.999990463257
420,72,56557,2,0,P|425:140|347:155,1,149.999995231629
202,72,56962,6,0,B|220:76|231:70|234:42|191:27|171:45|175:93|246:87|246:87|258:143|264:250|264:250|249:147|246:89|246:89|274:38|280:18|312:39|314:87|285:101|256:76|270:43,1,599.999980926514
266,247,57976,6,0,B|326:251|362:260|382:272|387:297|387:297|372:324|327:346|271:340|233:344|188:330|159:313|153:291|153:291|157:272|176:262|207:243|275:249,2,524.9999833107,0|0|0,0:0|0:0|0:0,0:0:0:0:
