osu file format v13

[General]
AudioFilename: ON VA NIQUER CE SOIR !!.mp3
AudioLeadIn: 0
PreviewTime: -1
Countdown: 0
SampleSet: None
StackLeniency: 0.7
Mode: 3
LetterboxInBreaks: 1
SpecialStyle: 0
WidescreenStoryboard: 1

[Editor]
DistanceSpacing: 0.7
BeatDivisor: 8
GridSize: 8
TimelineZoom: 1.8

[Metadata]
Title:On va niquer ce soir !!
TitleUnicode:On va niquer ce soir !!
Artist:123Lunatic
ArtistUnicode:123Lunatic
Creator:Erodote
Version:Litepastistime va niquer ! 4K
Source:Youtube
Tags:Ace Attorney Cornered Remix Youtube Poop
BeatmapID:507380
BeatmapSetID:215846

[Difficulty]
HPDrainRate:7
CircleSize:4
OverallDifficulty:7
ApproachRate:9
SliderMultiplier:2.3
SliderTickRate:1

[Events]
//Background and Video events
0,0,"dc925c30a29205c863aa98eeb2321aaa.jpg",0,0
//Break Periods
//Storyboard Layer 0 (Background)
//Storyboard Layer 1 (Fail)
//Storyboard Layer 2 (Pass)
//Storyboard Layer 3 (Foreground)
//Storyboard Sound Samples
//Background Colour Transformations
3,100,163,162,255

[TimingPoints]
19650,405.405405405405,4,2,0,29,1,0

[Colours]
Combo1 : 175,56,239
Combo2 : 15,117,255
Combo3 : 255,139,23
Combo4 : 57,202,57

[HitObjects]
448,192,2116,5,0,0:0:0:0:
192,192,2420,1,0,0:0:0:0:
320,192,2724,1,0,0:0:0:0:
64,192,3028,1,0,0:0:0:0:
192,192,3231,1,0,0:0:0:0:
64,192,3433,1,0,0:0:0:0:
320,192,3737,1,0,0:0:0:0:
448,192,3737,1,0,0:0:0:0:
192,192,4041,1,0,0:0:0:0:
192,192,4345,1,0,0:0:0:0:
320,192,4447,1,0,0:0:0:0:
64,192,4650,1,0,0:0:0:0:
448,192,4650,1,0,0:0:0:0:
192,192,4852,1,0,0:0:0:0:
320,192,4852,1,0,0:0:0:0:
64,192,5055,1,0,0:0:0:0:
192,192,5055,1,0,0:0:0:0:
320,192,5359,1,0,0:0:0:0:
320,192,5663,1,0,0:0:0:0:
320,192,5967,1,0,0:0:0:0:
192,192,6068,1,0,0:0:0:0:
64,192,6271,1,0,0:0:0:0:
320,192,6271,1,0,0:0:0:0:
192,192,6474,1,0,0:0:0:0:
448,192,6474,1,0,0:0:0:0:
64,192,6677,1,0,0:0:0:0:
320,192,6677,1,0,0:0:0:0:
192,192,6981,1,0,0:0:0:0:
320,192,6981,1,0,0:0:0:0:
192,192,7285,1,0,0:0:0:0:
320,192,7285,1,0,0:0:0:0:
64,192,7589,1,0,0:0:0:0:
192,192,7589,1,0,0:0:0:0:
320,192,7893,1,0,0:0:0:0:
64,192,8095,1,0,0:0:0:0:
448,192,8298,1,0,0:0:0:0:
64,192,8602,1,0,0:0:0:0:
192,192,8602,1,0,0:0:0:0:
320,192,8906,1,0,0:0:0:0:
448,192,8906,1,0,0:0:0:0:
192,192,9210,1,0,0:0:0:0:
320,192,9210,1,0,0:0:0:0:
64,192,9514,1,0,0:0:0:0:
192,192,9717,1,0,0:0:0:0:
320,192,9920,1,0,0:0:0:0:
64,192,10224,1,0,0:0:0:0:
448,192,10224,1,0,0:0:0:0:
192,192,10528,1,0,0:0:0:0:
448,192,10528,1,0,0:0:0:0:
320,192,10832,1,0,0:0:0:0:
320,192,10933,1,0,0:0:0:0:
192,192,11136,1,0,0:0:0:0:
448,192,11136,1,0,0:0:0:0:
320,192,11339,1,0,0:0:0:0:
64,192,11339,1,0,0:0:0:0:
192,192,11541,1,0,0:0:0:0:
448,192,11541,1,0,0:0:0:0:
320,192,11845,1,0,0:0:0:0:
320,192,12149,1,0,0:0:0:0:
64,192,12352,5,0,0:0:0:0:
448,192,12454,1,0,0:0:0:0:
320,192,12555,1,0,0:0:0:0:
192,192,12758,1,0,0:0:0:0:
64,192,12758,1,0,0:0:0:0:
448,192,12960,1,0,0:0:0:0:
320,192,13163,1,0,0:0:0:0:
64,192,13163,1,0,0:0:0:0:
192,192,13467,1,0,0:0:0:0:
448,192,13771,1,0,0:0:0:0:
320,192,13974,1,0,0:0:0:0:
64,192,14075,1,0,0:0:0:0:
192,192,14379,1,0,0:0:0:0:
320,192,14582,1,0,0:0:0:0:
448,192,14785,1,0,0:0:0:0:
64,192,14785,1,0,0:0:0:0:
192,192,15089,1,0,0:0:0:0:
448,192,15190,1,0,0:0:0:0:
320,192,15393,1,0,0:0:0:0:
192,192,15595,1,0,0:0:0:0:
448,192,15697,1,0,0:0:0:0:
192,192,16001,1,0,0:0:0:0:
64,192,16001,1,0,0:0:0:0:
320,192,16204,1,0,0:0:0:0:
448,192,16406,1,0,0:0:0:0:
192,192,16406,1,0,0:0:0:0:
192,192,16609,1,0,0:0:0:0:
320,192,16710,1,0,0:0:0:0:
64,192,16812,1,0,0:0:0:0:
64,192,17014,1,0,0:0:0:0:
192,192,17014,1,0,0:0:0:0:
448,192,17217,1,0,0:0:0:0:
320,192,17318,1,0,0:0:0:0:
448,192,17420,1,0,0:0:0:0:
320,192,17622,1,0,0:0:0:0:
192,192,17622,1,0,0:0:0:0:
320,192,17825,1,0,0:0:0:0:
64,192,17825,1,0,0:0:0:0:
192,192,18028,1,0,0:0:0:0:
320,192,18028,1,0,0:0:0:0:
64,192,18129,1,0,0:0:0:0:
192,192,18231,1,0,0:0:0:0:
320,192,18332,1,0,0:0:0:0:
448,192,18332,1,0,0:0:0:0:
192,192,18433,1,0,0:0:0:0:
64,192,18535,1,0,0:0:0:0:
448,192,18636,1,0,0:0:0:0:
320,192,18636,1,0,0:0:0:0:
192,192,18737,1,0,0:0:0:0:
320,192,18839,1,0,0:0:0:0:
64,192,18940,1,0,0:0:0:0:
448,192,18940,1,0,0:0:0:0:
192,192,19041,1,0,0:0:0:0:
320,192,19041,1,0,0:0:0:0:
448,192,19143,1,0,0:0:0:0:
320,192,19244,1,0,0:0:0:0:
192,192,19244,1,0,0:0:0:0:
64,192,19345,1,0,0:0:0:0:
448,192,19447,1,0,0:0:0:0:
320,192,19447,1,0,0:0:0:0:
64,192,19548,1,0,0:0:0:0:
192,192,19649,1,0,0:0:0:0:
320,192,19649,1,0,0:0:0:0:
448,192,19852,1,0,0:0:0:0:
64,192,19954,1,0,0:0:0:0:
320,192,19954,1,0,0:0:0:0:
192,192,20055,1,0,0:0:0:0:
448,192,20055,1,0,0:0:0:0:
320,192,20258,1,0,0:0:0:0:
192,192,20258,1,0,0:0:0:0:
64,192,20460,1,0,0:0:0:0:
448,192,20460,1,0,0:0:0:0:
192,192,20562,1,0,0:0:0:0:
320,192,20562,1,0,0:0:0:0:
192,192,20663,1,0,0:0:0:0:
192,192,20866,1,0,0:0:0:0:
448,192,20866,1,0,0:0:0:0:
64,192,21068,1,0,0:0:0:0:
320,192,21068,1,0,0:0:0:0:
448,192,21068,128,0,21677:0:0:0:0:
192,192,21271,1,0,0:0:0:0:
320,192,21271,1,0,0:0:0:0:
64,192,21474,1,0,0:0:0:0:
192,192,21575,1,0,0:0:0:0:
192,192,21677,128,0,21981:0:0:0:0:
64,192,21677,1,0,0:0:0:0:
320,192,21677,1,0,0:0:0:0:
320,192,21879,1,0,0:0:0:0:
448,192,22183,128,0,23298:0:0:0:0:
192,192,22183,1,0,0:0:0:0:
64,192,22183,1,0,0:0:0:0:
192,192,22487,1,0,0:0:0:0:
64,192,22690,1,0,0:0:0:0:
192,192,22893,1,0,0:0:0:0:
320,192,22893,1,0,0:0:0:0:
64,192,23197,1,0,0:0:0:0:
192,192,23399,128,0,23805:0:0:0:0:
64,192,23501,1,0,0:0:0:0:
320,192,23805,1,0,0:0:0:0:
448,192,23906,1,0,0:0:0:0:
64,192,23906,1,0,0:0:0:0:
192,192,24109,1,0,0:0:0:0:
448,192,24109,128,0,24312:0:0:0:0:
320,192,24312,1,0,0:0:0:0:
64,192,24514,1,0,0:0:0:0:
320,192,24514,1,0,0:0:0:0:
192,192,24818,1,0,0:0:0:0:
320,192,24920,1,0,0:0:0:0:
64,192,24920,1,0,0:0:0:0:
192,192,25122,1,0,0:0:0:0:
448,192,25325,1,0,0:0:0:0:
64,192,25427,1,0,0:0:0:0:
192,192,25528,1,0,0:0:0:0:
448,192,25731,1,0,0:0:0:0:
64,192,25731,1,0,0:0:0:0:
64,192,25933,1,0,0:0:0:0:
320,192,25933,1,0,0:0:0:0:
192,192,26136,1,0,0:0:0:0:
448,192,26136,1,0,0:0:0:0:
320,192,26440,1,0,0:0:0:0:
192,192,26541,1,0,0:0:0:0:
448,192,26541,1,0,0:0:0:0:
64,192,26744,1,0,0:0:0:0:
320,192,26744,1,0,0:0:0:0:
320,192,26947,1,0,0:0:0:0:
192,192,27048,1,0,0:0:0:0:
448,192,27149,1,0,0:0:0:0:
64,192,27149,1,0,0:0:0:0:
192,192,27352,1,0,0:0:0:0:
64,192,27504,1,0,0:0:0:0:
192,192,27758,1,0,0:0:0:0:
448,192,27758,1,0,0:0:0:0:
320,192,28062,1,0,0:0:0:0:
64,192,28062,1,0,0:0:0:0:
64,192,28163,1,0,0:0:0:0:
448,192,28163,1,0,0:0:0:0:
320,192,28366,1,0,0:0:0:0:
64,192,28568,1,0,0:0:0:0:
320,192,28670,1,0,0:0:0:0:
448,192,28670,1,0,0:0:0:0:
64,192,28771,1,0,0:0:0:0:
192,192,28771,1,0,0:0:0:0:
320,192,28974,1,0,0:0:0:0:
64,192,28974,1,0,0:0:0:0:
320,192,29126,1,0,0:0:0:0:
192,192,29126,1,0,0:0:0:0:
64,192,29379,1,0,0:0:0:0:
448,192,29379,1,0,0:0:0:0:
64,192,29683,1,0,0:0:0:0:
320,192,29683,1,0,0:0:0:0:
192,192,29785,1,0,0:0:0:0:
320,192,29987,1,0,0:0:0:0:
448,192,29987,1,0,0:0:0:0:
320,192,30190,1,0,0:0:0:0:
192,192,30291,1,0,0:0:0:0:
448,192,30291,1,0,0:0:0:0:
64,192,30393,1,0,0:0:0:0:
320,192,30393,1,0,0:0:0:0:
192,192,30595,1,0,0:0:0:0:
448,192,30595,1,0,0:0:0:0:
320,192,30747,1,0,0:0:0:0:
64,192,31001,1,0,0:0:0:0:
192,192,31001,1,0,0:0:0:0:
