osu file format v13

[General]
AudioFilename: ON VA NIQUER CE SOIR !!.mp3
AudioLeadIn: 0
PreviewTime: -1
Countdown: 0
SampleSet: None
StackLeniency: 0.7
Mode: 1
LetterboxInBreaks: 0
WidescreenStoryboard: 1

[Editor]
Bookmarks: 206,19665,26151,32638,39124,45611,52097,58584
DistanceSpacing: 0.7
BeatDivisor: 4
GridSize: 32
TimelineZoom: 2.7

[Metadata]
Title:On va niquer ce soir !!
TitleUnicode:On va niquer ce soir !!
Artist:123Lunatic
ArtistUnicode:123Lunatic
Creator:Erodote
Version:Kurosanyan va taiko ce soir
Source:Youtube
Tags:Ace Attorney Cornered Remix Youtube Poop Kurosanyan
BeatmapID:507375
BeatmapSetID:215846

[Difficulty]
HPDrainRate:5
CircleSize:5
OverallDifficulty:5
ApproachRate:5
SliderMultiplier:1.4
SliderTickRate:1

[Events]
//Background and Video events
0,0,"dc925c30a29205c863aa98eeb2321aaa.jpg",0,0
//Break Periods
//Storyboard Layer 0 (Background)
//Storyboard Layer 1 (Fail)
//Storyboard Layer 2 (Pass)
//Storyboard Layer 3 (Foreground)
//Storyboard Sound Samples
//Background Colour Transformations
3,100,163,162,255

[TimingPoints]
206,405.405405405405,4,1,0,100,1,0

[HitObjects]
256,192,206,5,8,0:0:0:0:
256,192,510,1,8,0:0:0:0:
256,192,814,1,8,0:0:0:0:
256,192,1118,1,8,0:0:0:0:
256,192,1422,1,8,0:0:0:0:
256,192,1624,1,8,0:0:0:0:
256,192,1827,1,8,0:0:0:0:
256,192,2131,1,8,0:0:0:0:
256,192,2435,1,8,0:0:0:0:
256,192,2739,1,8,0:0:0:0:
256,192,3043,1,8,0:0:0:0:
256,192,3245,1,0,0:0:0:0:
256,192,3449,1,8,0:0:0:0:
256,192,3753,1,8,0:0:0:0:
256,192,4057,1,8,0:0:0:0:
256,192,4361,1,8,0:0:0:0:
256,192,4462,1,8,0:0:0:0:
256,192,4665,1,8,0:0:0:0:
256,192,4867,1,8,0:0:0:0:
256,192,5070,1,8,0:0:0:0:
256,192,5374,1,8,0:0:0:0:
256,192,5678,1,8,0:0:0:0:
256,192,5982,1,8,0:0:0:0:
256,192,6084,1,8,0:0:0:0:
256,192,6286,1,8,0:0:0:0:
256,192,6488,1,0,0:0:0:0:
256,192,6691,1,8,0:0:0:0:
256,192,6895,1,0,0:0:0:0:
256,192,6996,1,8,0:0:0:0:
256,192,7199,1,0,0:0:0:0:
256,192,7300,1,8,0:0:0:0:
256,192,7503,1,8,0:0:0:0:
256,192,7604,1,8,0:0:0:0:
256,192,7705,1,8,0:0:0:0:
256,192,7908,1,8,0:0:0:0:
256,192,8110,1,8,0:0:0:0:
256,192,8313,1,8,0:0:0:0:
256,192,8516,1,0,0:0:0:0:
256,192,8617,1,8,0:0:0:0:
256,192,8820,1,0,0:0:0:0:
256,192,8921,1,8,0:0:0:0:
256,192,9124,1,8,0:0:0:0:
256,192,9225,1,8,0:0:0:0:
256,192,9327,1,8,0:0:0:0:
256,192,9529,1,8,0:0:0:0:
256,192,9731,1,0,0:0:0:0:
256,192,9934,1,8,0:0:0:0:
256,192,10138,1,0,0:0:0:0:
256,192,10239,1,8,0:0:0:0:
256,192,10442,1,0,0:0:0:0:
256,192,10543,1,8,0:0:0:0:
256,192,10746,1,8,0:0:0:0:
256,192,10847,1,8,0:0:0:0:
256,192,10948,1,8,0:0:0:0:
256,192,11151,1,8,0:0:0:0:
256,192,11353,1,8,0:0:0:0:
256,192,11556,1,8,0:0:0:0:
256,192,11759,1,0,0:0:0:0:
256,192,11860,1,8,0:0:0:0:
256,192,12063,1,0,0:0:0:0:
256,192,12164,1,8,0:0:0:0:
256,192,12367,1,8,0:0:0:0:
256,192,12468,1,8,0:0:0:0:
256,192,12570,1,8,0:0:0:0:
256,192,12672,1,0,0:0:0:0:
256,192,12772,1,8,0:0:0:0:
256,192,12974,1,0,0:0:0:0:
256,192,13178,1,8,0:0:0:0:
256,192,13382,1,0,0:0:0:0:
256,192,13483,1,8,0:0:0:0:
256,192,13686,1,0,0:0:0:0:
256,192,13787,1,8,0:0:0:0:
256,192,13990,1,8,0:0:0:0:
256,192,14091,1,8,0:0:0:0:
256,192,14192,1,8,0:0:0:0:
256,192,14293,1,0,0:0:0:0:
256,192,14395,1,8,0:0:0:0:
256,192,14597,1,8,0:0:0:0:
256,192,14699,1,8,0:0:0:0:
256,192,14800,1,0,0:0:0:0:
256,192,15003,1,0,0:0:0:0:
256,192,15104,1,8,0:0:0:0:
256,192,15205,1,0,0:0:0:0:
256,192,15307,1,0,0:0:0:0:
256,192,15408,1,8,0:0:0:0:
256,192,15611,1,0,0:0:0:0:
256,192,15712,1,8,0:0:0:0:
256,192,15814,1,8,0:0:0:0:
256,192,15915,1,0,0:0:0:0:
256,192,16016,1,8,0:0:0:0:
256,192,16219,1,0,0:0:0:0:
256,192,16422,1,8,0:0:0:0:
256,192,16523,1,0,0:0:0:0:
256,192,16624,1,0,0:0:0:0:
256,192,16726,1,8,0:0:0:0:
256,192,16827,1,0,0:0:0:0:
256,192,16928,1,0,0:0:0:0:
256,192,17030,1,8,0:0:0:0:
256,192,17131,1,0,0:0:0:0:
256,192,17233,1,0,0:0:0:0:
256,192,17334,1,8,0:0:0:0:
256,192,17435,1,8,0:0:0:0:
256,192,17537,1,0,0:0:0:0:
256,192,17638,1,8,0:0:0:0:
256,192,17841,1,0,0:0:0:0:
256,192,18043,1,8,0:0:0:0:
256,192,18145,1,0,0:0:0:0:
256,192,18246,1,0,0:0:0:0:
256,192,18347,1,8,0:0:0:0:
256,192,18449,1,0,0:0:0:0:
256,192,18550,1,0,0:0:0:0:
256,192,18651,1,8,0:0:0:0:
256,192,18753,1,0,0:0:0:0:
256,192,18854,1,0,0:0:0:0:
256,192,18955,1,8,0:0:0:0:
256,192,19057,1,0,0:0:0:0:
256,192,19158,1,0,0:0:0:0:
256,192,19260,1,8,0:0:0:0:
256,192,19327,1,8,0:0:0:0:
256,192,19395,1,8,0:0:0:0:
256,192,19462,1,8,0:0:0:0:
256,192,19530,1,8,0:0:0:0:
256,192,19597,1,8,0:0:0:0:
256,192,19665,1,0,0:0:0:0:
256,192,19868,1,8,0:0:0:0:
256,192,19969,1,0,0:0:0:0:
256,192,20070,1,8,0:0:0:0:
256,192,20273,1,8,0:0:0:0:
256,192,20374,1,0,0:0:0:0:
256,192,20577,1,8,0:0:0:0:
256,192,20678,1,0,0:0:0:0:
256,192,20780,1,0,0:0:0:0:
256,192,20881,1,8,0:0:0:0:
256,192,21084,1,0,0:0:0:0:
256,192,21185,1,8,0:0:0:0:
256,192,21287,1,0,0:0:0:0:
256,192,21489,1,8,0:0:0:0:
256,192,21590,1,0,0:0:0:0:
256,192,21691,1,8,0:0:0:0:
256,192,21894,1,8,0:0:0:0:
256,192,21995,1,0,0:0:0:0:
256,192,22198,1,8,0:0:0:0:
256,192,22299,1,0,0:0:0:0:
256,192,22401,1,0,0:0:0:0:
256,192,22502,1,8,0:0:0:0:
256,192,22604,1,8,0:0:0:0:
256,192,22705,1,0,0:0:0:0:
256,192,22908,1,0,0:0:0:0:
256,192,23010,1,0,0:0:0:0:
256,192,23111,1,8,0:0:0:0:
256,192,23212,1,0,0:0:0:0:
256,192,23313,1,8,0:0:0:0:
256,192,23516,1,8,0:0:0:0:
256,192,23617,1,0,0:0:0:0:
256,192,23820,1,8,0:0:0:0:
256,192,23921,1,0,0:0:0:0:
256,192,24023,1,0,0:0:0:0:
256,192,24124,1,8,0:0:0:0:
256,192,24327,1,0,0:0:0:0:
256,192,24428,1,8,0:0:0:0:
256,192,24530,1,0,0:0:0:0:
256,192,24732,1,8,0:0:0:0:
256,192,24833,1,0,0:0:0:0:
256,192,24934,1,8,0:0:0:0:
256,192,25137,1,8,0:0:0:0:
256,192,25238,1,0,0:0:0:0:
256,192,25441,1,8,0:0:0:0:
256,192,25542,1,0,0:0:0:0:
256,192,25644,1,0,0:0:0:0:
256,192,25745,1,8,0:0:0:0:
256,192,25847,1,8,0:0:0:0:
256,192,25948,1,0,0:0:0:0:
256,192,26151,1,0,0:0:0:0:
256,192,26253,1,8,0:0:0:0:
256,192,26354,1,0,0:0:0:0:
256,192,26455,1,8,0:0:0:0:
256,192,26556,1,8,0:0:0:0:
256,192,26658,1,0,0:0:0:0:
256,192,26860,1,8,0:0:0:0:
256,192,27063,1,0,0:0:0:0:
256,192,27164,1,0,0:0:0:0:
256,192,27266,1,0,0:0:0:0:
256,192,27367,1,8,0:0:0:0:
256,192,27570,1,0,0:0:0:0:
256,192,27672,1,8,0:0:0:0:
256,192,27773,1,0,0:0:0:0:
256,192,27874,1,0,0:0:0:0:
256,192,27975,1,0,0:0:0:0:
256,192,28076,1,8,0:0:0:0:
256,192,28177,1,8,0:0:0:0:
256,192,28280,1,0,0:0:0:0:
256,192,28481,1,0,0:0:0:0:
256,192,28684,1,8,0:0:0:0:
256,192,28785,1,0,0:0:0:0:
288,192,28888,1,0,0:0:0:0:
256,192,28988,1,8,0:0:0:0:
256,192,29091,1,8,0:0:0:0:
256,192,29192,1,0,0:0:0:0:
256,192,29394,1,0,0:0:0:0:
256,192,29597,1,8,0:0:0:0:
256,192,29698,1,0,0:0:0:0:
256,192,29799,1,8,0:0:0:0:
256,192,29901,1,0,0:0:0:0:
256,192,30103,1,0,0:0:0:0:
256,192,30306,1,8,0:0:0:0:
256,192,30407,1,0,0:0:0:0:
256,192,30509,1,0,0:0:0:0:
256,192,30610,1,8,0:0:0:0:
256,192,30813,1,0,0:0:0:0:
256,192,30914,1,8,0:0:0:0:
256,192,31016,1,0,0:0:0:0:
256,192,31118,1,0,0:0:0:0:
256,192,31218,1,8,0:0:0:0:
256,192,31420,1,0,0:0:0:0:
256,192,31523,1,0,0:0:0:0:
256,192,31623,1,8,0:0:0:0:
256,192,31827,1,0,0:0:0:0:
256,192,31927,1,8,0:0:0:0:
256,192,32028,1,0,0:0:0:0:
256,192,32130,1,0,0:0:0:0:
256,192,32231,1,8,0:0:0:0:
256,192,32333,1,8,0:0:0:0:
256,192,32434,1,0,0:0:0:0:
256,192,32637,1,0,0:0:0:0:
256,192,32841,1,8,0:0:0:0:
256,192,32942,1,0,0:0:0:0:
256,192,33145,1,8,0:0:0:0:
256,192,33246,1,0,0:0:0:0:
256,192,33449,1,0,0:0:0:0:
256,192,33550,1,8,0:0:0:0:
256,192,33753,1,0,0:0:0:0:
256,192,33854,1,8,0:0:0:0:
256,192,34057,1,0,0:0:0:0:
256,192,34158,1,8,0:0:0:0:
256,192,34260,1,0,0:0:0:0:
256,192,34462,1,8,0:0:0:0:
256,192,34563,1,0,0:0:0:0:
256,192,34766,1,8,0:0:0:0:
256,192,34867,1,8,0:0:0:0:
256,192,34968,1,0,0:0:0:0:
256,192,35171,1,8,0:0:0:0:
256,192,35272,1,0,0:0:0:0:
256,192,35374,1,0,0:0:0:0:
256,192,35475,1,8,0:0:0:0:
256,192,35577,1,8,0:0:0:0:
256,192,35678,1,0,0:0:0:0:
256,192,35881,1,0,0:0:0:0:
256,192,36084,1,8,0:0:0:0:
256,192,36185,1,0,0:0:0:0:
256,192,36286,1,8,0:0:0:0:
256,192,36388,1,0,0:0:0:0:
256,192,36590,1,0,0:0:0:0:
256,192,36793,1,8,0:0:0:0:
256,192,36894,1,0,0:0:0:0:
256,192,36996,1,0,0:0:0:0:
256,192,37097,1,8,0:0:0:0:
256,192,37300,1,0,0:0:0:0:
256,192,37401,1,8,0:0:0:0:
256,192,37503,1,0,0:0:0:0:
256,192,37605,1,0,0:0:0:0:
256,192,37705,1,8,0:0:0:0:
256,192,37907,1,0,0:0:0:0:
256,192,38010,1,0,0:0:0:0:
256,192,38110,1,8,0:0:0:0:
256,192,38314,1,0,0:0:0:0:
256,192,38414,1,8,0:0:0:0:
256,192,38515,1,0,0:0:0:0:
256,192,38617,1,0,0:0:0:0:
256,192,38718,1,8,0:0:0:0:
256,192,38820,1,8,0:0:0:0:
256,192,38921,1,0,0:0:0:0:
256,192,39023,1,8,0:0:0:0:
256,192,39124,1,0,0:0:0:0:
256,192,39327,1,8,0:0:0:0:
256,192,39428,1,0,0:0:0:0:
256,192,39529,1,8,0:0:0:0:
256,192,39732,1,8,0:0:0:0:
256,192,39833,1,0,0:0:0:0:
256,192,40036,1,8,0:0:0:0:
256,192,40137,1,0,0:0:0:0:
256,192,40239,1,0,0:0:0:0:
256,192,40340,1,8,0:0:0:0:
256,192,40442,1,8,0:0:0:0:
256,192,40543,1,0,0:0:0:0:
256,192,40746,1,0,0:0:0:0:
256,192,40847,1,8,0:0:0:0:
256,192,41049,1,0,0:0:0:0:
256,192,41150,1,8,0:0:0:0:
256,192,41353,1,8,0:0:0:0:
256,192,41454,1,0,0:0:0:0:
256,192,41657,1,8,0:0:0:0:
256,192,41758,1,0,0:0:0:0:
256,192,41961,1,8,0:0:0:0:
256,192,42063,1,8,0:0:0:0:
256,192,42164,1,0,0:0:0:0:
256,192,42367,1,0,0:0:0:0:
256,192,42469,1,0,0:0:0:0:
256,192,42570,1,8,0:0:0:0:
256,192,42671,1,0,0:0:0:0:
256,192,42772,1,8,0:0:0:0:
256,192,42975,1,8,0:0:0:0:
256,192,43076,1,0,0:0:0:0:
256,192,43178,1,0,0:0:0:0:
256,192,43279,1,8,0:0:0:0:
256,192,43380,1,0,0:0:0:0:
256,192,43482,1,0,0:0:0:0:
256,192,43583,1,8,0:0:0:0:
256,192,43786,1,0,0:0:0:0:
256,192,43887,1,8,0:0:0:0:
256,192,43989,1,0,0:0:0:0:
256,192,44191,1,8,0:0:0:0:
256,192,44292,1,0,0:0:0:0:
256,192,44393,1,8,0:0:0:0:
256,192,44596,1,8,0:0:0:0:
256,192,44697,1,0,0:0:0:0:
256,192,44800,1,0,0:0:0:0:
256,192,44900,1,8,0:0:0:0:
256,192,45001,1,0,0:0:0:0:
256,192,45103,1,0,0:0:0:0:
256,192,45204,1,8,0:0:0:0:
256,192,45306,1,8,0:0:0:0:
256,192,45407,1,0,0:0:0:0:
256,192,45610,1,0,0:0:0:0:
256,192,45814,1,8,0:0:0:0:
256,192,45915,1,0,0:0:0:0:
256,192,46118,1,8,0:0:0:0:
256,192,46219,1,0,0:0:0:0:
256,192,46422,1,0,0:0:0:0:
256,192,46523,1,8,0:0:0:0:
256,192,46726,1,0,0:0:0:0:
256,192,46827,1,8,0:0:0:0:
256,192,47030,1,0,0:0:0:0:
256,192,47131,1,8,0:0:0:0:
256,192,47233,1,0,0:0:0:0:
256,192,47334,1,0,0:0:0:0:
256,192,47435,1,8,0:0:0:0:
256,192,47536,1,0,0:0:0:0:
256,192,47739,1,8,0:0:0:0:
256,192,47840,1,0,0:0:0:0:
256,192,47941,1,0,0:0:0:0:
256,192,48043,1,8,0:0:0:0:
256,192,48145,1,0,0:0:0:0:
256,192,48347,1,0,0:0:0:0:
256,192,48448,1,8,0:0:0:0:
256,192,48550,1,8,0:0:0:0:
256,192,48651,1,0,0:0:0:0:
256,192,48854,1,0,0:0:0:0:
256,192,49057,1,8,0:0:0:0:
256,192,49158,1,0,0:0:0:0:
256,192,49361,1,0,0:0:0:0:
256,192,49462,1,8,0:0:0:0:
256,192,49665,1,8,0:0:0:0:
256,192,49766,1,0,0:0:0:0:
256,192,49969,1,0,0:0:0:0:
256,192,50070,1,8,0:0:0:0:
256,192,50273,1,0,0:0:0:0:
256,192,50374,1,8,0:0:0:0:
256,192,50476,1,0,0:0:0:0:
256,192,50578,1,0,0:0:0:0:
256,192,50678,1,8,0:0:0:0:
256,192,50880,1,0,0:0:0:0:
256,192,50983,1,0,0:0:0:0:
256,192,51083,1,8,0:0:0:0:
256,192,51287,1,0,0:0:0:0:
256,192,51387,1,8,0:0:0:0:
256,192,51488,1,0,0:0:0:0:
256,192,51590,1,0,0:0:0:0:
256,192,51691,1,8,0:0:0:0:
256,192,51793,1,8,0:0:0:0:
256,192,51894,1,0,0:0:0:0:
256,192,51996,1,8,0:0:0:0:
256,192,52097,1,0,0:0:0:0:
256,192,52300,1,8,0:0:0:0:
256,192,52401,1,0,0:0:0:0:
256,192,52502,1,8,0:0:0:0:
256,192,52705,1,8,0:0:0:0:
256,192,52806,1,0,0:0:0:0:
256,192,53009,1,8,0:0:0:0:
256,192,53110,1,0,0:0:0:0:
256,192,53212,1,0,0:0:0:0:
256,192,53313,1,8,0:0:0:0:
256,192,53516,1,0,0:0:0:0:
256,192,53617,1,8,0:0:0:0:
256,192,53719,1,0,0:0:0:0:
256,192,53921,1,8,0:0:0:0:
256,192,54022,1,0,0:0:0:0:
256,192,54123,1,8,0:0:0:0:
256,192,54326,1,8,0:0:0:0:
256,192,54427,1,0,0:0:0:0:
256,192,54630,1,8,0:0:0:0:
256,192,54731,1,0,0:0:0:0:
256,192,54833,1,0,0:0:0:0:
256,192,54934,1,8,0:0:0:0:
256,192,55036,1,8,0:0:0:0:
256,192,55137,1,0,0:0:0:0:
256,192,55340,1,0,0:0:0:0:
256,192,55442,1,0,0:0:0:0:
256,192,55543,1,8,0:0:0:0:
256,192,55644,1,0,0:0:0:0:
256,192,55745,1,8,0:0:0:0:
256,192,55948,1,8,0:0:0:0:
256,192,56049,1,0,0:0:0:0:
256,192,56252,1,8,0:0:0:0:
256,192,56353,1,0,0:0:0:0:
256,192,56455,1,0,0:0:0:0:
256,192,56556,1,8,0:0:0:0:
256,192,56759,1,0,0:0:0:0:
256,192,56860,1,8,0:0:0:0:
256,192,56962,1,0,0:0:0:0:
256,192,57164,1,8,0:0:0:0:
256,192,57265,1,0,0:0:0:0:
256,192,57366,1,8,0:0:0:0:
256,192,57569,1,8,0:0:0:0:
256,192,57670,1,0,0:0:0:0:
256,192,57873,1,8,0:0:0:0:
256,192,57974,1,0,0:0:0:0:
256,192,58076,1,0,0:0:0:0:
256,192,58177,1,8,0:0:0:0:
256,192,58279,1,8,0:0:0:0:
256,192,58380,1,0,0:0:0:0:
256,192,58584,5,4,0:0:0:0:
