osu file format v13

[General]
AudioFilename: ON VA NIQUER CE SOIR !!.mp3
AudioLeadIn: 0
PreviewTime: -1
Countdown: 0
SampleSet: Normal
StackLeniency: 0.7
Mode: 0
LetterboxInBreaks: 1
WidescreenStoryboard: 0

[Editor]
DistanceSpacing: 0.7
BeatDivisor: 4
GridSize: 8
TimelineZoom: 2.799999

[Metadata]
Title:On va niquer ce soir !!
TitleUnicode:On va niquer ce soir !!
Artist:123Lunatic
ArtistUnicode:123Lunatic
Creator:Erodote
Version:Insane
Source:Youtube
Tags:Ace Attorney Cornered Remix Youtube Poop
BeatmapID:506834
BeatmapSetID:215846

[Difficulty]
HPDrainRate:6
CircleSize:4
OverallDifficulty:7
ApproachRate:9
SliderMultiplier:2.3
SliderTickRate:1

[Events]
//Background and Video events
0,0,"dc925c30a29205c863aa98eeb2321aaa.jpg",0,0
//Break Periods
//Storyboard Layer 0 (Background)
//Storyboard Layer 1 (Fail)
//Storyboard Layer 2 (Pass)
//Storyboard Layer 3 (Foreground)
//Storyboard Sound Samples
//Background Colour Transformations
3,100,163,162,255

[TimingPoints]
19650,405.405405405405,4,1,0,100,1,0

[Colours]
Combo1 : 175,56,239
Combo2 : 15,117,255
Combo3 : 255,139,23
Combo4 : 57,202,57

[HitObjects]
256,192,3433,12,0,9109,0:0:0:0:
256,192,9920,5,0,0:0:0:0:
288,192,11541,5,0,0:0:0:0:
352,192,12352,5,0,0:0:0:0:
256,192,13163,5,0,0:0:0:0:
176,136,13974,1,0,0:0:0:0:
112,216,14785,1,0,0:0:0:0:
240,296,15190,1,0,0:0:0:0:
368,232,15595,1,0,0:0:0:0:
192,152,16001,1,0,0:0:0:0:
168,200,16406,5,0,0:0:0:0:
240,248,16609,1,0,0:0:0:0:
296,184,16812,1,0,0:0:0:0:
360,240,17014,1,0,0:0:0:0:
432,128,17217,2,0,P|376:136|336:176,1,115
416,256,17622,2,0,P|368:288|304:272,1,115
168,272,18028,1,0,0:0:0:0:
152,248,18129,1,0,0:0:0:0:
144,224,18231,1,0,0:0:0:0:
136,200,18332,1,0,0:0:0:0:
136,176,18433,1,0,0:0:0:0:
136,152,18535,1,0,0:0:0:0:
144,136,18636,1,0,0:0:0:0:
152,120,18737,1,0,0:0:0:0:
160,104,18839,1,0,0:0:0:0:
176,80,18940,2,0,P|200:64|232:64,4,57.5,0|0|0|0|0,0:0|0:0|0:0|0:0|0:0,0:0:0:0:
160,80,19649,5,0,0:0:0:0:
360,80,19954,1,0,0:0:0:0:
160,224,20258,1,0,0:0:0:0:
360,224,20562,1,0,0:0:0:0:
264,32,20802,2,0,L|264:152,1,115,0|0,0:0|0:0,0:0:0:0:
160,224,21271,5,0,0:0:0:0:
360,224,21575,1,0,0:0:0:0:
160,80,21879,1,0,0:0:0:0:
360,80,22183,1,0,0:0:0:0:
256,352,22430,2,0,L|256:232,1,115,0|0,0:0|0:0,0:0:0:0:
80,72,22887,5,0,0:0:0:0:
248,72,23089,1,0,0:0:0:0:
248,72,23189,1,0,0:0:0:0:
360,168,23391,1,0,0:0:0:0:
360,168,23491,1,0,0:0:0:0:
224,256,23693,1,0,0:0:0:0:
224,256,23793,1,0,0:0:0:0:
64,248,24095,2,0,B|88:280|128:272|144:328,1,115
256,320,24498,5,0,0:0:0:0:
280,312,24599,1,0,0:0:0:0:
312,296,24699,1,0,0:0:0:0:
336,280,24800,1,0,0:0:0:0:
352,264,24901,1,0,0:0:0:0:
368,248,25001,1,0,0:0:0:0:
376,232,25102,1,0,0:0:0:0:
384,216,25203,1,0,0:0:0:0:
392,200,25303,1,0,0:0:0:0:
400,184,25404,1,0,0:0:0:0:
400,168,25505,1,0,0:0:0:0:
400,152,25605,1,0,0:0:0:0:
400,136,25706,1,0,0:0:0:0:
64,80,26136,5,0,0:0:0:0:
264,224,26440,1,0,0:0:0:0:
64,224,26744,1,0,0:0:0:0:
264,80,27048,1,0,0:0:0:0:
160,96,27317,2,0,B|184:112|136:144|168:224,1,115,0|0,0:0|0:0,0:0:0:0:
256,224,27758,5,0,0:0:0:0:
456,352,28062,1,0,0:0:0:0:
256,352,28366,1,0,0:0:0:0:
456,224,28670,1,0,0:0:0:0:
352,336,28974,2,0,B|334:305|374:273|352:216,1,115,0|0,0:0|0:0,0:0:0:0:
368,72,29330,1,0,0:0:0:0:
368,72,29431,1,0,0:0:0:0:
368,72,29532,1,0,0:0:0:0:
224,144,29733,1,0,0:0:0:0:
208,144,29834,1,0,0:0:0:0:
184,144,29934,1,0,0:0:0:0:
296,240,30136,1,0,0:0:0:0:
344,240,30236,1,0,0:0:0:0:
392,240,30337,1,0,0:0:0:0:
200,56,31001,6,0,B|112:88|176:128|80:168,1,115
280,144,31406,2,0,B|368:112|304:72|400:32,1,115
360,320,31812,1,0,0:0:0:0:
256,192,32149,12,0,35773,0:0:0:0:
176,112,36266,6,0,B|184:136|112:48|208:56|272:80,1,115
448,80,36668,1,0,0:0:0:0:
448,208,37082,1,0,0:0:0:0:
296,256,37474,2,0,B|288:232|360:320|264:312|200:288,1,115,0|0,0:0|0:0,0:0:0:0:
112,264,37876,2,0,B|120:288|48:200|144:208|208:232,1,115,0|0,0:0|0:0,0:0:0:0:
312,64,38298,1,0,0:0:0:0:
312,64,38704,1,0,0:0:0:0:
64,48,39095,5,0,0:0:0:0:
65,65,39210,1,0,0:0:0:0:
71,81,39312,1,0,0:0:0:0:
79,97,39413,1,0,0:0:0:0:
89,114,39514,1,0,0:0:0:0:
99,127,39616,1,0,0:0:0:0:
114,143,39717,1,0,0:0:0:0:
128,155,39818,1,0,0:0:0:0:
144,166,39920,1,0,0:0:0:0:
160,171,40021,1,0,0:0:0:0:
177,175,40122,1,0,0:0:0:0:
197,177,40224,1,0,0:0:0:0:
214,177,40325,1,0,0:0:0:0:
80,296,40731,6,0,L|112:272,1,28.75
408,304,41035,2,0,L|376:280,1,28.75,0|0,0:0|0:0,0:0:0:0:
160,88,41339,2,0,L|192:112,1,28.75,0|0,0:0|0:0,0:0:0:0:
368,88,41643,2,0,L|336:112,1,28.75
232,200,41947,1,0,0:0:0:0:
232,200,42149,1,0,0:0:0:0:
326,172,42353,5,0,0:0:0:0:
342,163,42454,1,0,0:0:0:0:
355,154,42554,1,0,0:0:0:0:
369,143,42655,1,0,0:0:0:0:
379,128,42756,1,0,0:0:0:0:
389,114,42856,1,0,0:0:0:0:
401,104,42957,1,0,0:0:0:0:
411,89,43058,1,0,0:0:0:0:
418,74,43158,1,0,0:0:0:0:
418,58,43259,1,0,0:0:0:0:
421,43,43360,1,0,0:0:0:0:
418,29,43467,1,0,0:0:0:0:
412,15,43568,1,0,0:0:0:0:
408,304,43974,6,0,L|376:280,1,28.75,0|0,0:0|0:0,0:0:0:0:
80,296,44278,2,0,L|112:272,1,28.75,0|0,0:0|0:0,0:0:0:0:
368,88,44582,2,0,L|336:112,1,28.75
160,88,44886,2,0,L|192:112,1,28.75,0|0,0:0|0:0,0:0:0:0:
232,200,45190,1,0,0:0:0:0:
232,200,45392,1,0,0:0:0:0:
80,96,45595,6,0,P|152:56|264:88,1,172.5
376,232,46204,2,0,P|312:272|224:248,1,172.5
192,136,46812,1,0,0:0:0:0:
360,136,47014,1,0,0:0:0:0:
160,56,47217,2,0,P|128:120|168:208,1,172.5
376,320,47825,2,0,P|416:256|392:168,1,172.5
296,264,48433,1,0,0:0:0:0:
152,168,48636,1,0,0:0:0:0:
304,112,48839,1,0,0:0:0:0:
104,104,49244,5,0,0:0:0:0:
384,304,49649,1,0,0:0:0:0:
104,304,50055,1,0,0:0:0:0:
384,112,50460,1,0,0:0:0:0:
104,304,50866,1,0,0:0:0:0:
384,304,51271,1,0,0:0:0:0:
112,104,51677,1,0,0:0:0:0:
256,192,52082,12,0,54920,0:0:0:0:
