osu file format v13

[General]
AudioFilename: ON VA NIQUER CE SOIR !!.mp3
AudioLeadIn: 0
PreviewTime: -1
Countdown: 0
SampleSet: None
StackLeniency: 0.7
Mode: 2
LetterboxInBreaks: 1
WidescreenStoryboard: 1

[Editor]
DistanceSpacing: 0.7
BeatDivisor: 4
GridSize: 8
TimelineZoom: 2.999999

[Metadata]
Title:On va niquer ce soir !!
TitleUnicode:On va niquer ce soir !!
Artist:123Lunatic
ArtistUnicode:123Lunatic
Creator:Erodote
Version:Badis VA NIQUER CE SOARRRRRRRRR
Source:Youtube
Tags:Ace Attorney Cornered Remix Youtube Poop
BeatmapID:516835
BeatmapSetID:215846

[Difficulty]
HPDrainRate:5
CircleSize:4
OverallDifficulty:7
ApproachRate:9.2
SliderMultiplier:2.3
SliderTickRate:1

[Events]
//Background and Video events
0,0,"dc925c30a29205c863aa98eeb2321aaa.jpg",0,0
//Break Periods
//Storyboard Layer 0 (Background)
//Storyboard Layer 1 (Fail)
//Storyboard Layer 2 (Pass)
//Storyboard Layer 3 (Foreground)
//Storyboard Sound Samples
//Background Colour Transformations
3,100,163,162,255

[TimingPoints]
1418,405.405405405405,4,2,0,100,1,0
5978,-100,4,2,0,5,0,0
6012,-100,4,2,0,100,0,0
7634,-100,4,2,0,35,0,0
10032,-100,4,2,0,40,0,0
11755,-100,4,2,0,41,0,0
14593,-100,4,2,0,43,0,0
16113,-100,4,2,0,44,0,0
16924,-100,4,2,0,45,0,0
17735,-100,4,2,0,50,0,0
18140,-100,4,2,0,55,0,0
18445,-100,4,2,0,65,0,0
18647,-100,4,2,0,80,0,0
19053,-100,4,2,0,100,0,0
19661,-66.6666666666667,4,2,0,100,0,1
20370,-100,4,2,0,100,0,1
59086,-100,4,2,0,100,0,0

[Colours]
Combo1 : 175,56,239
Combo2 : 15,117,255
Combo3 : 255,139,23
Combo4 : 57,202,57

[HitObjects]
256,192,1418,12,0,2431,0:0:0:0:
184,288,3039,5,0,0:0:0:0:
512,192,3242,1,0,0:0:0:0:
376,200,3445,2,0,L|128:200,2,230,0|0|0,0:0|0:0|0:0,0:0:0:0:
80,200,4357,1,0,0:0:0:0:
80,200,4458,1,0,0:0:0:0:
256,200,4661,2,0,L|128:200,1,115,0|0,0:0|0:0,0:0:0:0:
448,200,5066,2,8,B|354:200|354:200|304:72,1,230,0|8,0:0|0:0,0:0:0:0:
368,72,5573,1,0,0:0:0:0:
8,176,5674,2,0,L|208:176,1,172.5,0|0,0:0|0:0,0:0:0:0:
504,176,6080,6,0,L|336:176,1,153.333333333333
152,192,6688,2,0,L|336:192,2,172.5,0|0|0,0:0|0:0|0:0,0:0:0:0:
256,112,7431,1,0,0:0:0:0:
128,112,7701,2,8,B|40:112|40:112|152:112,1,172.5,8|8,0:0|0:0,0:0:0:0:
224,112,8107,1,8,0:0:0:0:
224,184,8174,2,8,L|128:184,1,76.6666666666667,0|0,0:0|0:0,0:0:0:0:
80,248,8445,2,0,L|200:248,1,115,8|8,0:0|0:0,0:0:0:0:
368,248,8917,6,8,L|264:248,1,76.6666666666667,0|0,0:0|0:0,0:0:0:0:
208,256,9188,2,8,L|176:152,2,76.6666666666667,8|8|8,0:0|0:0|0:0,0:0:0:0:
216,152,9526,1,8,0:0:0:0:
296,128,9678,1,8,0:0:0:0:
384,128,9796,1,8,0:0:0:0:
296,128,9931,1,8,0:0:0:0:
352,256,10134,5,8,0:0:0:0:
352,256,10201,1,8,0:0:0:0:
352,256,10269,1,8,0:0:0:0:
232,256,10387,1,8,0:0:0:0:
144,256,10539,2,8,L|280:256,1,115,0|8,0:0|0:0,0:0:0:0:
288,248,10843,1,8,0:0:0:0:
384,176,11012,2,8,L|296:176,1,76.6666666666667,0|0,0:0|0:0,0:0:0:0:
224,128,11249,2,8,L|336:128,1,86.25,8|8,0:0|0:0,0:0:0:0:
64,304,11857,6,8,L|184:304,1,115,0|0,0:0|0:0,0:0:0:0:
120,216,12161,1,8,0:0:0:0:
176,216,12262,1,8,0:0:0:0:
40,216,12431,2,8,L|224:216,1,172.5,0|0,0:0|0:0,0:0:0:0:
120,216,12938,1,8,0:0:0:0:
40,216,13242,1,8,0:0:0:0:
312,216,13512,1,8,0:0:0:0:
432,216,13681,1,8,0:0:0:0:
312,216,13985,2,8,L|136:216,1,172.5,0|0,0:0|0:0,0:0:0:0:
368,160,14661,5,8,0:0:0:0:
256,160,14796,1,8,0:0:0:0:
0,160,15066,1,8,0:0:0:0:
120,160,15269,1,8,0:0:0:0:
0,160,15438,1,8,0:0:0:0:
120,160,15674,1,8,0:0:0:0:
432,168,16249,6,8,L|248:168,1,172.5,8|8,0:0|0:0,0:0:0:0:
80,264,17026,5,12,0:0:0:0:
256,272,17228,1,12,0:0:0:0:
80,264,17431,2,12,L|176:192,1,115,4|8,0:0|0:0,0:0:0:0:
288,184,17938,5,8,0:0:0:0:
408,184,18242,1,8,0:0:0:0:
288,184,18546,1,8,0:0:0:0:
408,184,18850,1,8,0:0:0:0:
200,120,19120,2,8,L|520:120,1,306.666666666667,0|4,0:0|0:0,0:0:0:0:
208,208,19863,2,0,L|328:208,1,86.2500032901765
0,208,20167,2,0,L|128:208,1,86.2500032901765
448,208,20472,2,0,L|560:208,2,57.5,0|0|0,0:0|0:0|0:0,0:0:0:0:
168,200,20877,1,0,0:0:0:0:
312,200,21080,5,0,0:0:0:0:
0,208,21282,1,0,0:0:0:0:
128,264,21485,1,0,0:0:0:0:
80,264,21586,1,0,0:0:0:0:
128,264,21688,1,0,0:0:0:0:
0,136,21890,1,0,0:0:0:0:
304,152,21992,1,0,0:0:0:0:
368,152,22093,1,0,0:0:0:0:
192,152,22296,1,0,0:0:0:0:
296,288,22499,6,0,L|440:288,2,115,0|0|0,0:0|0:0|0:0,0:0:0:0:
112,224,23107,1,0,0:0:0:0:
56,224,23208,1,0,0:0:0:0:
0,224,23309,6,0,B|120:224|120:224|0:224,1,230,4|4,0:0|0:0,0:0:0:0:
256,224,23917,5,0,0:0:0:0:
0,160,24018,1,0,0:0:0:0:
0,160,24120,1,0,0:0:0:0:
144,152,24323,1,0,0:0:0:0:
96,152,24526,1,0,0:0:0:0:
376,152,24728,1,0,0:0:0:0:
256,264,24931,5,0,0:0:0:0:
280,208,25032,1,0,0:0:0:0:
296,160,25134,1,0,0:0:0:0:
0,224,25336,1,0,0:0:0:0:
344,272,25539,1,0,0:0:0:0:
320,216,25640,1,0,0:0:0:0:
296,160,25742,1,0,0:0:0:0:
384,128,25945,1,0,0:0:0:0:
88,192,26147,1,0,0:0:0:0:
0,192,26350,5,0,0:0:0:0:
0,192,26451,1,0,0:0:0:0:
512,192,26553,1,0,0:0:0:0:
416,192,26755,1,0,0:0:0:0:
296,192,26958,2,0,L|432:192,1,115
0,200,27363,2,0,L|136:200,1,115
0,288,27769,1,0,0:0:0:0:
0,288,27870,1,0,0:0:0:0:
368,288,27972,1,0,0:0:0:0:
208,288,28174,6,4,L|88:288,2,115,4|4|4,0:0|0:0|0:0,0:0:0:0:
488,240,28985,2,0,L|456:112,1,115
152,104,29390,2,0,L|16:104,1,115
152,104,29796,5,4,0:0:0:0:
408,112,29897,1,4,0:0:0:0:
504,112,29999,1,4,0:0:0:0:
304,112,30201,1,4,0:0:0:0:
112,192,30607,5,0,0:0:0:0:
64,192,30809,1,0,0:0:0:0:
512,248,31012,6,4,L|432:120,1,115,4|4,0:0|0:0,0:0:0:0:
120,224,31417,2,4,L|-16:224,2,115,4|4|4,0:0|0:0|0:0,0:0:0:0:
296,216,32228,6,0,B|255:147|255:147|256:88,1,115
191,104,32634,1,0,0:0:0:0:
111,104,32735,1,0,0:0:0:0:
191,104,32836,1,0,0:0:0:0:
320,104,33039,1,0,0:0:0:0:
400,104,33140,1,0,0:0:0:0:
320,104,33242,1,0,0:0:0:0:
120,192,33445,2,0,L|-32:192,1,115
352,208,33850,1,0,0:0:0:0:
384,160,33951,1,0,0:0:0:0:
416,112,34053,1,0,0:0:0:0:
120,192,34255,1,0,0:0:0:0:
256,192,34458,6,0,B|369:192|369:192|248:192,1,230,4|4,0:0|0:0,0:0:0:0:
256,192,35066,12,0,35472,0:0:0:0:
168,192,35674,5,2,0:0:0:0:
512,192,35877,1,2,0:0:0:0:
232,192,36282,6,0,L|376:192,2,115,4|4|4,0:0|0:0|0:0,0:0:0:0:
8,80,36890,2,0,L|144:80,1,115
304,80,37296,1,0,0:0:0:0:
0,288,37499,6,0,L|72:144,1,115,4|4,0:0|0:0,0:0:0:0:
512,248,37904,2,0,L|352:248,2,115,4|4|4,0:0|0:0|0:0,0:0:0:0:
160,256,38512,5,0,0:0:0:0:
64,256,38715,1,0,0:0:0:0:
160,192,38917,1,0,0:0:0:0:
144,136,39019,1,0,0:0:0:0:
128,80,39120,1,0,0:0:0:0:
504,208,39323,2,0,L|432:96,1,115
136,256,39728,2,0,L|232:136,1,115
168,136,40032,1,0,0:0:0:0:
424,192,40134,1,0,0:0:0:0:
512,200,40336,5,0,0:0:0:0:
96,48,40539,1,0,0:0:0:0:
112,104,40640,1,0,0:0:0:0:
144,152,40742,1,0,0:0:0:0:
208,168,40843,1,0,0:2:0:0:
384,176,40945,1,0,0:0:0:0:
432,136,41046,1,0,0:0:0:0:
440,80,41147,1,0,0:0:0:0:
176,112,41249,2,0,L|104:112,1,57.5
328,112,41451,2,0,L|400:112,1,57.5
328,112,41755,5,0,0:0:0:0:
176,112,41958,2,0,L|16:112,1,115
336,216,42363,1,0,0:0:0:0:
376,176,42465,1,0,0:0:0:0:
416,128,42566,1,0,0:0:0:0:
128,192,42769,2,0,L|0:192,2,115,0|0|0,0:0|0:0|0:0,0:0:0:0:
448,216,43377,1,0,0:0:0:0:
424,168,43478,1,0,0:0:0:0:
384,136,43580,1,0,0:0:0:0:
480,88,43782,5,0,0:0:0:0:
80,112,43985,2,0,L|208:112,1,115
336,112,44390,1,0,0:0:0:0:
264,112,44492,1,0,0:0:0:0:
192,112,44593,1,0,0:0:0:0:
480,216,44796,2,0,L|336:216,2,115,0|0|0,0:0|0:0|0:0,0:0:0:0:
64,264,45404,5,0,0:0:0:0:
64,264,45505,1,0,0:0:0:0:
256,264,45607,1,0,0:0:0:0:
304,232,45708,1,0,0:0:0:0:
336,184,45809,1,0,0:0:0:0:
304,136,45911,1,0,0:0:0:0:
64,176,46012,1,0,0:0:0:0:
64,176,46113,1,0,0:0:0:0:
456,184,46215,1,0,0:0:0:0:
456,184,46316,1,0,0:0:0:0:
456,184,46417,1,0,0:0:0:0:
168,96,46620,6,0,L|24:96,1,115
168,96,47026,1,0,0:0:0:0:
0,184,47228,1,0,0:0:0:0:
376,192,47330,1,0,0:0:0:0:
432,192,47431,1,0,0:0:0:0:
128,192,47634,6,0,L|272:192,2,115,4|4|4,0:0|0:0|0:0,0:0:0:0:
440,272,48242,6,0,B|418:185|418:185|384:152,1,115
456,144,48546,1,0,0:0:0:0:
144,192,48647,1,0,0:0:0:0:
0,192,48850,1,0,0:0:0:0:
144,320,49053,6,0,L|72:176,1,115
336,240,49357,1,0,0:0:0:0:
392,208,49458,1,0,0:0:0:0:
408,152,49559,1,0,0:0:0:0:
344,152,49661,1,0,0:0:0:0:
408,96,49762,1,0,0:0:0:0:
88,112,49863,1,0,0:0:0:0:
32,112,49965,1,0,0:0:0:0:
224,112,50066,1,0,0:0:0:0:
512,112,50269,1,0,0:0:0:0:
392,200,50472,6,0,L|544:200,1,115,4|4,0:0|0:0,0:0:0:0:
0,224,50877,2,0,L|128:224,2,115,4|4|4,0:0|0:0|0:0,0:0:0:0:
176,224,51485,5,0,0:0:0:0:
0,144,51586,1,0,0:0:0:0:
0,144,51688,1,0,0:0:0:0:
120,144,51890,2,0,L|-16:144,1,115
424,144,52296,1,0,0:0:0:0:
120,256,52499,5,0,0:0:0:0:
144,192,52600,1,0,0:0:0:0:
168,136,52701,1,0,0:0:0:0:
504,160,52904,2,0,L|344:160,1,115
448,88,53309,1,0,0:0:0:0:
120,256,53512,1,0,0:0:0:0:
88,192,53613,1,0,0:0:0:0:
56,144,53715,1,0,0:0:0:0:
504,224,53917,6,0,L|360:224,2,115,0|0|0,0:0|0:0|0:0,0:0:0:0:
336,296,54526,1,0,0:0:0:0:
400,296,54627,1,0,0:0:0:0:
464,296,54728,1,0,0:0:0:0:
144,192,54931,1,0,0:0:0:0:
272,192,55134,1,0,0:0:0:0:
208,192,55235,1,0,0:0:0:0:
144,192,55336,1,0,0:0:0:0:
488,192,55539,2,0,L|352:192,1,115,0|0,0:0|0:0,0:0:0:0:
104,264,55945,5,0,0:0:0:0:
256,264,56350,1,0,0:0:0:0:
392,264,56553,1,0,0:0:0:0:
80,264,56755,6,8,L|176:192,1,115
288,184,57262,1,8,0:0:0:0:
160,184,57566,1,8,0:0:0:0:
288,184,57870,1,8,0:0:0:0:
408,184,58174,1,8,0:0:0:0:
48,120,58444,2,8,L|368:120,1,306.666666666667
