osu file format v5

[General]
AudioFilename: Romeo x Juliet ED.mp3
AudioLeadIn: 3000
PreviewTime: 3
Countdown: 1
SampleSet: Normal
StackLeniency: 0
Mode: 0
EditorBookmarks: 11803,53483,69590

[Metadata]
Title:Cyclone
Artist:12012
Creator:EiJi
Version:vHard
Source:
Tags:

[Difficulty]
HPDrainRate:6
CircleSize:5
OverallDifficulty:7
SliderMultiplier:1
SliderTickRate:1

[Events]
//Background and Video events
1,-975,"Cyclone.avi"
//Break Periods
2,17683,18796
2,25551,26664
2,33051,34533
//Storyboard Layer 0 (Background)
//Storyboard Layer 1 (Failing)
//Storyboard Layer 2 (Passing)
//Storyboard Layer 3 (Foreground)
//Storyboard Sound Samples
//Background Colour Transformations
3,100,163,162,255

[TimingPoints]
4,245.901639344262,4,1,1,100

[HitObjects]
96,80,3938,5,0
184,80,4184,1,0
272,80,4430,1,0
360,80,4676,1,0
408,80,4799,1,0
408,168,5044,1,0
360,168,5167,1,0
272,168,5413,5,0
184,168,5659,1,0
96,168,5905,1,0
96,256,6151,1,0
184,256,6397,1,0
272,256,6643,1,0
320,256,6766,1,0
320,344,7012,1,0
272,344,7135,1,0
184,344,7381,5,0
96,344,7626,1,0
24,288,7872,1,0
8,200,8118,1,0
16,112,8364,1,0
88,64,8610,1,0
128,72,8733,1,0
208,112,8979,1,0
224,152,9102,1,0
224,240,9348,5,0
256,320,9594,1,0
344,320,9840,1,0
384,312,9963,1,0
424,288,10085,1,0
440,248,10208,1,0
448,200,10331,1,0
432,160,10454,1,0
392,144,10577,1,0
344,152,10700,1,0
312,184,10823,1,0
288,224,10946,1,0
296,264,11069,1,0
312,304,11192,1,0
352,320,11315,1,0
392,312,11438,1,0
424,280,11561,1,0
448,240,11684,1,0
456,192,11807,1,0
456,104,12053,5,0
456,16,12299,1,0
368,16,12544,1,0
320,16,12667,1,0
320,104,12913,1,0
368,104,13036,1,0
368,192,13282,5,0
368,280,13528,1,0
296,336,13774,1,0
208,328,14020,1,0
128,288,14266,1,0
80,208,14512,1,0
80,160,14635,1,0
80,64,14881,1,0
80,112,15003,1,0
168,112,15249,5,0
256,112,15495,1,0
344,112,15741,1,0
432,112,15987,1,0
432,200,16233,1,0
344,200,16479,1,0
296,200,16602,1,0
200,200,16848,1,0
248,200,16971,1,0
248,288,17217,5,0
248,200,17463,1,0
16,40,19676,5,0
64,40,19799,1,0
112,40,19922,1,0
128,88,20044,1,0
80,88,20167,1,0
32,88,20290,1,0
48,136,20413,1,0
96,136,20536,1,0
144,136,20659,1,0
168,176,20782,1,0
120,176,20905,1,0
72,176,21028,1,0
136,280,21397,5,0
224,280,21643,5,0
272,280,21766,1,0
312,304,21889,1,0
344,328,22012,1,0
384,328,22135,1,0
432,328,22258,1,0
472,304,22381,1,0
488,264,22503,1,0
488,216,22626,1,0
488,168,22749,1,0
488,120,22872,1,0
488,72,22995,1,0
352,64,23364,5,0
264,64,23610,5,0
216,64,23733,1,0
176,88,23856,1,0
160,128,23979,1,0
168,168,24102,1,0
208,192,24225,1,0
248,184,24348,1,0
248,272,24594,1,0
152,272,24840,1,0
200,272,24963,1,0
336,272,25331,1,0
72,96,27544,5,0
104,72,27667,1,0
104,120,27790,1,0
112,72,27913,1,0
112,120,28036,1,0
120,72,28159,1,0
120,120,28282,1,0
128,72,28405,1,0
128,120,28528,1,0
136,72,28651,1,0
136,120,28774,1,0
144,72,28897,1,0
128,296,29512,5,0
168,296,29635,1,0
208,288,29758,1,0
248,272,29881,1,0
280,240,30003,1,0
296,200,30126,1,0
304,152,30249,1,0
296,104,30372,1,0
272,64,30495,1,0
232,40,30618,1,0
184,32,30741,1,0
136,40,30864,1,0
120,264,31479,5,0
160,240,31602,1,0
160,192,31725,1,0
128,160,31848,1,0
80,168,31971,1,0
64,208,32094,1,0
80,248,32217,1,0
120,264,32340,1,0
160,240,32463,1,0
160,192,32585,1,0
128,160,32708,1,0
80,168,32831,1,0
256,192,35413,5,0
304,176,35536,1,0
272,144,35659,1,0
224,144,35782,1,0
208,192,35905,1,0
240,224,36028,1,0
288,224,36151,1,0
304,176,36274,1,0
272,144,36397,1,0
224,144,36520,1,0
208,192,36643,1,0
240,224,36766,1,0
360,32,37412,5,0
360,32,37473,1,0
360,32,37535,1,0
152,32,38118,5,0
152,32,38180,1,0
152,32,38241,1,0
264,112,38610,5,0
264,200,38856,1,0
264,288,39102,1,0
264,376,39348,1,0
464,376,39840,2,0,B|224:376,1,200
264,376,40577,1,0
264,192,41069,1,0
264,240,41192,1,0
264,288,41315,1,0
408,288,41807,6,0,B|200:288,1,200
120,288,42544,1,0
120,104,43036,1,0
200,152,43282,1,0
280,192,43528,1,0
8,192,44512,5,0
48,192,44635,1,0
96,192,44758,1,0
136,192,44881,1,0
184,192,45003,1,0
272,192,45249,1,0
448,192,45741,1,0
272,192,46233,1,0
184,192,46479,1,0
360,192,46971,1,0
312,192,47094,1,0
272,192,47217,1,0
272,368,47708,1,0
424,280,48200,5,0
424,192,48446,1,0
424,104,48692,1,0
424,16,48938,1,0
400,56,49061,1,0
376,96,49184,1,0
344,224,49553,1,0
312,352,49922,1,0
128,352,50413,5,0
168,352,50536,1,0
208,352,50659,1,0
208,264,50905,1,0
208,176,51151,1,0
208,40,51520,1,0
272,152,51889,1,0
120,256,52381,5,0
176,320,52626,1,0
264,320,52872,1,0
352,320,53118,1,0
376,232,53364,1,0
360,144,53610,1,0
272,160,53856,1,0
200,232,54102,1,0
288,232,54348,5,0
288,232,54409,1,0
288,232,54471,1,0
288,232,54532,1,0
288,232,54594,1,0
288,144,54840,1,0
360,192,55085,1,0
176,208,55577,5,0
176,112,55823,1,0
96,160,56069,1,0
232,160,56438,1,0
368,160,56807,1,0
368,160,56868,1,0
368,160,56930,1,0
368,160,56991,1,0
368,160,57053,1,0
376,344,57544,5,0
288,344,57790,1,0
200,344,58036,1,0
200,208,58405,1,0
200,72,58774,1,0
200,248,59266,1,0
272,192,59512,1,0
344,136,59758,1,0
408,80,60003,1,0
472,16,60249,5,0
384,8,60495,1,0
304,48,60741,1,0
264,128,60987,1,0
264,304,61479,1,0
176,160,61971,1,0
264,160,62217,5,0
352,152,62463,2,0,B|352:192,11,25
352,152,63200,1,0
72,48,64184,5,0
72,96,64307,1,0
72,136,64430,1,0
72,224,64676,1,0
72,312,64922,2,0,B|248:312,2,150
296,312,66151,5,0
296,264,66274,1,0
296,224,66397,1,0
296,136,66643,1,0
296,48,66889,2,0,B|456:48,2,150
96,48,68118,6,0,B|216:48,2,100
96,136,68856,5,0
136,136,68979,1,0
160,176,69102,1,0
176,216,69225,1,0
184,256,69348,1,0
208,296,69471,1,0
240,320,69594,1,0
280,328,69717,1,0
320,336,69840,1,0
360,328,69963,1,0
400,304,70085,1,0
416,264,70208,1,0
424,216,70331,1,0
424,168,70454,1,0
416,120,70577,1,0
400,80,70700,1,0
368,48,70823,6,0,B|152:48,1,200
168,184,71684,2,0,B|360:184,1,150
320,272,72299,2,0,B|192:272,1,100
176,272,72667,1,0
128,272,72790,2,0,B|128:32,1,200
264,72,73651,2,0,B|424:72,1,150
416,160,74266,2,0,B|416:272,1,100
416,304,74635,1,0
416,352,74758,2,0,B|280:352,2,100
416,216,75618,2,0,B|240:216,1,150
176,216,76233,1,0
88,216,76479,1,0
88,128,76725,5,0
176,128,76971,1,0
264,128,77217,1,0
264,216,77463,1,0
264,304,77708,5,0
264,304,77831,1,0
264,304,77954,1,0
264,304,78077,1,0
264,304,78200,1,0
264,304,78323,1,0
264,304,78446,1,0
264,304,78569,1,0
256,192,78692,12,0,82381
