osu file format v5

[General]
AudioFilename: Romeo x Juliet ED.mp3
AudioLeadIn: 3000
PreviewTime: 3
Countdown: 1
SampleSet: Normal
StackLeniency: 0.7
Mode: 0
EditorBookmarks: 11803,53483,69590

[Metadata]
Title:Cyclone
Artist:12012
Creator:EiJi
Version:Normal
Source:
Tags:

[Difficulty]
HPDrainRate:4
CircleSize:5
OverallDifficulty:4
SliderMultiplier:0.7
SliderTickRate:1

[Events]
//Background and Video events
1,-975,"Cyclone.avi"
//Break Periods
//Storyboard Layer 0 (Background)
//Storyboard Layer 1 (Failing)
//Storyboard Layer 2 (Passing)
//Storyboard Layer 3 (Foreground)
//Storyboard Sound Samples
//Background Colour Transformations
3,100,64,0,64

[TimingPoints]
4,245.901639344262,4,1,1,100

[HitObjects]
88,192,3938,2,0,B|88:280,2,70
160,192,4798,1,0
232,192,5167,2,0,B|320:192,3,70
352,192,6151,1,0
400,192,6397,1,0
472,192,6765,1,0
472,264,7134,6,0,B|384:264,2,70
472,312,7872,1,0
424,312,8118,1,0
376,312,8364,1,0
304,312,8732,1,0
232,312,9101,1,0
232,264,9347,1,0
232,216,9593,1,0
256,192,10085,12,0,11314
88,48,11806,5,0
88,96,12052,1,0
88,144,12298,1,0
88,192,12544,2,0,B|128:192,1,35
128,240,12912,2,0,B|80:240,1,35
88,288,13281,5,0
88,336,13527,1,0
136,336,13773,1,0
184,336,14019,1,0
232,336,14265,1,0
280,336,14511,2,0,B|280:288,1,35
328,296,14879,2,0,B|328:336,1,35
376,336,15248,5,0
424,336,15494,1,0
464,312,15740,1,0
464,264,15986,1,0
464,216,16232,1,0
464,168,16478,2,0,B|504:168,1,35
496,120,16847,2,0,B|448:120,1,35
408,120,17215,1,0
360,120,17461,1,0
120,192,19676,6,0,B|120:144,11,35
184,192,21395,1,0
232,192,21641,2,0,B|232:240,11,35
304,224,23362,1,0
304,272,23608,2,0,B|352:272,11,35
264,272,25329,1,0
72,72,27542,5,0
72,120,27788,1,0
104,152,28034,1,0
136,184,28280,1,0
152,232,28526,1,0
152,280,28772,1,0
152,280,28895,1,0
272,280,29509,5,0
272,232,29755,1,0
288,184,30001,1,0
312,144,30247,1,0
352,112,30493,1,0
392,80,30739,1,0
392,80,30862,1,0
400,200,31476,5,0
440,224,31722,1,0
400,248,31968,1,0
448,256,32214,1,0
408,280,32460,1,0
456,288,32706,1,0
456,288,32829,1,0
256,32,35411,5,0
256,80,35656,1,0
256,128,35902,1,0
256,176,36148,1,0
256,224,36394,1,0
256,272,36640,1,0
256,272,36763,1,0
376,272,37378,5,0
376,272,37501,1,0
488,272,38118,5,0
488,272,38241,1,0
488,184,38607,5,0
440,184,38853,1,0
392,184,39099,1,0
344,184,39345,2,0,B|200:184,2,140
344,232,40574,2,0,B|504:232,1,157.5
504,264,41312,1,0
408,256,41803,6,0,B|408:296|408:296|296:296,1,140
256,288,42541,2,0,B|256:240|256:240|360:240,2,140
72,224,44508,6,0,B|72:136,1,70
120,152,45000,1,0
168,152,45246,2,0,B|168:0,3,140
168,152,47459,1,0
168,344,48442,6,0,B|256:344,1,70
232,296,48934,2,0,B|144:296,1,70
200,232,49549,1,0
200,160,49918,1,0
296,160,50409,6,0,B|296:240,2,70
288,112,51147,2,0,B|168:112,2,105
384,112,52376,5,0
360,152,52622,1,0
312,160,52868,1,0
40,56,54343,5,0
72,88,54589,1,0
104,128,54835,1,0
136,168,55081,1,0
136,264,55573,5,0
184,264,55819,1,0
232,264,56065,2,0,B|320:264|320:264|344:304|344:304|344:392,1,210
392,384,57048,1,0
488,384,57540,5,0
488,336,57786,1,0
488,288,58032,2,0,B|368:288,2,105
488,192,59261,1,0
304,264,60245,5,0
328,224,60490,1,0
304,184,60736,1,0
328,144,60982,1,0
232,144,61474,1,0
136,144,61966,1,0
136,240,62458,1,0
280,240,63195,1,0
472,264,64179,6,0,B|464:352,2,70
472,216,64916,2,0,B|360:208,1,105
296,200,65654,1,0
288,296,66146,5,0
264,256,66392,1,0
240,208,66638,1,0
216,168,66883,2,0,B|128:96,1,105
128,24,67621,1,0
128,120,68113,5,0
128,168,68359,1,0
128,216,68605,1,0
320,176,69588,5,0
368,176,69834,2,0,B|368:232|368:232|352:232|352:232|352:256|352:256|328:256|328:256|328:280,2,140
368,128,71063,5,0
368,80,71309,1,0
320,80,71561,2,0,B|320:128,1,35
320,160,71930,2,0,B|320:200,1,35
320,240,72293,5,0
312,288,72539,1,0
280,320,72785,1,0
232,328,73030,1,0
184,312,73276,1,0
152,272,73528,2,0,B|136:240,1,35
136,192,73897,2,0,B|136:152,1,35
144,112,74260,5,0
192,112,74506,1,0
240,112,74752,1,0
288,112,74997,1,0
336,112,75243,1,0
336,160,75495,2,0,B|288:160,1,35
296,208,75864,2,0,B|344:208,1,35
376,208,76233,5,0
424,208,76473,1,0
424,304,76965,1,0
376,304,77210,1,0
328,304,77456,1,0
280,304,77702,2,0,B|280:256,8,35
208,304,79061,6,0,B|208:192,2,105
160,304,80038,1,0
112,304,80284,1,0
112,304,80407,1,0
112,256,80653,1,0
112,184,81028,6,0,B|232:184,2,105
112,136,82005,1,0
256,192,82374,12,0,85816
