osu file format v9

[General]
AudioFilename: 12 Girls Band - Ten-sided Ambush.mp3
AudioLeadIn: 2500
PreviewTime: 68000
Countdown: 0
SampleSet: Soft
StackLeniency: 0.7
Mode: 0
LetterboxInBreaks: 1

[Editor]
DistanceSpacing: 1
BeatDivisor: 4
GridSize: 4

[Metadata]
Title:Ten-sided Ambush
Artist:12 Girls Band
Creator:cmn_891127
Version:Normal
Source:House of Flying Daggers
Tags:Shi Mian Mai Fu vivicat Romantic Energy

[Difficulty]
HPDrainRate:4
CircleSize:3
OverallDifficulty:4
ApproachRate:5
SliderMultiplier:1.2
SliderTickRate:2

[Events]
//Background and Video events
0,0,"12 Girls Band - Ten-sided Ambush.jpg"
//Break Periods
2,35077,37487
2,61744,67011
2,115077,121296
//Storyboard Layer 0 (Background)
//Storyboard Layer 1 (Fail)
//Storyboard Layer 2 (Pass)
//Storyboard Layer 3 (Foreground)
//Storyboard Sound Samples
//Background Colour Transformations
3,100,163,162,255

[TimingPoints]
592,476.190476190476,4,2,1,30,1,0
8092,-100,4,2,1,40,0,0
69163,-100,4,2,1,50,0,1
90115,-100,4,2,1,40,0,0
99639,-100,4,2,2,50,0,1
114877,-100,4,2,1,40,0,0
122377,-200,4,2,1,40,0,0
145353,-100,4,2,2,50,0,1
160592,-100,4,2,1,10,0,0

[Colours]
Combo1 : 151,62,62
Combo2 : 77,77,128

[HitObjects]
356,80,592,1,8
416,184,1068,2,0,B|356:184,1,60
312,224,1544,2,0,B|264:264|200:248,1,120,0|0
236,132,2496,6,0,B|188:92|124:108,1,120
44,196,3449,2,0,B|92:236|156:220,1,120,2|0
268,180,4401,1,8
268,316,6306,6,0,B|189:370|97:349,1,180
74,293,7258,2,0,B|51:233|90:180,1,120,2|0
208,196,8211,6,0,B|272:213|323:180,1,120,6|0
378,287,9163,2,0,B|435:253|448:194,1,120,8|0
464,76,10115,1,8
344,84,10591,2,0,B|281:95|233:51,2,120,0|2|0
412,184,12020,6,0,B|336:288|204:280,1,240,6|8
84,268,13449,1,0
72,148,13925,2,0,B|60:85|104:36,1,120,8|0
224,40,14877,1,2
308,124,15353,1,0
392,208,15830,6,0,B|439:172|507:188,2,120,6|0|8
304,288,17258,2,0,B|256:323|188:307,1,120,0|8
72,280,18211,1,0
28,168,18687,1,2
56,52,19163,1,0
172,76,19639,6,0,B|296:104|404:44,1,240,6|8
472,144,21068,1,0
372,208,21544,2,0,B|320:172|256:184,1,120,8|0
292,300,22496,1,0
180,340,22972,1,2
59,340,23449,6,0,B|-13:232|32:108,1,240,6|8
150,110,24877,1,0
269,110,25353,2,0,B|313:150|381:146,1,120,8|0
496,108,26306,1,2
408,28,26782,1,0
296,72,27258,6,0,B|184:128|60:100,1,240,6|0
0,204,28687,1,0
108,256,29163,2,0,B|220:312|341:284,1,240,6|2
456,252,30591,1,0
256,192,31068,12,2,34877
256,192,38687,5,6
151,135,39163,2,0,B|100:104|36:115,2,120,0|8|0
76,228,40591,1,8
156,320,41068,5,0
212,344,41306,1,0
272,356,41544,1,2
392,360,42020,1,0
503,319,42496,6,0,B|484:184|356:148,1,240,6|8
236,132,43925,1,0
116,132,44401,2,0,B|20:220|52:352,1,240,8|2
112,348,45591,1,0
175,342,45830,1,0
293,373,46306,6,0,B|357:381|405:342,1,120,6|0
324,252,47258,2,0,B|383:226|404:168,2,120,8|0|8
288,136,48687,1,0
240,96,48925,1,0
176,80,49163,1,2
56,80,49639,1,0
56,199,50115,6,0,B|82:331|213:357,1,240,6|8
334,357,51544,1,0
392,356,51782,1,0
453,357,52020,2,0,B|504:319|506:254,1,120,8|0
386,253,52972,2,0,B|320:251|284:200,1,120,2|0
228,95,53925,5,6
109,114,54401,1,0
92,233,54877,1,8
200,286,55353,1,0
284,200,55830,6,0,B|324:152|392:158,1,120,8|0
452,156,56544,1,0
512,160,56782,2,0,B|511:227|460:262,1,120,2|0
356,320,57734,6,0,B|232:364|124:296,1,240,6|8
72,268,58925,1,0
24,232,59163,1,0
128,172,59639,6,0,B|252:216|360:148,1,240,6|2
412,120,60830,1,0
460,84,61068,1,0
356,28,61544,5,6
296,90,68211,6,0,B|234:69|179:98,1,120,2|0
74,160,69163,5,6
136,264,69639,1,0
196,264,69877,1,0
256,264,70115,1,8
317,367,70591,5,0
376,368,70830,1,0
436,368,71068,1,8
497,264,71544,2,0,B|529:209|508:148,2,120,0|2|0
395,200,72972,5,6
315,109,73449,1,0
260,80,73687,1,0
200,68,73925,1,8
80,68,74401,5,0
48,120,74639,1,0
24,174,74877,2,0,B|-12:226|0:287,1,120,8|0
116,257,75830,2,0,B|126:319|179:354,1,120,2|0
300,352,76782,6,0,B|376:252|512:264,2,240,6|8|8
180,340,79163,1,0
132,304,79401,1,0
100,252,79639,1,2
68,132,80115,1,0
184,168,80591,6,0,B|314:184|404:92,1,240,6|8
512,152,82020,1,0
468,264,82496,1,8
380,344,82972,1,0
264,380,83449,1,2
144,380,83925,1,0
52,300,84401,6,0,B|-31:200|7:75,1,240,6|8
127,75,85830,1,0
188,80,86068,1,0
243,107,86306,1,8
360,71,86782,2,0,B|416:44|476:60,2,120,0|2|0
428,172,88211,6,0,B|336:260|204:232,2,240,6|8|8
208,80,91068,6,0,B|132:28|36:56,1,180,2|0
19,112,92020,2,0,B|-24:232|49:340,1,240,6|8
168,340,93449,5,0
204,292,93687,1,0
250,253,93925,2,0,B|291:205|358:212,1,120,8|0
343,333,94877,2,0,B|409:339|450:292,1,120,2|0
512,192,95830,5,6
441,97,96306,1,0
338,40,96782,1,8
220,31,97258,1,0
109,68,97734,5,8
224,75,98211,1,0
328,130,98687,1,2
401,223,99163,1,0
427,337,99639,6,0,B|303:298|197:369,1,240,6|8
136,368,100830,1,0
77,369,101068,1,8
77,249,101544,2,0,B|200:210|306:281,1,240,6|8
368,280,102734,1,0
427,281,102972,1,8
427,161,103449,6,0,B|303:122|197:193,1,240,6|8
136,192,104639,1,0
77,193,104877,1,8
77,73,105353,2,0,B|200:34|306:105,1,240,6|8
368,104,106544,1,0
427,105,106782,1,8
368,208,107258,6,0,B|292:315|161:307,1,240,6|8
100,304,108449,1,0
44,296,108687,1,8
116,200,109163,2,0,B|155:152|139:87,2,120,4|0|10
24,120,110591,1,8
80,100,110830,1,0
140,87,111068,6,0,B|264:60|372:124,1,240,6|8
464,200,112496,1,8
404,196,112734,1,0
343,199,112972,2,0,B|216:204|128:293,1,240,6|8
256,308,114401,1,8
256,192,114877,5,6
84,104,122496,6,0,B|119:155|184:161,1,120,2|8
244,168,123925,1,8
244,228,124401,2,0,B|301:255|359:228,1,120,2|8
414,203,125830,1,8
456,160,126306,5,2
348,108,127258,2,0,B|320:96|288:100,1,60,8|8
228,104,128211,1,2
120,156,129163,2,0,B|92:168|60:164,1,60,8|8
0,164,130115,5,2
48,276,131068,1,8
84,228,131544,1,8
120,180,132020,5,2
168,292,132972,1,8
204,244,133449,1,8
240,196,133925,5,2
288,308,134877,1,8
324,260,135353,1,8
360,212,135830,5,2
408,324,136782,1,8
444,276,137258,1,8
256,192,137734,12,0,140592
256,56,141544,5,2
392,192,142496,1,0
256,328,143449,1,2
120,192,144401,1,0
256,56,145353,6,0,B|316:56,1,60,6|0
304,116,145830,2,0,B|364:116,1,60,0|0
352,176,146306,2,0,B|472:176,1,120,8|8
448,296,147258,2,0,B|438:360|376:383,2,120,4|0|8
331,267,148687,1,8
256,360,149163,6,0,B|196:360,1,60,6|0
208,300,149639,2,0,B|148:300,1,60,0|0
160,240,150115,2,0,B|40:240,1,120,8|8
64,120,151068,2,0,B|73:55|135:32,2,120,4|0|8
181,149,152496,1,8
256,56,152972,5,6
300,100,153211,1,0
316,160,153449,1,0
256,264,153925,2,0,B|207:307|144:302,1,120,8|8
256,344,154877,6,0,B|304:387|367:382,2,120,4|0|8
344,256,156306,1,8
408,256,156544,1,0
408,192,156782,6,0,B|350:74|213:70,1,240,6|8
156,68,157972,1,0
97,72,158211,1,8
96,136,158449,1,0
104,192,158687,6,0,B|161:309|298:313,1,240,6|8
356,312,159877,1,0
415,312,160115,1,8
256,192,160592,12,0,168211
