osu file format v9

[General]
AudioFilename: 12 Girls Band - Miracle.mp3
AudioLeadIn: 1996
PreviewTime: 91910
Countdown: 0
SampleSet: Normal
StackLeniency: 0.7
Mode: 0
LetterboxInBreaks: 1

[Editor]
DistanceSpacing: 0.8
BeatDivisor: 2
GridSize: 8

[Metadata]
Title:Miracle
Artist:12 Girls Band
Creator:Breeze
Version:Beginner
Source:
Tags:classical traditional Alace

[Difficulty]
HPDrainRate:3
CircleSize:3
OverallDifficulty:3
ApproachRate:4
SliderMultiplier:1.2
SliderTickRate:1

[Events]
//Background and Video events
0,0,"2.jpg"
//Break Periods
2,56356,58837
2,104357,114837
//Storyboard Layer 0 (Background)
//Storyboard Layer 1 (Fail)
//Storyboard Layer 2 (Pass)
//Storyboard Layer 3 (Foreground)
//Storyboard Sound Samples
//Background Colour Transformations
3,100,163,162,255

[TimingPoints]
157,500,4,1,1,15,1,0
7657,-100,4,1,0,30,0,0
8532,-100,4,1,1,20,0,0
9157,-100,4,1,0,30,0,0
9907,-100,4,1,1,20,0,0
11157,-100,4,1,0,30,0,0
11907,-100,4,1,1,20,0,0
12125,500,4,1,1,20,1,0
13125,-100,4,1,0,30,0,0
13875,-100,4,1,1,20,0,0
14125,-100,4,1,1,30,0,0
14250,-100,4,1,1,10,0,0
14625,-100,4,1,1,25,0,0
14750,-100,4,1,1,10,0,0
15125,-100,4,1,1,20,0,0
15250,-100,4,1,1,10,0,0
15625,-100,4,1,2,40,0,0
16157,500,4,1,0,55,1,0
17157,-100,4,1,0,55,0,0
18157,-100,4,1,1,25,0,0
19157,-100,4,1,0,55,0,0
19657,-100,4,1,1,25,0,0
21157,-100,4,1,0,55,0,0
21657,-100,4,1,1,25,0,0
23157,-100,4,1,0,55,0,0
23657,-100,4,1,1,25,0,0
25157,-100,4,1,0,55,0,0
25657,-100,4,1,1,25,0,0
27157,-100,4,1,0,55,0,0
27657,-100,4,1,1,25,0,0
29157,-100,4,1,0,55,0,0
29657,-100,4,1,1,25,0,0
31157,-100,4,1,0,55,0,0
31657,-100,4,1,1,25,0,0
33157,-100,4,1,0,55,0,0
33657,-100,4,1,1,25,0,0
35157,-100,4,1,0,55,0,0
35657,-100,4,1,1,25,0,0
37157,-100,4,1,0,55,0,0
37657,-100,4,1,1,25,0,0
39157,-100,4,1,0,55,0,0
39657,-100,4,1,1,25,0,0
41157,-100,4,1,0,55,0,0
41532,-100,4,1,1,25,0,0
43157,-100,4,1,0,55,0,0
43532,-100,4,1,1,25,0,0
45157,-100,4,1,0,55,0,0
45532,-100,4,1,1,25,0,0
46157,-100,4,1,1,35,0,0
46407,-100,4,1,1,25,0,0
46782,-100,4,1,1,25,0,0
47407,-100,4,1,1,45,0,0
47657,-100,4,1,1,35,0,0
48157,-100,4,1,2,45,0,0
55407,-100,4,1,2,45,0,0
55907,-100,4,1,2,30,0,0
56157,-100,4,1,2,45,0,1
56282,-100,4,1,2,45,0,0
72657,-100,4,1,1,45,0,0
73157,-100,4,1,2,45,0,0
73657,-100,4,1,1,45,0,0
74157,-100,4,1,2,45,0,0
74657,-100,4,1,2,35,0,0
75157,-100,4,1,2,45,0,0
88657,-100,4,1,1,45,0,0
89657,-100,4,1,2,45,0,0
116157,-100,4,1,2,45,0,1
116282,-100,4,1,2,45,0,0
116657,-100,4,1,2,30,0,0
117407,-100,4,1,1,30,0,0
117907,-100,4,1,2,45,0,0
118407,-100,4,1,2,30,0,0
119157,-100,4,1,1,30,0,0
120157,-100,4,1,2,45,0,0
120657,-100,4,1,2,30,0,0
121157,-100,4,1,1,30,0,0
121657,-100,4,1,2,30,0,0
121907,-100,4,1,2,45,0,0
123157,-100,4,1,1,30,0,0
124157,-100,4,1,2,45,0,0
124657,-100,4,1,2,30,0,0
125157,-100,4,1,1,30,0,0
125907,-100,4,1,2,45,0,0
126407,-100,4,1,2,30,0,0
126907,-100,4,1,1,30,0,0
127657,-100,4,1,2,30,0,0
128157,-100,4,1,2,45,0,0
128657,-100,4,1,2,30,0,0
129907,-100,4,1,2,45,0,0
131157,-100,4,1,2,20,0,0
131407,-100,4,1,2,30,0,0
132157,-100,4,1,2,45,0,0
132657,-100,4,1,2,30,0,0
133157,-100,4,1,1,30,0,0
133657,-100,4,1,2,30,0,0
133907,-100,4,1,2,45,0,0
134657,-100,4,1,2,30,0,0
136157,-100,4,1,2,45,0,0
136657,-100,4,1,2,30,0,0
137907,-100,4,1,2,45,0,0
139157,-100,4,1,2,30,0,0
140157,-100,4,1,2,30,0,0
142157,-100,4,1,2,35,0,0
144157,-100,4,1,2,40,0,0
146407,-100,4,1,2,45,0,0
147157,-100,4,1,2,55,0,0
156407,-100,4,1,2,20,0,0
157157,-100,4,1,2,30,0,0
158157,-100,4,1,2,45,0,0
159157,-100,4,1,2,50,0,0
160157,-100,4,1,2,55,0,1
160407,-100,4,1,2,55,0,0

[Colours]
Combo1 : 128,64,0
Combo2 : 255,0,0
Combo3 : 0,128,0
SliderBorder : 248,184,46

[HitObjects]
64,280,157,2,0,B|104:160,1,120
136,72,1157,1,0
240,72,1657,1,0
216,168,2157,6,0,B|176:288,1,120
272,288,3157,1,0
304,200,3657,1,0
336,112,4157,6,0,B|384:72|384:72|424:112,1,120
400,200,5157,1,0
376,296,5657,1,0
288,336,6157,5,0
192,320,6657,1,0
152,232,7157,1,0
184,144,7657,1,0
256,80,8157,6,0,B|304:72|360:96|400:152|400:216|360:280,1,240
320,312,9657,1,0
272,328,9907,1,0
224,328,10157,2,0,B|176:328|128:304|96:248|96:192|136:128,1,240
184,80,11657,1,0
224,56,11907,1,0
264,48,12125,6,0,B|416:120,1,120
456,144,13125,1,0
368,184,13625,1,0
280,224,14125,6,0,B|224:256,1,60
200,296,14625,2,0,B|120:280,1,60
96,304,15125,2,0,B|80:232,1,60
40,216,15625,2,0,B|136:120,1,120,2|6
272,80,17157,5,0
416,104,18157,2,0,B|368:144|368:224,1,120
408,296,19157,2,0,B|336:320|288:256,1,120
224,320,20157,6,0,B|208:264|208:224|232:184|288:176|288:176|264:136|224:128,1,240
160,104,21657,1,0
72,56,22157,2,0,B|40:104|64:184|128:200|128:200|112:240|120:296,1,240
136,360,23657,1,0
232,352,24157,6,0,B|304:360|352:248|240:216|208:304|304:360|368:296,1,240
416,248,25657,1,0
496,192,26157,2,0,B|448:144|376:160,1,120
312,216,27157,2,0,B|280:152|320:88,1,120
392,48,28157,6,0,B|360:0|288:-16|208:16|216:128,1,240
184,192,29657,1,0
208,288,30157,2,0,B|152:304|96:288|56:216|64:160|120:104,2,240
304,272,32657,5,0
392,312,33157,2,0,B|408:280|408:216|360:168|304:160|256:176,1,240
168,200,34657,1,0
72,224,35157,1,0
104,136,35657,1,0
56,48,36157,2,0,B|112:24|176:40|200:104|200:104|240:80|288:80,1,240
360,72,37657,5,0
448,96,38157,2,0,B|376:192,1,120
280,168,39157,2,0,B|328:296,1,120
408,312,40157,2,0,B|376:368|320:392|256:368|232:328|216:272,1,240
200,200,41657,6,0,B|120:168,1,60
96,192,42157,2,0,B|96:112,1,60
56,104,42657,2,0,B|176:40,1,120
256,56,43657,6,0,B|352:96,1,60
360,72,44157,2,0,B|376:144,1,60
416,152,44657,2,0,B|344:304,1,120
320,344,45657,1,0
224,328,46157,6,0,B|136:320,1,60
168,224,46907,1,0
192,128,47407,2,0,B|160:64,1,60
256,48,48157,6,0,B|320:72,1,60,2|2
336,112,48657,2,0,B|480:72,2,120
296,144,49907,1,0
280,184,50157,6,0,B|256:272,1,60,2|2
216,256,50657,2,0,B|296:368,2,120
160,176,52157,5,6
160,176,52407,1,6
112,160,52657,2,0,B|56:176,2,60
168,80,53657,1,0
256,48,54157,6,0,B|328:80,1,60,2|2
392,128,54907,1,0
432,216,55407,1,0
392,304,55907,2,0,B|304:336,1,60,0|6
64,136,60157,5,6
152,88,60657,1,2
200,72,60907,1,0
248,64,61157,2,0,B|288:56|376:88,1,120,0|2
448,32,62157,2,0,B|464:80|456:128|408:176,1,120,0|2
336,168,63157,5,0
408,232,63657,1,2
408,328,64157,1,0
312,344,64657,2,0,B|256:304,1,60,2|0
272,264,65157,2,0,B|192:264,1,60
184,224,65657,2,0,B|128:280,1,60,2|0
112,304,66157,2,0,B|56:296|32:248|32:184,1,120,0|2
48,128,67157,5,0
120,64,67657,2,0,B|112:24|56:16,2,60,2|0|0
136,160,68657,1,2
184,240,69157,1,0
272,272,69657,1,2
368,272,70157,2,0,B|408:280|440:256,2,60,0|0|2
312,192,71157,5,0
240,136,71657,1,2
272,48,72157,2,0,B|214:21|150:53|118:125|158:189,2,240
360,88,74657,1,6
432,152,75157,5,0
456,248,75657,1,0
384,312,76157,1,6
288,312,76657,2,0,B|224:352,2,60,2|0|0
296,216,77657,2,0,B|368:192,2,60,2|0|0
200,240,78657,1,2
128,304,79157,2,0,B|88:240|128:176,1,120,0|2
160,104,80157,5,0
232,40,80657,2,0,B|272:104,1,60,2|0
312,96,81157,2,0,B|312:192,1,60
352,184,81657,2,0,B|296:280,2,60,2|0|0
424,120,82657,1,2
496,56,83157,6,0,B|528:112|496:184,1,120,0|2
424,232,84157,2,0,B|416:304|344:320,1,120,0|2
272,368,85157,2,0,B|216:328|224:240,1,120,0|2
304,216,86157,2,0,B|264:160|192:168,1,120,0|2
136,240,87157,2,0,B|88:176|120:120,1,120,0|2
40,64,88157,6,0,B|80:32|128:16|184:32|184:104|256:152|368:120|368:48,1,360,6|2
456,56,90157,1,0
488,144,90657,1,2
480,240,91157,2,0,B|464:320|352:336,1,120,6|0
304,328,92157,6,0,B|224:312,1,60,2|2
200,304,92657,2,0,B|128:296|64:224,2,120
256,224,94157,6,0,B|320:160,1,60,6|2
344,160,94657,2,0,B|432:144,2,60
304,144,95407,2,0,B|184:64,1,120
168,40,96157,6,0,B|80:88,1,60,6|6
72,56,96657,2,0,B|40:168,1,60
24,152,97157,2,0,B|72:208,1,60
160,216,97907,6,0,B|248:200,2,60,0|6|6
112,224,98657,1,0
56,304,99157,1,0
144,344,99657,1,0
192,336,99907,1,0
240,328,100157,2,0,B|312:312,1,60,6|6
256,192,100657,12,0,104157
88,312,116157,6,0,B|120:216,1,60,6|2
120,208,116657,1,2
136,160,116907,2,0,B|176:128|232:96|304:120|384:184,1,240,0|2
392,192,118157,1,2
368,288,118657,6,0,B|424:288|472:272|504:232|504:144|464:80|392:48|320:48,1,360,2|6
312,48,120407,1,6
264,48,120657,6,0,B|224:120|104:32|48:128,1,240,2|2
32,216,122157,1,2
36,264,122407,1,2
40,312,122657,2,0,B|80:304|128:264|120:192|120:192|134:159|192:216|288:168|312:144,1,360,2|6
352,120,124407,5,6
392,96,124657,2,0,B|464:64|464:64|432:192|520:160|472:280,1,300,2|2
440,312,126157,1,2
392,328,126407,6,0,B|232:352|256:224|336:224|392:344|216:344,1,300,0|2
136,336,128157,2,0,B|48:320,1,60,6|2
32,336,128657,6,0,B|32:192,1,120,2|0
16,168,129407,2,0,B|152:120,1,120,0|2
176,112,130157,2,0,B|272:72,2,60,2|2|2
216,200,131157,2,0,B|248:256,1,60,2|2
232,296,131657,2,0,B|320:320,1,60,2|0
328,344,132157,6,0,B|384:280,1,60,6|2
400,264,132657,2,0,B|480:232|480:112|400:72,1,240,2|2
360,48,133907,2,0,B|336:68|336:68|312:48|312:48|288:68|288:68|264:48,1,120,2|0
216,48,134657,1,2
128,96,135157,2,0,B|104:176,1,60
72,184,135657,2,0,B|104:248,1,60,2|0
96,288,136157,6,0,B|184:312,1,60,6|6
192,328,136657,2,0,B|312:232,1,120,2|0
384,240,137657,2,0,B|408:176,1,60,2|0
424,136,138157,2,0,B|504:56,2,90,2|2|2
376,144,139157,1,0
288,112,139657,1,2
192,88,140157,6,0,B|128:80|80:120,1,120,6|2
144,192,141157,2,0,B|96:240|112:312,1,120,0|2
208,288,142157,2,0,B|248:352|336:320,1,120,0|2
312,232,143157,2,0,B|376:216|392:144,1,120,0|2
296,128,144157,6,0,B|256:80,1,60
216,56,144657,2,0,B|144:80,1,60,2|0
120,104,145157,2,0,B|120:176,1,60
144,208,145657,2,0,B|208:240,1,60,2|0
248,232,146157,6,0,B|336:232,1,60
336,272,146657,2,0,B|400:224,1,60,0|0
432,240,147157,2,0,B|432:168,1,60
472,152,147657,2,0,B|424:112,1,60,0|0
424,64,148157,6,0,B|328:64,1,60,6|6
120,296,150157,5,6
120,296,150407,1,2
384,88,152157,5,6
384,88,152407,1,6
160,336,154157,5,6
160,336,154407,1,6
352,56,156157,6,0,B|280:64,1,60,2|2
248,72,156657,2,0,B|200:120,1,60,2|2
184,160,157157,2,0,B|192:224,1,60,2|2
216,264,157657,2,0,B|280:296,1,60,2|2
320,288,158157,6,0,B|384:272,1,60,2|2
424,256,158657,2,0,B|440:184,1,60,2|2
448,152,159157,2,0,B|384:72,1,60,2|2
368,80,159657,2,0,B|304:96,1,60,2|2
264,112,160157,5,6
264,112,160407,1,6
