osu file format v9

[General]
AudioFilename: 12 Girls Band - Miracle.mp3
AudioLeadIn: 1996
PreviewTime: 91910
Countdown: 0
SampleSet: Normal
StackLeniency: 0.7
Mode: 0
LetterboxInBreaks: 1

[Editor]
DistanceSpacing: 1
BeatDivisor: 4
GridSize: 8

[Metadata]
Title:Miracle
Artist:12 Girls Band
Creator:Breeze
Version:Advanced
Source:
Tags:classical traditional Alace

[Difficulty]
HPDrainRate:5
CircleSize:4
OverallDifficulty:5
ApproachRate:7
SliderMultiplier:2
SliderTickRate:1

[Events]
//Background and Video events
0,0,"3.jpg"
//Break Periods
2,56357,59157
2,104357,115257
//Storyboard Layer 0 (Background)
//Storyboard Layer 1 (Fail)
//Storyboard Layer 2 (Pass)
//Storyboard Layer 3 (Foreground)
//Storyboard Sound Samples
//Background Colour Transformations
3,100,163,162,255

[TimingPoints]
157,500,4,1,1,15,1,0
407,-100,4,1,1,5,0,0
2157,-100,4,1,1,15,0,0
2407,-100,4,1,1,5,0,0
4157,-100,4,1,1,15,0,0
4407,-100,4,1,1,5,0,0
6157,-100,4,1,1,15,0,0
6407,-100,4,1,1,5,0,0
7532,-100,4,1,1,15,0,0
7657,-100,4,1,0,30,0,0
7907,-100,4,1,1,20,0,0
8157,-100,4,1,0,30,0,0
8532,-100,4,1,1,20,0,0
9157,-100,4,1,0,30,0,0
9907,-100,4,1,1,20,0,0
11157,-100,4,1,0,30,0,0
11907,-100,4,1,1,20,0,0
12125,500,4,1,1,20,1,0
13125,-100,4,1,0,30,0,0
13875,-100,4,1,1,20,0,0
14125,-100,4,1,1,30,0,0
14250,-100,4,1,1,10,0,0
14625,-100,4,1,1,25,0,0
14750,-100,4,1,1,10,0,0
15125,-100,4,1,1,20,0,0
15250,-100,4,1,1,10,0,0
15625,-100,4,1,2,40,0,0
16157,500,4,1,0,55,1,0
16157,-133.333333333333,4,1,0,55,0,0
16657,-133.333333333333,4,1,1,25,0,0
17157,-133.333333333333,4,1,0,55,0,0
17532,-133.333333333333,4,1,1,25,0,0
19157,-133.333333333333,4,1,0,55,0,0
19657,-133.333333333333,4,1,1,25,0,0
21157,-133.333333333333,4,1,0,55,0,0
21657,-133.333333333333,4,1,1,25,0,0
23157,-133.333333333333,4,1,0,55,0,0
23657,-133.333333333333,4,1,1,25,0,0
25157,-133.333333333333,4,1,0,55,0,0
25657,-133.333333333333,4,1,1,25,0,0
27157,-133.333333333333,4,1,0,55,0,0
27657,-133.333333333333,4,1,1,25,0,0
29157,-133.333333333333,4,1,0,55,0,0
29657,-133.333333333333,4,1,1,25,0,0
31157,-133.333333333333,4,1,0,55,0,0
31657,-133.333333333333,4,1,1,25,0,0
33157,-133.333333333333,4,1,0,55,0,0
33532,-133.333333333333,4,1,1,25,0,0
35157,-133.333333333333,4,1,0,55,0,0
35532,-133.333333333333,4,1,1,25,0,0
37157,-133.333333333333,4,1,0,55,0,0
37657,-133.333333333333,4,1,1,25,0,0
39157,-133.333333333333,4,1,0,55,0,0
39657,-133.333333333333,4,1,1,25,0,0
41157,-133.333333333333,4,1,0,55,0,0
41532,-133.333333333333,4,1,1,25,0,0
43157,-133.333333333333,4,1,0,55,0,0
43532,-133.333333333333,4,1,1,25,0,0
45157,-133.333333333333,4,1,0,55,0,0
45532,-133.333333333333,4,1,1,25,0,0
46157,-133.333333333333,4,1,1,35,0,0
46407,-133.333333333333,4,1,1,25,0,0
46782,-133.333333333333,4,1,1,35,0,0
48157,-133.333333333333,4,1,2,50,0,0
48657,-100,4,1,2,45,0,0
55032,-100,4,1,2,40,0,0
55407,-100,4,1,2,45,0,0
55532,-100,4,1,2,30,0,0
55907,-100,4,1,2,30,0,0
56157,-100,4,1,2,45,0,1
56282,-100,4,1,2,45,0,0
72719,-100,4,1,2,40,0,0
72907,-100,4,1,2,30,0,0
73032,-100,4,1,2,20,0,0
73157,-100,4,1,2,45,0,0
74657,-100,4,1,2,35,0,0
75157,-100,4,1,2,45,0,0
88719,-100,4,1,2,20,0,0
89157,-100,4,1,2,8,0,0
89407,-100,4,1,2,45,0,0
89657,-100,4,1,2,45,0,0
116157,-100,4,1,2,45,0,1
116282,-100,4,1,2,45,0,0
116657,-100,4,1,2,30,0,0
117907,-100,4,1,2,45,0,0
118407,-100,4,1,2,30,0,0
120157,-100,4,1,2,45,0,0
120657,-100,4,1,2,30,0,0
121907,-100,4,1,2,45,0,0
122907,-100,4,1,2,30,0,0
124157,-100,4,1,2,45,0,0
124657,-100,4,1,2,30,0,0
125907,-100,4,1,2,45,0,0
126407,-100,4,1,2,30,0,0
128157,-100,4,1,2,45,0,0
128657,-100,4,1,2,30,0,0
129907,-100,4,1,2,45,0,0
130907,-100,4,1,2,30,0,0
132157,-100,4,1,2,45,0,0
132657,-100,4,1,2,30,0,0
133907,-100,4,1,2,45,0,0
134657,-100,4,1,2,30,0,0
136157,-100,4,1,2,45,0,0
136657,-100,4,1,2,30,0,0
137907,-100,4,1,2,45,0,0
139157,-100,4,1,2,30,0,0
140157,-100,4,1,2,30,0,0
142157,-100,4,1,2,35,0,0
144157,-100,4,1,2,40,0,0
146407,-100,4,1,2,45,0,0
147157,-100,4,1,2,55,0,0
156407,-100,4,1,2,20,0,0
157157,-100,4,1,2,30,0,0
158157,-100,4,1,2,45,0,0
159157,-100,4,1,2,50,0,0
160157,-100,4,1,2,55,0,1
160407,-100,4,1,2,55,0,0

[Colours]
Combo1 : 128,64,0
Combo2 : 255,0,0
Combo3 : 0,128,0
SliderBorder : 248,184,46

[HitObjects]
104,104,157,1,0
184,104,407,2,0,B|200:56,2,50
256,136,907,1,0
312,192,1157,2,0,B|360:216|392:264,1,100
312,288,1657,2,0,B|336:336|400:344,1,100
456,296,2157,5,0
456,216,2407,2,0,B|504:216,2,50
408,152,2907,1,0
360,88,3157,2,0,B|304:88|264:128,1,100
328,176,3657,2,0,B|288:208|224:216,1,100
184,160,4157,5,0
104,136,4407,2,0,B|88:88,2,50
80,208,4907,1,0
104,288,5157,1,0
176,320,5407,2,0,B|168:384,2,50
248,296,5907,1,0
304,240,6157,5,0
360,184,6407,2,0,B|416:208,2,50
352,104,6907,1,0
304,40,7157,1,0
224,40,7407,2,0,B|136:40,2,50
192,112,7907,1,0
224,184,8157,5,4
344,184,8532,1,0
376,72,8907,1,0
456,72,9157,1,0
488,184,9532,1,0
456,296,9907,1,0
376,296,10157,5,0
256,296,10532,1,0
136,296,10907,1,0
56,296,11157,1,0
16,184,11532,1,0
56,72,11907,1,0
136,72,12125,5,0
256,72,12500,1,0
376,72,12875,1,0
456,72,13125,1,0
464,192,13500,1,0
456,312,13875,1,0
376,312,14125,6,0,B|312:312,2,50
336,240,14625,2,0,B|400:240,2,50
256,240,15125,2,0,B|192:240,2,50
232,320,15625,1,2
104,312,16157,6,0,B|0:264|8:88|120:48,1,299.999991059304,4|0
168,120,17532,1,0
232,56,17907,1,0
288,56,18157,2,0,B|472:56,1,149.999995529652
480,168,19157,2,0,B|304:168,1,149.999995529652
208,168,20157,5,0
120,200,20532,1,0
40,240,20907,1,0
40,296,21157,2,0,B|64:344|136:344|168:296,1,149.999995529652
248,216,22157,2,0,B|277:171|349:171|373:219,1,149.999995529652
440,320,23157,1,0
504,224,23657,1,0
440,120,24157,6,0,B|440:56|496:24,2,112.499996647239
376,120,25157,2,0,B|368:64|256:44|256:44|144:64|136:120,1,299.999991059304
80,224,26657,1,0
152,320,27157,1,0
224,224,27657,1,0
296,320,28157,6,0,B|336:296|376:240|376:144|344:96|288:64,1,299.999991059304
176,40,29657,1,0
56,56,30157,1,0
56,144,30532,1,0
56,232,30907,1,0
56,288,31157,6,0,B|104:352|192:352,1,149.999995529652
224,304,31907,1,0
264,352,32157,1,0
352,352,32532,1,0
440,352,32907,1,0
480,304,33157,5,0
440,224,33532,1,0
480,144,33907,1,0
440,96,34157,2,0,B|440:16|520:16,2,112.499996647239
376,96,35157,2,0,B|256:96,1,112.499996647239
176,96,35907,1,0
120,72,36157,6,0,B|64:96|32:192|32:192|64:288|120:312,1,299.999991059304
152,192,37657,1,0
256,248,38157,2,0,B|336:280|336:208|432:248,1,149.999995529652
400,120,39157,2,0,B|328:88|328:160|248:120,1,149.999995529652
168,40,40157,5,0
88,80,40532,1,0
88,168,40907,1,0
88,224,41157,5,0
88,312,41532,1,0
176,312,41907,1,0
232,312,42157,6,0,B|360:272,1,112.499996647239
424,248,42907,1,0
424,184,43157,2,0,B|320:128,1,112.499996647239
240,96,43907,1,0
184,88,44157,6,0,B|151:45|105:85|76:35,2,112.499996647239
176,144,45157,2,0,B|175:193|137:205|139:248,1,112.499996647239
200,320,45907,1,0
256,312,46157,5,0
312,296,46407,2,0,B|360:280,1,37.4999988824129
408,272,46782,2,0,B|448:304,2,37.4999988824129
376,224,47282,2,0,B|312:208,2,37.4999988824129
408,176,47782,2,0,B|456:168,2,37.4999988824129
376,136,48157,5,2
376,136,48407,1,2
304,72,48657,2,0,B|160:72,2,100
304,168,49407,1,0
304,168,49532,1,0
216,224,49782,1,0
216,208,49907,1,0
216,192,50032,1,0
216,176,50157,5,2
216,80,50407,1,2
128,128,50657,2,0,B|128:16,1,100
128,128,51157,2,0,B|128:248,1,100
128,248,51532,1,0
176,336,51782,1,0
192,336,51907,1,0
208,336,52032,1,0
224,336,52157,5,6
320,336,52407,1,6
416,336,52657,2,0,B|488:312|488:224,1,100
392,224,53157,1,0
480,184,53407,2,0,B|480:112,1,50
416,56,53782,1,0
400,56,53907,1,0
384,56,54032,1,0
368,56,54157,5,2
296,128,54407,1,2
200,96,54657,1,0
104,96,54907,5,0
96,112,55032,1,0
88,128,55157,1,0
160,200,55407,1,0
168,216,55532,1,0
176,232,55657,1,0
120,312,55907,1,0
120,328,56032,1,0
120,344,56157,1,6
424,192,60157,5,6
256,88,60657,2,0,B|200:72|144:32,2,100,2|0|0
256,296,61657,2,0,B|312:312|368:352,2,100,2|0|0
88,192,62657,1,2
256,88,63157,5,0
256,296,63657,1,2
424,192,64157,2,0,B|384:168|336:152|320:240|272:240|224:192,1,200,0|2
176,128,64907,1,0
80,104,65157,1,0
32,192,65407,1,0
88,272,65657,1,2
176,224,65907,1,0
256,168,66157,2,0,B|259:150|395:161|274:29|232:58|335:211|376:66,1,200,0|2
472,264,67157,5,0
288,352,67657,1,2
264,256,67907,1,0
184,320,68157,2,0,B|128:248|48:360|120:368|168:328|56:264|32:360,1,200,0|2
328,64,69157,2,0,B|384:136|464:24|392:16|344:56|456:120|480:24,1,200,0|2
344,192,70157,2,0,B|264:144|248:248|152:192,1,200,0|2
72,144,70907,1,0
72,240,71157,5,0
256,320,71657,1,2
440,240,72157,1,0
256,168,72657,2,0,B|256:136,6,33.3333333333333,2|0|0|0|0|0|0
408,40,73657,1,2
104,40,74157,1,0
256,304,74657,1,6
304,112,75157,6,0,B|352:112,2,50
208,112,75657,2,0,B|152:112,2,50,2|0|0
208,208,76157,2,0,B|200:280|256:312|312:280|304:208,1,200,6|2
392,160,76907,1,0
484,131,77157,2,0,B|440:80|368:64|305:111,1,200,0|2
208,112,77907,1,0
207,208,78157,2,0,B|200:280|256:312|312:280|304:209,1,200,0|2
352,48,79157,5,0
160,48,79657,1,2
40,208,80157,2,0,B|96:208|104:272|104:272|120:208|176:208,1,200,0|2
192,304,80907,1,0
272,240,81157,2,0,B|320:208|384:208,1,100
416,120,81657,2,0,B|360:112|304:144,1,100,2|0
216,136,82157,2,0,B|160:112|96:144,2,100,0|0|2
288,320,83157,5,0
224,64,83657,1,2
200,264,84157,2,0,B|144:296|80:248|88:168|144:136,1,200,0|2
312,120,85157,2,0,B|368:88|432:136|424:216|368:248,1,200,0|2
192,184,86157,2,0,B|232:136|232:136|224:72|264:40|328:40,1,200,0|2
320,200,87157,2,0,B|280:248|280:248|288:312|248:344|184:344,1,200,0|2
48,216,88157,1,6
240,160,88657,2,0,B|208:160,8,25
304,80,89407,1,0
208,56,89657,1,2
120,112,89907,5,2
120,128,90032,1,2
120,144,90157,1,0
144,240,90407,1,0
224,304,90657,1,2
320,304,90907,1,2
328,288,91032,1,2
336,272,91157,2,0,B|408:224|336:136|288:208|392:248|424:120,1,200,6|0
368,56,91907,1,0
272,56,92157,5,2
272,56,92407,1,2
176,80,92657,2,0,B|112:80|88:128,1,100
176,176,93157,1,0
152,272,93407,2,0,B|208:304,1,50
256,216,93782,2,0,B|256:264,2,50
288,176,94157,5,6
288,176,94407,1,2
360,104,94657,2,0,B|368:40|448:40,1,100
368,120,95157,2,0,B|424:128|440:192,1,100
440,200,95532,1,0
416,296,95782,1,0
408,312,95907,1,0
400,328,96032,1,0
392,344,96157,5,6
296,344,96407,1,6
200,344,96657,2,0,B|64:344,2,100
200,248,97407,2,0,B|200:192,1,50
112,248,97782,1,0
96,240,97907,1,0
80,232,98032,1,0
64,224,98157,6,0,B|64:96,1,100,6|6
152,80,98657,1,0
248,40,98907,1,0
296,128,99157,1,0
344,216,99407,1,0
344,216,99532,1,0
440,216,99782,2,0,B|488:216,2,50
392,216,100157,5,6
392,216,100407,1,2
256,192,100657,12,0,104157
56,192,116157,5,6
152,192,116407,1,6
248,192,116657,1,2
336,144,116907,2,0,B|336:96,2,50
384,232,117407,1,0
328,312,117657,1,2
312,312,117782,1,0
296,312,117907,5,2
200,312,118157,1,2
104,344,118407,1,0
72,248,118657,2,0,B|128:216,3,50,2|0|0|0
96,176,119157,2,0,B|56:96,3,50
112,104,119657,2,0,B|120:32,3,50,2|0|0|0
160,32,120157,6,0,B|288:32,1,100,6|6
360,40,120657,1,2
368,56,120782,1,0
376,72,120907,1,0
440,152,121157,1,0
432,248,121407,2,0,B|488:272,2,50,0|0|2
368,320,121907,6,0,B|320:352|272:320,1,100,2|2
320,232,122407,2,0,B|272:200|224:232,1,100,2|2
136,280,122907,2,0,B|88:312,2,50
136,184,123407,1,0
136,168,123532,1,0
136,152,123657,1,2
136,56,123907,2,0,B|88:32,2,50,2|2|6
232,56,124407,5,6
328,56,124657,1,2
336,72,124782,1,0
344,88,124907,1,0
392,176,125157,1,0
448,264,125407,1,0
440,280,125532,1,0
432,296,125657,1,2
344,344,125907,5,2
248,344,126157,1,2
152,344,126407,2,0,B|88:344,2,50,0|0|2
200,256,126907,1,0
208,240,127032,1,0
216,224,127157,1,0
256,128,127407,2,0,B|304:128,2,50,0|0|2
160,128,127907,1,0
144,128,128032,1,0
128,128,128157,5,6
32,128,128407,1,6
80,40,128657,2,0,B|0:40,2,50,2|0|0
176,40,129157,1,0
272,40,129407,1,0
288,40,129532,1,0
304,40,129657,1,2
400,40,129907,6,0,B|456:40|496:112,1,100,2|2
392,136,130407,2,0,B|392:176|456:176|448:216,1,100,2|2
424,304,130907,2,0,B|464:344,2,50
344,240,131407,1,0
264,304,131657,2,0,B|224:344,2,50,2|0|0
344,240,132157,6,0,B|336:200|272:200|272:152,1,100,6|2
256,72,132657,2,0,B|240:64|224:80|208:64,3,50,2|0|0|0
160,64,133157,2,0,B|136:64|128:88|104:88,3,50
80,120,133657,2,0,B|88:144|64:152|72:184,3,50,2|0|2|2
64,208,134157,5,2
72,248,134282,2,0,B|112:328|216:312,1,150,2|2
296,296,134907,1,0
312,288,135032,1,0
328,280,135157,1,0
344,272,135282,1,0
360,264,135407,1,0
456,224,135657,2,0,B|489:210|489:160|456:144,1,100,2|0
360,112,136157,5,6
360,112,136407,1,6
288,48,136657,2,0,B|256:64|248:104|264:128|256:152,1,100,2|0
248,232,137157,1,0
240,248,137282,1,0
232,264,137407,1,0
152,328,137657,1,2
72,272,137907,5,2
64,256,138032,1,2
56,240,138157,2,0,B|32:200|64:152|96:128,1,100
88,136,138532,2,0,B|104:104|152:72|184:56,1,100,2|0
176,64,138907,2,0,B|208:64|256:48|288:48,1,100,2|0
296,48,139282,1,0
316,52,139407,1,0
332,52,139532,1,0
348,52,139657,1,2
448,80,139907,5,2
448,96,140032,1,2
448,112,140157,2,0,B|432:176|472:184|448:272,1,150,6|0
448,280,140657,1,2
376,352,140907,1,0
280,336,141157,2,0,B|280:296|304:264|344:256|344:256|360:232|352:200,1,150
352,200,141657,1,2
328,104,141907,1,0
240,48,142157,6,0,B|224:72|216:120|232:160|232:160|208:176|200:200,1,150
192,200,142657,1,2
128,280,142907,1,0
48,344,143157,2,0,B|32:312|24:272|32:224|64:216|88:192,1,150
88,196,143657,1,2
136,104,143907,1,0
216,40,144157,6,0,B|240:24|288:24|328:64,1,100
408,80,144657,2,0,B|400:120|376:144|336:144,1,100,2|0
248,120,145157,2,0,B|208:120|184:160|192:208,1,100
288,216,145657,2,0,B|296:256|256:288|216:280,1,100,2|0
128,272,146157,2,0,B|128:320|168:352|216:352,1,100
256,192,146532,12,6,148157
256,192,148407,1,6
352,224,148657,2,0,B|401:213|392:182|448:168,2,100
320,128,149407,1,0
320,128,149532,1,0
248,64,149782,2,0,B|264:40|288:32,2,50
208,88,150157,5,6
208,88,150407,1,2
112,56,150657,1,0
48,136,150907,2,0,B|32:80,2,50
56,160,151282,1,0
64,184,151407,2,0,B|80:232,1,50
144,312,151782,1,0
160,312,151907,1,0
176,312,152032,1,0
192,312,152157,6,0,B|320:312,1,100,6|6
368,248,152657,2,0,B|335:223|383:192|335:160,1,100
368,248,153157,2,0,B|392:216|424:263|456:216,1,100
464,200,153532,1,0
456,104,153782,1,0
448,88,153907,1,0
440,72,154032,1,0
432,56,154157,5,6
336,32,154407,1,6
256,96,154657,1,0
256,192,154907,1,0
192,264,155157,1,0
96,304,155407,2,0,B|72:296|72:256,1,50
56,168,155782,2,0,B|24:176|8:200,2,50
96,144,156157,6,0,B|128:128|168:120|200:128,1,100,2|2
160,32,156657,2,0,B|200:24|248:40|280:72,1,100,2|2
192,128,157157,2,0,B|232:136|264:152|296:208,1,100,2|2
336,96,157657,2,0,B|360:128|380:171|379:221,1,100,2|2
276,180,158157,6,0,B|288:216|288:256|256:296,1,100,2|2
368,272,158657,2,0,B|368:304|352:336|312:344,1,100,2|2
208,344,159157,2,0,B|152:344|112:280,1,100,2|2
200,232,159657,2,0,B|152:208|152:136,1,100,2|2
160,32,160157,5,6
352,32,160407,1,6
