osu file format v9

[General]
AudioFilename: horse race.mp3
AudioLeadIn: 2000
PreviewTime: 29963
Countdown: 0
SampleSet: Soft
StackLeniency: 0.5
Mode: 0
LetterboxInBreaks: 0

[Editor]
DistanceSpacing: 1
BeatDivisor: 4
GridSize: 4

[Metadata]
Title:Horse Race
Artist:12 Girls Band
Creator:cmn_891127
Version:Hard
Source:
Tags:Saima kazenotama KayeSara Megurine Luka AoiX xykbear

[Difficulty]
HPDrainRate:6
CircleSize:4
OverallDifficulty:5
ApproachRate:7
SliderMultiplier:1.4
SliderTickRate:1

[Events]
//Background and Video events
0,0,"BG.jpg"
//Break Periods
//Storyboard Layer 0 (Background)
//Storyboard Layer 1 (Fail)
//Storyboard Layer 2 (Pass)
//Storyboard Layer 3 (Foreground)
//Storyboard Sound Samples
//Background Colour Transformations
3,100,163,162,255

[TimingPoints]
284,353.711018098214,4,2,1,100,1,0
3113,-100,4,2,1,20,0,0
3202,-100,4,2,1,24,0,0
3290,-100,4,2,1,28,0,0
3378,-100,4,2,1,32,0,0
3467,-100,4,2,1,36,0,0
3555,-100,4,2,1,40,0,0
7446,-100,4,2,1,44,0,0
7535,-100,4,2,1,48,0,0
7623,-100,4,2,1,52,0,0
7711,-100,4,2,1,56,0,0
7800,-100,4,2,1,60,0,0
11691,-100,4,2,1,56,0,0
11779,-100,4,2,1,52,0,0
11868,-100,4,2,1,48,0,0
11956,-100,4,2,1,44,0,0
12044,-100,4,2,1,40,0,0
12133,-100,4,2,1,36,0,0
12221,-100,4,2,1,32,0,0
12310,-100,4,2,1,28,0,0
12398,-100,4,2,1,24,0,0
12487,-100,4,2,1,20,0,0
12929,-100,4,2,1,60,0,0
41226,-200,4,2,1,60,0,0
51129,-100,4,2,1,60,0,0
52633,352.319436288902,4,2,1,60,1,1
63930,353.711018098214,4,2,1,60,1,0
74983,-100,4,2,1,50,0,0
83472,-100,4,2,1,60,0,0
86567,-100,4,2,1,60,0,1
89397,352.319436288902,4,2,1,60,1,1
95738,-100,4,2,1,60,0,0

[Colours]
Combo1 : 0,128,128
Combo2 : 255,255,128

[HitObjects]
256,192,2936,1,0
256,192,3113,6,0,B|276:192,12,17.5,2|0|2|0|2|0|2|0|2|0|2|0|2
195,228,3821,2,0,B|164:248|128:241,1,70,2|0
60,216,4174,2,0,B|77:182|111:170,1,70,2|0
184,156,4528,6,0,B|239:112|316:126,1,140,2|2
388,140,5059,1,0
370,211,5235,2,0,B|356:288|400:344,1,140,2|2
260,344,5943,6,0,B|204:387|127:373,1,140,2|2
56,348,6473,1,0
112,300,6650,2,0,B|167:256|244:270,1,140,2|2
244,128,7358,6,0,B|244:110,12,17.5,2|0|2|0|2|0|2|0|2|0|2|0|10
310,152,8065,1,8
346,213,8242,1,8
334,284,8419,1,8
279,329,8596,1,8
208,329,8773,6,0,B|131:343|75:299,2,140,2|2|2
168,192,9834,1,2
256,76,10187,6,0,B|326:76,1,70,10|0
326,146,10541,2,0,B|396:146,1,70,2|0
396,216,10895,2,0,B|466:216,2,70,10|0|2
325,216,11425,1,0
254,216,11602,6,0,B|238:216,28,17.5,2|0|2|0|2|0|2|0|2|0|2|0|2|0|2|0|2|0|2|0|2|0|2|0|2|0|2|0|2
256,144,13017,6,0,B|200:100|123:114,1,140,14|2
56,136,13548,1,2
56,136,13636,1,2
56,136,13725,2,0,B|12:191|26:268,1,140,10|2
48,336,14255,1,2
48,336,14344,1,2
48,336,14432,6,0,B|103:379|180:365,2,140,10|8|10
96,280,15316,2,0,B|96:244|128:220,2,70,0|2|0
168,280,15847,6,0,B|240:280,1,70,10|8
280,220,16200,2,0,B|320:164,1,70,2|0
360,104,16554,2,0,B|416:144,2,70,10|0|2
300,64,17085,1,8
236,100,17262,6,0,B|176:136|88:116,2,140,10|2|10
300,136,18146,1,0
344,192,18323,2,0,B|312:211|276:205,1,70,2|0
276,276,18676,6,0,B|206:276,2,70,10|0|2
325,325,19207,1,2
374,275,19384,2,0,B|442:275,2,70,10|0|2
324,225,19914,1,2
274,175,20091,6,0,B|218:131|141:145,1,140,10|2
76,172,20622,1,2
104,236,20799,2,0,B|104:312,2,70,10|0|2
172,260,21329,1,2
172,260,21418,1,2
172,260,21506,6,0,B|205:277|239:268,1,70,10|0
232,340,21860,2,0,B|269:338|295:313,1,70,2|0
324,380,22214,2,0,B|355:360|365:325,1,70,10|0
424,368,22567,2,0,B|441:334|432:300,1,70,2|0
400,236,22921,6,0,B|340:274|265:253,1,140,10|2
200,224,23452,1,2
148,176,23628,2,0,B|78:176,2,70,10|0|2
180,112,24159,1,2
180,112,24247,1,2
180,112,24336,6,0,B|256:126|312:82,1,140,10|2
384,84,24866,1,2
384,84,24955,1,2
384,84,25043,2,0,B|449:109,2,70,10|0|2
346,145,25574,1,2
346,145,25662,1,2
346,145,25751,6,0,B|389:199,2,70,10|0|2
286,182,26281,1,2
286,182,26370,1,2
286,182,26458,2,0,B|296:251,2,70,10|0|2
216,184,26989,1,2
216,184,27077,1,2
216,184,27166,6,0,B|190:249,1,70,10|0
124,224,27519,2,0,B|58:198,1,70,2|0
36,264,27873,2,0,B|10:329,1,70,10|0
76,356,28227,2,0,B|141:381,1,70,2|0
188,328,28580,5,10
232,273,28757,1,2
276,219,28934,1,10
321,165,29111,1,2
374,210,29288,1,10
418,156,29465,1,2
463,102,29642,1,10
504,47,29818,1,2
432,36,29995,6,0,B|376:79|299:65,1,140,14|2
228,44,30526,2,0,B|161:66,2,70,2|10|0
216,120,31056,2,0,B|282:142,1,70,2|0
228,196,31410,6,0,B|284:239|361:225,1,140,14|2
432,204,31941,2,0,B|499:226,2,70,2|10|0
444,280,32471,2,0,B|378:302,1,70,2|0
304,304,32825,6,0,B|236:304,1,70,10|0
160,304,33179,2,0,B|107:256|108:178,1,140,2|10
112,108,33709,1,0
172,148,33886,2,0,B|242:148,1,70,2|0
240,220,34240,6,0,B|308:220,1,70,10|0
384,220,34593,2,0,B|436:172|435:94,1,140,2|10
432,24,35124,1,0
372,64,35301,2,0,B|302:64,1,70,2|0
244,24,35655,5,14
172,24,35831,1,10
100,155,36185,1,2
100,155,36274,1,2
100,155,36362,2,0,B|66:213,2,70,10|10|0
136,215,36893,1,2
136,215,36981,1,2
136,215,37069,6,0,B|169:273,2,70,10|10|0
208,215,37600,1,2
208,215,37688,1,2
208,215,37777,2,0,B|276:215,2,70,10|10|0
208,143,38307,1,2
208,143,38396,1,2
208,143,38484,6,0,B|136:143,1,70,10|2
88,192,38838,2,0,B|88:262,1,70,10|2
137,311,39192,2,0,B|207:311,1,70,10|2
256,261,39545,2,0,B|256:191,1,70,10|2
256,120,39899,5,12
328,192,40253,1,8
256,192,40430,1,8
184,192,40607,1,8
152,52,41314,6,0,B|128:123|50:137,2,140,10|4|2
184,192,43083,1,2
184,192,43259,1,2
184,192,43436,2,0,B|264:192,1,70,2|2
324,68,44144,6,0,B|254:68,2,70,2|2|2
392,92,45028,1,2
392,92,45116,1,2
392,92,45205,1,2
432,152,45382,1,2
420,224,45559,6,0,B|396:295|318:309,1,140,2|6
176,308,46620,1,2
228,260,46796,1,2
272,204,46973,6,0,B|314:147|300:71,1,140,2|10
444,68,48034,1,2
376,192,48388,6,0,B|304:192,1,70,2|2
256,241,48919,1,2
206,191,49096,2,0,B|134:191,1,70,2|2
256,140,49803,6,0,B|316:184|389:168,1,140,2|10
388,308,50864,1,2
317,308,51041,1,2
246,308,51218,6,0,B|178:308,2,70,10|2|10
246,237,51748,1,2
196,187,51925,2,0,B|147:138,1,70,10|2
196,87,52279,2,0,B|244:38,1,70,10|2
316,36,52633,5,10
316,36,52721,1,2
316,36,52809,1,2
316,36,52897,1,2
316,36,52985,2,0,B|330:71|362:86,1,70,10|2
362,157,53337,1,10
362,157,53425,1,2
362,157,53513,1,2
362,157,53601,1,2
362,157,53689,2,0,B|330:172|316:208,1,70,10|2
296,276,54042,6,0,B|296:311,2,35,10|2|2
228,296,54394,2,0,B|228:331,2,35,10|2|2
160,276,54746,1,10
112,223,54923,1,2
112,152,55099,1,10
160,100,55275,1,2
228,80,55451,6,0,B|264:80,4,35,10|2|2|2|10
228,152,55980,1,2
228,224,56156,2,0,B|268:224,4,35,10|2|2|2|10
228,296,56684,1,2
272,352,56860,6,0,B|296:378|334:380,1,70,10|2
371,384,57125,1,2
405,380,57213,2,0,B|443:378|468:352,1,70,10|2
512,296,57565,1,10
472,236,57741,2,0,B|492:200,2,35,2|2|10
400,236,58093,1,2
352,180,58270,6,0,B|327:206|289:208,1,70,10|2
252,212,58534,1,2
216,212,58622,1,10
144,220,58798,2,0,B|106:222|81:248,2,70,2|10|2
140,292,59327,2,0,B|164:318|202:320,1,70,10|2
268,292,59679,6,0,B|296:272,2,35,10|2|2
316,344,60031,2,0,B|340:370|378:372,1,70,10|2
372,300,60384,2,0,B|396:273|434:271,1,70,10|2
472,268,60648,1,2
468,232,60736,2,0,B|465:194|439:169,1,70,10|2
392,116,61088,6,0,B|412:84,4,35,2|2|10|2|2
328,88,61617,1,10
256,88,61793,2,0,B|244:56,4,35,10|2|2|2|10
192,120,62321,1,2
136,164,62497,5,10
136,164,62586,1,2
136,164,62674,1,2
136,164,62762,1,2
136,164,62850,2,0,B|111:190|73:192,1,70,10|2
4,200,63202,1,12
4,200,63554,1,4
136,248,63930,6,0,B|208:232|268:276,1,140,10|10
328,316,64460,1,2
384,272,64637,2,0,B|412:249|417:212,1,70,10|2
364,164,64991,2,0,B|341:192|304:197,1,70,10|2
364,164,65344,6,0,B|326:158|304:130,1,70,10|2
236,104,65698,2,2,B|163:86|102:129,2,140,10|10|10
292,60,66582,1,2
348,104,66759,6,0,B|396:160|385:234,1,140,10|10
372,304,67290,1,2
304,324,67467,2,0,B|270:337|235:323,2,70,10|2|10
267,258,67997,1,2
267,258,68086,1,2
267,258,68174,6,0,B|244:208|184:204,1,105,10|2
212,180,68528,2,0,B|189:208|152:213,1,70,10|2
76,192,68881,2,0,B|101:126,2,70,10|2|10
48,260,69412,1,2
104,304,69589,6,0,B|160:352|234:341,1,140,10|10
304,328,70119,1,2
304,328,70208,1,2
304,328,70296,2,0,B|327:356|364:361,2,70,10|2|10
256,272,70827,1,2
228,208,71004,6,0,B|204:144,2,70,10|2|10
293,183,71534,1,2
293,183,71623,1,2
293,183,71711,2,0,B|360:158,1,70,10|2
334,92,72065,2,0,B|401:67,1,70,10|2
468,92,72419,5,10
500,156,72595,1,2
508,192,72684,1,2
512,228,72772,2,0,B|519:264|501:295,1,70,10|2
444,252,73126,2,0,B|389:301|315:293,1,140,10|10
244,284,73657,1,2
180,316,73833,6,0,B|150:337|113:332,2,70,10|2|10
132,260,74364,1,2
132,260,74452,1,2
132,260,74541,2,0,B|168:232|170:203,1,70,10|2
184,132,74895,1,10
256,132,75071,1,2
256,132,75160,1,2
256,132,75248,6,0,B|310:181|384:173,1,140,10|10
452,136,75779,1,2
452,136,75867,1,2
452,136,75956,2,0,B|397:86|323:94,1,140,10|10
256,60,76486,1,2
256,60,76575,1,2
256,60,76663,6,0,B|201:109|127:101,1,140,10|10
92,168,77194,1,2
92,168,77282,1,2
92,168,77371,2,0,B|141:222|133:296,1,140,10|10
208,296,77901,1,2
208,296,77990,1,2
208,296,78078,6,0,B|278:296,1,70,10|2
327,345,78432,2,0,B|397:345,1,70,10|2
446,295,78785,2,0,B|446:225,1,70,10|2
495,175,79139,2,0,B|495:105,1,70,10|2
432,72,79493,6,0,B|432:28,4,35,10|2|2|2|10
368,104,80023,1,2
304,136,80200,2,0,B|241:175|170:154,1,140,10|10
100,136,80731,1,2
100,136,80819,1,2
100,136,80908,6,0,B|71:157|62:193,1,70,10|2
101,252,81261,2,0,B|93:286|110:320,1,70,10|2
178,338,81615,2,0,B|195:370|229:384,1,70,10|2
293,353,81969,2,0,B|327:366|362:354,1,70,10|2
388,288,82322,6,0,B|424:288,4,35,10|2|2|2|10
364,220,82853,1,2
300,190,83030,2,0,B|240:234|168:220,1,140,10|10
132,160,83560,1,2
132,160,83649,1,2
132,160,83737,6,0,B|59:174|0:130,1,140,10|10
44,72,84268,1,2
116,88,84445,2,0,B|189:102|248:58,1,140,10|10
320,56,84975,1,2
360,116,85152,6,0,B|346:189|390:248,1,140,10|10
388,320,85683,1,2
324,352,85860,2,0,B|256:381|188:351,1,140,10|10
124,320,86390,1,2
100,252,86567,6,0,B|77:185,1,70,10|2
148,196,86921,2,0,B|178:132,1,70,10|2
220,192,87274,2,0,B|286:169,1,70,10|2
276,240,87628,2,0,B|339:270,1,70,10|2
404,304,87982,6,2,B|404:344,2,35,10|2|2
468,268,88336,2,2,B|498:285,2,35,10|2|2
468,196,88689,2,2,B|498:178,2,35,10|2|2
404,160,89043,2,2,B|404:120,2,35,10|2|2
404,232,89397,6,0,B|384:232,60,17.5,2|0|2|0|2|0|2|0|2|0|2|0|2|0|2|0|2|0|2|0|2|0|2|0|2|0|2|0|2|0|2|0|2|0|2|0|2|0|2|0|2|0|2|0|2|0|2|0|2|0|2|0|2|0|2|0|2|0|2|0|2
402,159,92215,5,10
368,93,92391,1,10
309,50,92567,1,10
236,40,92744,1,10
167,65,92920,1,10
119,119,93096,1,10
106,190,93272,1,10
120,261,93448,1,10
168,318,93624,1,10
236,345,93800,1,10
308,338,93977,1,10
370,296,94153,1,10
404,232,94329,1,10
256,108,95034,5,4
183,234,95386,1,4
328,233,95738,1,4
