osu file format v7

[General]
AudioFilename: Freedom.mp3
AudioLeadIn: 0
PreviewTime: 52095
Countdown: 1
SampleSet: Soft
StackLeniency: 0.6
Mode: 0
LetterboxInBreaks: 1

[Editor]
DistanceSpacing: 0.800000011920929
BeatDivisor: 2
GridSize: 16

[Metadata]
Title:Freedom
Artist:12 Girls Band
Creator:LKs
Version:Standard
Source:
Tags:Album SHANGHAI lepidopodus

[Difficulty]
HPDrainRate:4
CircleSize:4
OverallDifficulty:4
SliderMultiplier:1.6
SliderTickRate:1

[Events]
//Background and Video events
0,0,"fd.jpg"
//Break Periods
//Storyboard Layer 0 (Background)
//Storyboard Layer 1 (Fail)
//Storyboard Layer 2 (Pass)
//Storyboard Layer 3 (Foreground)
//Storyboard Sound Samples
//Background Colour Transformations
3,100,255,255,255

[TimingPoints]
627,461.538461538462,4,2,2,70,1,0
52088,-100,4,1,0,50,0,0
52319,-100,4,1,0,50,0,1
59703,-100,4,1,0,50,0,1
66627,-100,4,1,0,70,0,0
66973,-100,4,2,2,70,0,0
77934,-100,4,1,0,70,0,0
78165,-100,4,1,0,50,0,1
81396,-100,4,1,0,50,0,0
81627,-100,4,2,0,70,0,0
89011,-100,4,1,0,50,0,0
117165,-100,4,1,0,50,0,1
118780,-100,4,1,0,50,0,0

[Colours]
Combo1 : 255,38,38
Combo2 : 255,255,255
Combo3 : 0,120,240

[HitObjects]
192,112,30165,2,0,L|256:64|333:116,3,160,0|0|2|2
432,192,32011,1,0
368,304,32472,1,0
256,240,32934,1,2
144,304,33396,1,2
80,192,33857,6,0,L|80:112|144:64,3,160,0|0|2|2
256,112,35703,1,0
256,240,36165,1,0
368,176,36626,1,2
256,112,37088,1,2
368,48,37549,6,0,L|464:48,2,80,8|0|8
336,176,38472,2,0,L|160:176,1,160,2|2
144,336,39396,6,0,L|48:336,2,80,8|0|8
176,208,40319,2,0,L|352:208,1,160,2|2
384,96,41242,5,8
256,64,41703,1,8
128,96,42165,1,8
192,208,42626,1,8
320,208,43088,2,0,L|320:304,2,80,2|0|2
432,160,44011,2,0,L|432:64,2,80,2|0|2
320,208,44934,1,4
256,192,45049,12,0,50472
256,192,51396,5,4
256,192,51857,1,4
384,192,52319,6,0,L|384:272|320:336|240:336|176:272,1,320,2|2
192,160,53703,1,8
192,32,54165,2,0,L|272:32|320:96|368:32|448:32,1,320,2|2
448,160,55549,1,8
384,272,56011,5,4
256,272,56472,2,0,L|208:160|160:272,1,240,2|0
161,268,57396,1,2
80,160,57857,1,0
208,160,58319,2,0,L|256:272|304:160,1,240,2|0
302,163,59242,1,2
352,48,59703,6,0,L|416:96|416:192|336:256,1,240,2|0
366,232,60626,1,2
256,160,61088,1,8
144,240,61549,6,0,L|48:240|80:320|192:320,1,240,2|0
201,319,62472,1,2
336,272,62934,1,8
384,144,63396,6,0,L|384:48|288:48|288:144|288:144,1,240,2|0
288,160,64319,2,0,L|288:240|192:240|192:304,1,240,8|0
128,304,65242,2,0,L|48:304,1,80,2|0
48,240,65703,2,0,L|48:160,2,80,2|0|8
128,144,66626,5,4
256,96,67088,2,0,L|416:96,1,160,0|8
368,208,68011,2,0,L|272:208,1,80
224,208,68472,1,8
320,304,68934,2,0,L|496:304,1,160,0|8
368,208,69857,2,0,L|272:208,1,80
224,208,70318,1,8
96,176,70780,6,0,L|96:240|64:304,4,120,0|2|2|0|2
96,176,72396,1,2
112,112,72626,1,0
128,48,72857,2,0,L|224:48,3,80,0|8|0|8
336,80,74011,5,4
336,208,74472,2,0,L|320:288|208:304,3,160,0|0|0|6
128,224,76319,2,0,L|144:144|256:128,3,160,0|0|0|6
336,64,78165,6,0,L|336:160|272:192|336:224|336:320,1,320,2|2
400,192,79549,1,8
272,192,80011,2,0,L|192:240|160:160|128:176|64:208,1,240,2|0
105,187,80934,1,8
160,80,81396,1,8
288,80,81857,5,0
400,128,82319,1,0
288,176,82780,1,0
176,224,83242,1,0
288,272,83703,1,0
400,224,84165,1,0
288,176,84627,1,0
176,224,85088,1,0
176,224,85549,5,0
64,288,86011,1,0
64,160,86472,1,0
176,96,86934,1,0
288,160,87396,1,0
288,288,87857,1,0
176,224,88319,1,0
176,224,88780,1,4
288,288,89242,6,0,L|368:320|464:256,2,160
352,176,90626,1,2
416,64,91088,6,0,L|336:48|240:96,2,160
352,176,92472,1,2
224,176,92934,6,0,L|160:176|112:256|48:160,1,240
66,187,93857,1,2
64,64,94319,1,2
192,64,94780,2,0,L|272:32|336:80,3,160,0|0|0|2
400,192,96626,6,0,L|400:288,1,80
400,336,97088,1,0
288,272,97549,2,0,L|288:112,1,160,0|2
176,192,98472,2,0,L|176:288,1,80
176,336,98934,1,0
288,272,99395,2,0,L|288:112,1,160,0|2
176,64,100319,6,0,L|96:80,1,80
176,192,101011,2,0,L|288:176,2,80
176,320,101934,2,0,L|96:336,2,80
176,192,102857,2,0,L|288:176,3,80,0|0|0|4
352,96,104011,5,0
448,192,104472,1,0
352,288,104934,1,0
256,192,105396,1,2
128,192,105857,2,0,L|128:352,1,160
256,272,106780,2,0,L|256:112,1,160,0|2
384,64,107703,6,0,L|448:80|496:144,4,120
288,160,109549,1,0
400,240,110011,2,0,L|400:352,5,80
336,320,111396,6,0,L|256:320|208:256,1,160,8|8
192,192,112088,1,8
208,128,112319,2,0,L|304:128,2,80,0|0|2
80,160,113242,6,0,L|80:80|144:32,1,160,8|8
208,16,113934,1,8
272,32,114165,2,0,L|336:80|336:160,1,160,0|2
256,192,115088,12,4,116703
160,256,117165,6,0,L|288:256,1,120,2|0
240,176,117857,1,2
288,136,118088,2,0,L|384:136,1,80,0|6
