osu file format v6

[General]
AudioFilename: Fascination MAXX.mp3
AudioLeadIn: 0
PreviewTime: 19838
Countdown: 1
SampleSet: Normal
StackLeniency: 0.7
Mode: 0
LetterboxInBreaks: 1

[Editor]
DistanceSpacing: 0.800000011920929
BeatDivisor: 2
GridSize: 16

[Metadata]
Title:Fascination MAXX
Artist:100-200-400
Creator:ShokuMasterLord
Version:Oni
Source:
Tags:

[Difficulty]
HPDrainRate:7
CircleSize:6
OverallDifficulty:8
SliderMultiplier:1.4
SliderTickRate:2

[Events]
//Background and Video events
0,0,"fmxbg.png"
//Break Periods
2,22442,23888
2,27388,28088
2,38638,47588
2,58438,59288
2,66538,68888
2,71937,73687
2,84237,89437
//Storyboard Layer 0 (Background)
//Storyboard Layer 1 (Fail)
//Storyboard Layer 2 (Pass)
//Storyboard Layer 3 (Foreground)
//Storyboard Sound Samples
//Background Colour Transformations
3,100,0,0,0

[TimingPoints]
9621.97998590468,300,4,1,0,100,1,0
96037,-100,4,1,0,100,0,1

[Colours]
Combo1 : 27,122,34
Combo2 : 193,105,9
Combo3 : 7,12,177
Combo4 : 218,5,21
Combo5 : 255,252,113

[HitObjects]
112,112,9623,6,0,B|128:64|176:64,1,70
208,64,9921,1,0
256,64,10071,1,0
304,64,10221,2,0,B|352:64|368:128,1,70
359,144,10521,1,0
360,189,10672,1,0
96,320,11422,6,0,B|96:368|160:384,1,70
240,368,11872,1,0
352,368,12172,1,0
464,368,12472,1,0
464,32,13372,6,0,B|384:32,2,70
464,80,13822,1,0
464,128,13972,1,0
80,128,15022,6,0,B|80:208,1,70
192,192,15472,1,0
256,288,15772,1,0
320,192,16072,1,0
80,64,16845,6,0,B|144:112,1,70
136,106,17138,2,0,B|208:160,1,70
192,148,17438,2,0,B|256:192,1,70
249,187,17738,2,0,B|320:240,1,70
304,288,18038,5,0
416,288,18338,1,0
416,176,18638,5,0
304,176,18938,1,0
304,64,19238,2,0,B|256:0|160:0,1,140
112,96,19842,6,0,B|64:160,2,70
160,128,20292,1,0
128,176,20442,1,0
160,224,20592,1,0
192,176,20742,1,0
224,224,20892,1,0
256,176,21042,1,0
288,224,21192,1,0
320,176,21342,1,0
352,224,21492,1,0
384,176,21642,1,0
416,224,21792,1,0
448,176,21942,1,0
480,224,22092,1,0
512,176,22242,1,0
160,96,24638,5,0
208,96,24788,1,0
192,144,24938,1,0
240,144,25088,1,0
256,96,25238,1,0
288,144,25388,1,0
272,192,25538,1,0
224,192,25688,1,0
256,240,25838,1,0
304,240,25988,1,0
352,224,26138,5,0
384,272,26288,1,0
416,224,26438,1,0
384,176,26588,1,0
352,128,26738,1,0
400,128,26888,1,0
432,176,27038,1,0
464,224,27188,1,0
224,48,28838,6,0,B|144:80|144:208,1,140
203,157,29288,1,0
256,160,29438,6,0,B|288:240|384:256,1,140
396,210,29888,1,0
432,160,30038,6,0,B|496:224|496:304,1,140
469,332,30488,1,0
416,352,30638,6,0,B|384:256|288:256,1,140
264,259,31088,1,0
208,256,31238,6,0,B|128:256|96:160,1,140
102,121,31688,1,0
96,64,31838,6,0,B|144:0|240:0,1,140
272,1,32288,1,0
336,0,32438,6,0,B|416:32|416:160,1,140
412,165,32888,1,0
416,224,33038,6,0,B|368:160|272:160,1,140
239,161,33488,1,0
176,160,33638,6,0,B|96:160|64:272,1,140
113,282,34088,1,0
160,320,34238,6,0,B|224:384|304:384,1,140
338,382,34688,1,0
400,384,34838,6,0,B|464:336|464:256,1,140
407,264,35288,1,0
352,256,35438,6,0,B|384:160|496:160,1,140
480,64,36038,5,2
416,32,36238,1,2
352,0,36438,1,2
384,96,36638,5,4
320,64,36838,1,4
256,32,37038,1,4
192,0,37238,5,0
128,32,37388,1,0
128,96,37538,1,0
160,160,37688,1,0
224,144,37838,6,0,B|272:144,8,35
256,64,48338,5,0
400,368,49238,1,0
400,256,49538,1,0
288,256,49838,1,0
336,160,50138,1,0
384,160,50288,1,0
432,160,50438,1,0
480,64,50738,1,0
384,0,51038,1,0
336,0,51188,5,0
288,0,51338,1,0
240,0,51488,1,0
192,0,51638,1,0
144,0,51788,1,0
96,0,51938,1,0
48,0,52088,1,0
16,48,52238,1,0
64,48,52388,1,0
112,48,52538,1,0
160,48,52688,1,0
208,48,52838,1,0
320,48,53138,5,8
432,48,53438,1,0
432,160,53738,1,8
320,160,54038,1,0
208,160,54338,1,8
208,272,54638,1,0
320,272,54938,1,8
432,304,55238,1,0
368,208,55538,1,8
320,304,55838,1,0
256,208,56138,1,8
176,272,56438,6,0,B|112:160|192:32|400:32|480:96|496:240,1,560
496,336,57938,1,0
384,336,58238,1,0
112,320,60038,5,0
256,16,60938,1,0
384,320,61838,1,0
384,96,62438,1,0
272,96,62738,1,8
272,208,63038,1,0
384,208,63338,1,8
384,96,63638,1,0
32,368,64838,5,0
144,368,65138,1,0
256,368,65438,1,0
432,80,66338,1,0
176,80,69638,6,0,B|176:128,3,35
208,112,69937,2,2,B|208:176,3,35
240,144,70237,2,0,B|304:144,3,35
272,176,70537,2,2,B|272:240,3,35
304,208,70837,2,4,B|352:208,12,35
192,96,74437,6,0,B|240:64|240:144|336:96,13,140
448,96,78637,5,0
384,96,78787,1,0
416,160,78937,1,0
352,160,79087,1,0
384,224,79237,1,0
320,224,79387,1,0
288,160,79537,1,0
320,96,79687,1,0
256,96,79837,1,0
224,160,79987,1,0
256,224,80137,1,0
192,224,80287,1,0
224,288,80437,5,0
288,288,80587,1,0
352,288,80737,1,2
416,288,80887,1,2
384,224,81037,1,2
448,224,81187,1,2
480,288,81337,1,2
448,352,81487,1,2
384,352,81637,1,2
320,352,81787,1,2
256,352,82087,1,2
224,288,82237,5,0
192,352,82387,1,0
160,288,82537,1,0
192,224,82687,1,0
256,224,82837,1,0
320,224,82987,1,0
288,160,83137,1,0
224,160,83287,1,0
160,160,83437,1,0
128,224,83587,1,0
96,160,83737,1,0
64,224,83887,1,0
96,288,84037,5,6
128,224,90187,5,0
128,160,90337,1,0
128,96,90487,1,0
128,32,90637,1,0
128,32,90712,1,0
128,32,90787,1,0
128,32,90862,1,0
160,32,90937,1,0
160,32,91012,1,0
160,32,91087,1,0
160,32,91162,1,0
192,64,91237,5,0
192,128,91387,1,0
288,64,91687,1,0
288,128,91837,1,0
384,64,92137,1,0
384,128,92287,1,0
384,192,92437,1,0
384,288,92737,1,0
320,288,92887,1,0
224,288,93187,1,0
128,224,93487,1,0
192,192,93637,5,0
224,32,93937,1,0
288,32,94087,1,0
288,128,94387,1,0
384,128,94687,1,0
384,224,94987,5,0
320,224,95137,1,0
384,320,95437,1,0
512,320,95737,1,0
512,224,96037,6,0,B|512:128,2,70
384,224,96637,2,0,B|288:224,1,70
192,224,97087,2,0,B|192:128,1,70
256,64,97537,2,4,B|352:64,5,70
160,288,99037,5,0
224,256,99187,1,0
288,288,99337,1,0
352,256,99487,1,12
