osu file format v6

[General]
AudioFilename: Fascination MAXX.mp3
AudioLeadIn: 0
PreviewTime: 19838
Countdown: 3
SampleSet: Soft
StackLeniency: 0.7
Mode: 0
LetterboxInBreaks: 1

[Editor]
DistanceSpacing: 0.800000011920929
BeatDivisor: 2
GridSize: 32

[Metadata]
Title:Fascination MAXX
Artist:100-200-400
Creator:ShokuMasterLord
Version:Medium
Source:DDR SuperNova
Tags:ddr supernova

[Difficulty]
HPDrainRate:6
CircleSize:5
OverallDifficulty:7
SliderMultiplier:1.4
SliderTickRate:2

[Events]
//Background and Video events
0,0,"fmxbg.png"
//Break Periods
2,38638,43829
2,66529,68729
2,74029,77729
2,91429,95129
//Storyboard Layer 0 (Background)
//Storyboard Layer 1 (Fail)
//Storyboard Layer 2 (Pass)
//Storyboard Layer 3 (Foreground)
//Storyboard Sound Samples
//Background Colour Transformations
3,100,163,162,255

[TimingPoints]
9629,300,4,2,0,100,1,0
96029,-100,4,1,0,100,0,1

[HitObjects]
160,96,9621,1,0
384,96,10221,1,0
384,256,10671,1,0
96,256,11421,5,0
96,96,11871,1,0
192,96,12171,1,0
288,96,12471,1,0
448,256,13371,5,0
448,96,13821,1,0
160,64,16821,5,0
256,64,17121,1,0
352,64,17421,1,0
352,160,17721,1,0
256,160,18021,1,0
160,160,18321,1,0
160,256,18621,1,0
256,256,18921,1,0
352,256,19221,2,0,B|448:256|448:128,1,140
448,64,19821,5,0
352,64,20121,1,0
256,64,20421,1,0
160,64,20721,1,0
64,64,21021,1,0
64,160,21321,2,0,B|160:160,6,70
64,256,22521,5,0
64,352,22821,1,0
160,352,23121,1,0
160,256,23421,1,0
256,256,23721,2,0,B|256:352,3,70
160,96,27471,5,0
256,96,27771,1,0
288,128,27921,1,0
320,96,28071,1,0
352,128,28221,1,0
384,96,28371,1,0
416,128,28521,1,0
448,96,28671,1,0
480,160,28829,2,0,B|480:320|288:320,1,280
192,320,29729,1,0
96,320,30029,6,0,B|0:320|0:64,1,280
96,32,30929,1,0
192,0,31229,6,0,B|352:0|384:192,1,280
384,288,32129,1,0
288,352,32429,6,0,B|128:352|96:160,1,280
128,64,33329,1,0
192,32,33629,6,0,B|192:192|384:224,1,280
480,192,34529,1,0
480,320,34829,5,0
416,320,35038,1,0
352,320,35238,1,0
288,320,35429,1,0
288,96,36029,5,0
224,96,36238,1,0
160,96,36438,1,0
96,96,36629,1,0
96,160,36838,1,0
160,160,37038,1,0
224,160,37229,1,0
64,320,37829,5,0
96,384,37988,1,0
128,320,38138,1,0
160,384,38288,1,0
192,320,38438,1,4
256,96,44729,5,0
480,352,45629,1,0
480,256,45929,1,8
384,256,46229,1,0
384,160,46529,1,8
480,160,46829,1,0
480,64,47129,1,8
384,64,47429,1,0
288,64,47729,1,8
288,160,48029,1,0
192,96,48329,5,8
448,320,49229,1,0
448,224,49529,1,8
352,224,49829,1,0
352,128,50129,1,8
448,128,50429,1,0
448,32,50729,1,8
352,32,51029,5,0
256,32,51329,2,0,B|160:32,2,70
256,128,51929,1,0
352,128,52229,2,0,B|352:224,4,70
448,128,53129,5,8
448,224,53429,1,0
448,320,53729,1,8
352,320,54029,1,0
352,224,54329,1,8
256,224,54629,1,0
256,320,54929,1,8
160,320,55229,1,0
160,224,55529,1,8
64,224,55829,1,0
64,320,56129,1,8
160,320,56429,1,0
512,32,57629,5,0
512,32,58229,1,0
128,96,60029,5,0
128,96,60929,1,0
448,96,61829,5,0
448,320,62429,1,0
352,320,62729,1,8
352,224,63029,1,0
256,224,63329,1,8
256,320,63629,1,0
64,64,64829,5,0
160,64,65129,1,0
256,64,65429,1,0
512,352,66329,1,0
192,96,69629,6,0,B|384:96|384:384|96:384|64:160,1,560
288,160,71429,1,0
32,352,72329,6,0,B|32:32|288:0,1,420
448,32,73829,1,0
128,64,78629,6,0,L|192:128|256:64|320:128|384:64|448:128|352:224|448:320|384:384|320:320,1,840
256,352,80729,6,0,L|192:288|128:352|32:256|128:160|192:224|288:128|160:0,1,840
96,96,82829,6,0,L|192:192|320:64|416:160,1,420
480,224,84029,6,0,L|352:352|256:256,1,420
288,160,85229,6,0,L|288:0|160:0|160:160,1,420
32,96,86429,6,0,L|192:256|288:160|352:224,1,420
416,288,87629,6,0,L|480:224|352:96|416:32|480:96,1,420
512,128,88829,6,0,B|416:128|448:224,1,140
480,320,89429,6,2,B|384:320|352:224,1,140
320,160,90029,6,8,B|224:160|224:256,1,140
288,320,90629,6,4,B|224:384|160:384,1,140
96,288,91229,5,6
96,160,96029,6,0,B|96:32|224:32,1,140
256,32,96629,2,0,B|352:32,1,70
448,32,97079,2,0,B|448:128,1,70
448,224,97529,6,0,B|448:320|384:384|192:384,1,280
192,384,98279,1,0
128,128,99029,6,0,B|128:32|256:0,1,140
258,18,99479,1,0
