osu file format v14

[General]
AudioFilename: okash - Little princess has no identity.mp3
AudioLeadIn: 0
PreviewTime: 73380
Countdown: 0
SampleSet: Soft
StackLeniency: 0.3
Mode: 3
LetterboxInBreaks: 0
SpecialStyle: 0
WidescreenStoryboard: 1

[Editor]
DistanceSpacing: 1
BeatDivisor: 4
GridSize: 8
TimelineZoom: 2.2

[Metadata]
Title:little princess has no identity.
TitleUnicode:little princess has no identity.
Artist:0kash
ArtistUnicode:0kash
Creator:ModernTiger
Version:Hard
Source:SOUND VOLTEX II -infinite infection-
Tags:SDVX techno ZUN
BeatmapID:673995
BeatmapSetID:300113

[Difficulty]
HPDrainRate:7
CircleSize:7
OverallDifficulty:4.5
ApproachRate:5
SliderMultiplier:1.5
SliderTickRate:1

[Events]
//Background and Video events
0,0,"Vector.jpg",0,0
//Break Periods
//Storyboard Layer 0 (Background)
//Storyboard Layer 1 (Fail)
//Storyboard Layer 2 (Pass)
//Storyboard Layer 3 (Foreground)
//Storyboard Sound Samples

[TimingPoints]
3000,324.324324324324,4,2,0,5,1,0
22461,-1000,4,2,0,5,0,0
22542,-66.6666666666667,4,2,0,5,0,0
22704,-1000,4,2,0,5,0,0
22785,-66.6666666666667,4,2,0,5,0,0
22947,-1000,4,2,0,5,0,0
23029,-66.6666666666667,4,2,0,5,0,0
23191,-1000,4,2,0,5,0,0
23272,-66.6666666666667,4,2,0,5,0,0
23434,-100,4,2,0,5,0,0
33812,-40,4,2,0,5,0,0
33893,-80,4,2,0,5,0,0
33974,-200,4,2,0,5,0,0
34056,-400,4,2,0,5,0,0
34137,-100,4,2,0,5,0,0
44515,-200,4,2,0,5,0,0
60083,-166.666666666667,4,2,0,5,0,0
63974,-117.647058823529,4,2,0,5,0,0
65272,-100,4,2,0,5,0,0
66245,-200,4,2,0,5,0,0
66569,-100,4,2,0,5,0,0
67542,-200,4,2,0,5,0,0
67866,-100,4,2,0,5,0,0
68839,-200,4,2,0,5,0,0
69164,-100,4,2,0,5,0,0
70137,-133.333333333333,4,2,0,5,0,0
70461,-100,4,2,0,5,0,0
73056,-33.3333333333333,4,2,0,5,0,0
73137,-50,4,2,0,5,0,0
73218,-200,4,2,0,5,0,0
73299,-400,4,2,0,5,0,0
73380,-100,4,2,0,5,0,0
75648,-100,4,2,0,5,0,1
96081,-100,4,2,0,5,0,0
96405,-100,4,2,0,5,0,1
117162,-100,4,2,0,5,0,0

[HitObjects]
475,192,1702,5,0,0:0:0:0:
402,192,1783,1,0,0:0:0:0:
256,192,1864,1,0,0:0:0:0:
109,192,1945,1,0,0:0:0:0:
36,192,2027,1,0,0:0:0:0:
475,192,2189,1,0,0:0:0:0:
402,192,2270,1,0,0:0:0:0:
256,192,2351,1,0,0:0:0:0:
109,192,2432,1,0,0:0:0:0:
36,192,2513,1,0,0:0:0:0:
475,192,2675,128,0,3000:0:0:0:0:
36,192,3000,1,0,0:0:0:0:
256,192,3000,1,0,0:0:0:0:
402,192,3162,1,0,0:0:0:0:
182,192,3324,1,0,0:0:0:0:
109,192,3324,1,0,0:0:0:0:
402,192,3486,1,0,0:0:0:0:
36,192,3648,1,0,0:0:0:0:
402,192,3810,1,0,0:0:0:0:
109,192,3972,1,0,0:0:0:0:
182,192,3972,1,0,0:0:0:0:
402,192,3972,1,0,0:0:0:0:
475,192,4135,1,0,0:0:0:0:
36,192,4297,1,0,0:0:0:0:
329,192,4297,1,0,0:0:0:0:
402,192,4378,1,0,0:0:0:0:
475,192,4459,1,0,0:0:0:0:
109,192,4621,1,0,0:0:0:0:
182,192,4621,1,0,0:0:0:0:
402,192,4621,1,0,0:0:0:0:
36,192,4945,1,0,0:0:0:0:
475,192,4945,1,0,0:0:0:0:
402,192,5108,1,0,0:0:0:0:
109,192,5270,1,0,0:0:0:0:
182,192,5270,1,0,0:0:0:0:
329,192,5270,1,0,0:0:0:0:
475,192,5432,1,0,0:0:0:0:
36,192,5594,1,0,0:0:0:0:
329,192,5594,1,0,0:0:0:0:
402,192,5756,1,0,0:0:0:0:
109,192,5918,1,0,0:0:0:0:
182,192,5918,1,0,0:0:0:0:
402,192,6081,1,0,0:0:0:0:
36,192,6243,1,0,0:0:0:0:
402,192,6405,1,0,0:0:0:0:
109,192,6567,1,0,0:0:0:0:
182,192,6567,1,0,0:0:0:0:
402,192,6567,1,0,0:0:0:0:
475,192,6729,1,0,0:0:0:0:
36,192,6891,1,0,0:0:0:0:
402,192,7054,1,0,0:0:0:0:
109,192,7216,1,0,0:0:0:0:
182,192,7216,1,0,0:0:0:0:
402,192,7216,1,0,0:0:0:0:
402,192,7378,1,0,0:0:0:0:
36,192,7540,1,0,0:0:0:0:
329,192,7540,128,0,7864:0:0:0:0:
256,192,7864,128,0,8189:0:0:0:0:
36,192,8189,1,0,0:0:0:0:
402,192,8351,1,0,0:0:0:0:
109,192,8513,1,0,0:0:0:0:
182,192,8513,1,0,0:0:0:0:
402,192,8675,1,0,0:0:0:0:
36,192,8837,1,0,0:0:0:0:
402,192,8999,1,0,0:0:0:0:
109,192,9162,1,0,0:0:0:0:
182,192,9162,1,0,0:0:0:0:
402,192,9162,1,0,0:0:0:0:
475,192,9324,1,0,0:0:0:0:
36,192,9486,1,0,0:0:0:0:
329,192,9486,1,0,0:0:0:0:
402,192,9567,1,0,0:0:0:0:
475,192,9648,1,0,0:0:0:0:
109,192,9810,1,0,0:0:0:0:
182,192,9810,1,0,0:0:0:0:
402,192,9810,1,0,0:0:0:0:
402,192,9972,1,0,0:0:0:0:
36,192,10135,1,0,0:0:0:0:
402,192,10135,1,0,0:0:0:0:
329,192,10297,1,0,0:0:0:0:
109,192,10459,1,0,0:0:0:0:
182,192,10459,1,0,0:0:0:0:
329,192,10459,1,0,0:0:0:0:
475,192,10621,1,0,0:0:0:0:
36,192,10783,1,0,0:0:0:0:
329,192,10783,1,0,0:0:0:0:
402,192,10945,1,0,0:0:0:0:
109,192,11108,1,0,0:0:0:0:
182,192,11108,1,0,0:0:0:0:
402,192,11270,1,0,0:0:0:0:
36,192,11432,1,0,0:0:0:0:
402,192,11594,1,0,0:0:0:0:
109,192,11756,1,0,0:0:0:0:
182,192,11756,1,0,0:0:0:0:
402,192,11756,1,0,0:0:0:0:
475,192,11918,1,0,0:0:0:0:
36,192,12081,1,0,0:0:0:0:
402,192,12243,1,0,0:0:0:0:
109,192,12405,1,0,0:0:0:0:
182,192,12405,1,0,0:0:0:0:
402,192,12405,1,0,0:0:0:0:
402,192,12567,1,0,0:0:0:0:
256,192,12729,128,0,12891:0:0:0:0:
36,192,12891,1,0,0:0:0:0:
182,192,12972,1,0,0:0:0:0:
475,192,13054,1,0,0:0:0:0:
329,192,13135,1,0,0:0:0:0:
182,192,13216,1,0,0:0:0:0:
475,192,13297,1,0,0:0:0:0:
36,192,13378,1,0,0:0:0:0:
402,192,13540,1,0,0:0:0:0:
109,192,13702,1,0,0:0:0:0:
182,192,13702,1,0,0:0:0:0:
402,192,13864,1,0,0:0:0:0:
36,192,14027,1,0,0:0:0:0:
402,192,14189,1,0,0:0:0:0:
109,192,14351,1,0,0:0:0:0:
182,192,14351,1,0,0:0:0:0:
402,192,14351,1,0,0:0:0:0:
475,192,14513,1,0,0:0:0:0:
36,192,14675,1,0,0:0:0:0:
329,192,14675,1,0,0:0:0:0:
402,192,14756,1,0,0:0:0:0:
475,192,14837,1,0,0:0:0:0:
109,192,14999,1,0,0:0:0:0:
182,192,14999,1,0,0:0:0:0:
402,192,14999,1,0,0:0:0:0:
36,192,15324,1,0,0:0:0:0:
475,192,15324,1,0,0:0:0:0:
402,192,15486,1,0,0:0:0:0:
109,192,15648,1,0,0:0:0:0:
182,192,15648,1,0,0:0:0:0:
329,192,15648,1,0,0:0:0:0:
475,192,15810,1,0,0:0:0:0:
329,192,15972,1,0,0:0:0:0:
109,192,16135,1,0,0:0:0:0:
402,192,16297,1,0,0:0:0:0:
475,192,16297,1,0,0:0:0:0:
109,192,16459,1,0,0:0:0:0:
329,192,16621,1,0,0:0:0:0:
109,192,16783,1,0,0:0:0:0:
402,192,16945,1,0,0:0:0:0:
475,192,16945,1,0,0:0:0:0:
109,192,16945,1,0,0:0:0:0:
182,192,17108,1,0,0:0:0:0:
329,192,17270,1,0,0:0:0:0:
109,192,17432,1,0,0:0:0:0:
402,192,17594,1,0,0:0:0:0:
475,192,17594,1,0,0:0:0:0:
109,192,17594,1,0,0:0:0:0:
109,192,17756,1,0,0:0:0:0:
329,192,17918,1,0,0:0:0:0:
182,192,17918,128,0,18243:0:0:0:0:
36,192,18243,1,0,0:0:0:0:
402,192,18324,1,0,0:0:0:0:
109,192,18405,1,0,0:0:0:0:
475,192,18486,1,0,0:0:0:0:
36,192,18567,1,0,0:0:0:0:
256,192,18729,1,0,0:0:0:0:
182,192,18891,1,0,0:0:0:0:
109,192,18891,1,0,0:0:0:0:
256,192,19054,1,0,0:0:0:0:
36,192,19216,1,0,0:0:0:0:
256,192,19378,1,0,0:0:0:0:
109,192,19540,1,0,0:0:0:0:
182,192,19540,1,0,0:0:0:0:
256,192,19702,1,0,0:0:0:0:
475,192,19864,1,0,0:0:0:0:
256,192,20027,1,0,0:0:0:0:
329,192,20189,1,0,0:0:0:0:
402,192,20189,1,0,0:0:0:0:
256,192,20351,1,0,0:0:0:0:
329,192,20513,1,0,0:0:0:0:
475,192,20513,1,0,0:0:0:0:
256,192,20675,1,0,0:0:0:0:
329,192,20837,1,0,0:0:0:0:
402,192,20837,1,0,0:0:0:0:
256,192,20999,1,0,0:0:0:0:
36,192,21162,1,0,0:0:0:0:
109,192,21162,1,0,0:0:0:0:
256,192,21324,1,0,0:0:0:0:
182,192,21324,1,0,0:0:0:0:
36,192,21486,1,0,0:0:0:0:
109,192,21486,1,0,0:0:0:0:
256,192,21648,1,0,0:0:0:0:
182,192,21648,1,0,0:0:0:0:
475,192,21810,1,0,0:0:0:0:
402,192,21810,1,0,0:0:0:0:
256,192,21972,1,0,0:0:0:0:
329,192,21972,1,0,0:0:0:0:
475,192,22135,1,0,0:0:0:0:
402,192,22135,1,0,0:0:0:0:
256,192,22297,1,0,0:0:0:0:
329,192,22297,1,0,0:0:0:0:
329,192,22459,1,0,0:0:0:0:
475,192,22459,1,0,0:0:0:0:
36,192,22702,1,0,0:0:0:0:
182,192,22702,1,0,0:0:0:0:
329,192,22945,1,0,0:0:0:0:
475,192,22945,1,0,0:0:0:0:
36,192,23189,1,0,0:0:0:0:
182,192,23189,1,0,0:0:0:0:
329,192,23432,1,0,0:0:0:0:
475,192,23432,1,0,0:0:0:0:
36,192,23513,1,0,0:0:0:0:
182,192,23513,1,0,0:0:0:0:
329,192,23594,1,0,0:0:0:0:
475,192,23594,1,0,0:0:0:0:
182,192,23756,1,0,0:0:0:0:
402,192,23918,1,0,0:0:0:0:
182,192,24081,1,0,0:0:0:0:
402,192,24243,1,0,0:0:0:0:
109,192,24405,128,0,24729:0:0:0:0:
402,192,24567,1,0,0:0:0:0:
402,192,24729,1,0,0:0:0:0:
475,192,24891,1,0,0:0:0:0:
182,192,24891,1,0,0:0:0:0:
329,192,25054,1,0,0:0:0:0:
182,192,25216,1,0,0:0:0:0:
402,192,25216,1,0,0:0:0:0:
402,192,25378,1,0,0:0:0:0:
182,192,25540,1,0,0:0:0:0:
475,192,25540,1,0,0:0:0:0:
329,192,25621,1,0,0:0:0:0:
109,192,25702,128,0,26027:0:0:0:0:
475,192,25702,1,0,0:0:0:0:
402,192,25864,1,0,0:0:0:0:
329,192,26027,1,0,0:0:0:0:
475,192,26189,1,0,0:0:0:0:
182,192,26351,1,0,0:0:0:0:
329,192,26351,1,0,0:0:0:0:
402,192,26513,1,0,0:0:0:0:
182,192,26675,1,0,0:0:0:0:
402,192,26837,1,0,0:0:0:0:
109,192,26999,128,0,27324:0:0:0:0:
402,192,27162,1,0,0:0:0:0:
402,192,27324,1,0,0:0:0:0:
182,192,27486,1,0,0:0:0:0:
475,192,27486,1,0,0:0:0:0:
182,192,27810,1,0,0:0:0:0:
402,192,27810,1,0,0:0:0:0:
402,192,27972,1,0,0:0:0:0:
182,192,28135,1,0,0:0:0:0:
402,192,28135,1,0,0:0:0:0:
109,192,28297,128,0,28621:0:0:0:0:
402,192,28621,1,0,0:0:0:0:
329,192,28783,1,0,0:0:0:0:
256,192,28945,1,0,0:0:0:0:
402,192,29108,1,0,0:0:0:0:
256,192,29270,1,0,0:0:0:0:
402,192,29432,1,0,0:0:0:0:
182,192,29594,128,0,29918:0:0:0:0:
402,192,29756,1,0,0:0:0:0:
402,192,29918,1,0,0:0:0:0:
256,192,30081,1,0,0:0:0:0:
475,192,30081,1,0,0:0:0:0:
329,192,30243,1,0,0:0:0:0:
402,192,30324,1,0,0:0:0:0:
256,192,30405,1,0,0:0:0:0:
475,192,30405,1,0,0:0:0:0:
402,192,30567,1,0,0:0:0:0:
256,192,30729,1,0,0:0:0:0:
402,192,30729,1,0,0:0:0:0:
182,192,30891,128,0,31216:0:0:0:0:
475,192,30891,1,0,0:0:0:0:
402,192,31054,1,0,0:0:0:0:
329,192,31216,1,0,0:0:0:0:
475,192,31378,1,0,0:0:0:0:
329,192,31540,1,0,0:0:0:0:
36,192,31540,1,0,0:0:0:0:
109,192,31702,1,0,0:0:0:0:
329,192,31864,1,0,0:0:0:0:
109,192,32027,1,0,0:0:0:0:
256,192,32189,128,0,32513:0:0:0:0:
109,192,32351,1,0,0:0:0:0:
109,192,32513,1,0,0:0:0:0:
329,192,32675,1,0,0:0:0:0:
182,192,32675,1,0,0:0:0:0:
329,192,32999,1,0,0:0:0:0:
109,192,32999,1,0,0:0:0:0:
109,192,33162,1,0,0:0:0:0:
329,192,33324,1,0,0:0:0:0:
109,192,33324,1,0,0:0:0:0:
256,192,33486,128,0,33810:0:0:0:0:
402,192,33810,128,0,34135:0:0:0:0:
109,192,33810,128,0,34135:0:0:0:0:
36,192,34135,1,0,0:0:0:0:
256,192,34297,1,0,0:0:0:0:
402,192,34297,1,0,0:0:0:0:
36,192,34459,1,0,0:0:0:0:
109,192,34459,1,0,0:0:0:0:
256,192,34621,1,0,0:0:0:0:
402,192,34621,1,0,0:0:0:0:
36,192,34783,1,0,0:0:0:0:
256,192,34945,1,0,0:0:0:0:
402,192,34945,1,0,0:0:0:0:
109,192,35108,1,0,0:0:0:0:
182,192,35108,1,0,0:0:0:0:
256,192,35270,1,0,0:0:0:0:
475,192,35270,1,0,0:0:0:0:
36,192,35432,1,0,0:0:0:0:
329,192,35594,1,0,0:0:0:0:
475,192,35594,1,0,0:0:0:0:
182,192,35756,1,0,0:0:0:0:
256,192,35756,1,0,0:0:0:0:
329,192,35918,1,0,0:0:0:0:
402,192,35918,1,0,0:0:0:0:
36,192,36081,1,0,0:0:0:0:
329,192,36243,1,0,0:0:0:0:
475,192,36243,1,0,0:0:0:0:
109,192,36405,1,0,0:0:0:0:
182,192,36405,1,0,0:0:0:0:
329,192,36567,1,0,0:0:0:0:
402,192,36567,1,0,0:0:0:0:
256,192,36729,1,0,0:0:0:0:
475,192,36891,1,0,0:0:0:0:
109,192,36891,1,0,0:0:0:0:
329,192,37054,1,0,0:0:0:0:
402,192,37054,1,0,0:0:0:0:
475,192,37216,1,0,0:0:0:0:
109,192,37216,1,0,0:0:0:0:
256,192,37378,1,0,0:0:0:0:
475,192,37540,1,0,0:0:0:0:
182,192,37540,1,0,0:0:0:0:
329,192,37702,1,0,0:0:0:0:
402,192,37702,1,0,0:0:0:0:
475,192,37864,1,0,0:0:0:0:
182,192,37864,1,0,0:0:0:0:
329,192,38027,1,0,0:0:0:0:
402,192,38189,1,0,0:0:0:0:
182,192,38189,1,0,0:0:0:0:
256,192,38351,1,0,0:0:0:0:
329,192,38351,1,0,0:0:0:0:
402,192,38513,1,0,0:0:0:0:
109,192,38513,1,0,0:0:0:0:
182,192,38675,1,0,0:0:0:0:
475,192,38837,1,0,0:0:0:0:
109,192,38837,1,0,0:0:0:0:
256,192,38999,1,0,0:0:0:0:
329,192,38999,1,0,0:0:0:0:
475,192,39162,1,0,0:0:0:0:
36,192,39162,1,0,0:0:0:0:
109,192,39324,128,0,39648:0:0:0:0:
402,192,39324,128,0,39648:0:0:0:0:
36,192,39648,1,0,0:0:0:0:
182,192,39810,1,0,0:0:0:0:
36,192,39972,1,0,0:0:0:0:
402,192,40135,1,0,0:0:0:0:
256,192,40297,1,0,0:0:0:0:
475,192,40459,1,0,0:0:0:0:
256,192,40621,128,0,40945:0:0:0:0:
475,192,40945,1,0,0:0:0:0:
329,192,41108,1,0,0:0:0:0:
475,192,41270,1,0,0:0:0:0:
109,192,41432,1,0,0:0:0:0:
256,192,41594,1,0,0:0:0:0:
36,192,41756,1,0,0:0:0:0:
36,192,41918,1,0,0:0:0:0:
182,192,41999,1,0,0:0:0:0:
329,192,42081,1,0,0:0:0:0:
475,192,42162,1,0,0:0:0:0:
36,192,42243,1,0,0:0:0:0:
182,192,42324,1,0,0:0:0:0:
329,192,42405,1,0,0:0:0:0:
475,192,42486,1,0,0:0:0:0:
36,192,42567,1,0,0:0:0:0:
182,192,42648,1,0,0:0:0:0:
329,192,42729,1,0,0:0:0:0:
475,192,42810,1,0,0:0:0:0:
36,192,42891,1,0,0:0:0:0:
182,192,42972,1,0,0:0:0:0:
329,192,43054,1,0,0:0:0:0:
475,192,43135,1,0,0:0:0:0:
256,192,43216,1,0,0:0:0:0:
182,192,43297,1,0,0:0:0:0:
109,192,43378,1,0,0:0:0:0:
36,192,43459,1,0,0:0:0:0:
256,192,43540,128,0,43864:0:0:0:0:
402,192,43864,128,0,44189:0:0:0:0:
36,192,44189,1,0,0:0:0:0:
182,192,44270,1,0,0:0:0:0:
329,192,44351,1,0,0:0:0:0:
475,192,44432,1,0,0:0:0:0:
109,192,44513,128,0,45162:0:0:0:0:
36,192,45162,128,0,46135:0:0:0:0:
109,192,46135,128,0,46459:0:0:0:0:
182,192,46459,128,0,46783:0:0:0:0:
256,192,46783,128,0,47108:0:0:0:0:
329,192,47108,128,0,47756:0:0:0:0:
182,192,47756,128,0,48729:0:0:0:0:
256,192,48729,128,0,49054:0:0:0:0:
329,192,49054,128,0,49378:0:0:0:0:
475,192,49378,128,0,49702:0:0:0:0:
329,192,49702,128,0,50675:0:0:0:0:
256,192,50675,128,0,50999:0:0:0:0:
182,192,50999,128,0,51324:0:0:0:0:
256,192,51324,128,0,51486:0:0:0:0:
182,192,51486,128,0,51810:0:0:0:0:
109,192,51810,128,0,52135:0:0:0:0:
36,192,52135,128,0,53594:0:0:0:0:
109,192,53594,128,0,54891:0:0:0:0:
182,192,54891,128,0,55540:0:0:0:0:
36,192,55540,128,0,56513:0:0:0:0:
109,192,56513,128,0,56837:0:0:0:0:
182,192,56837,128,0,57162:0:0:0:0:
256,192,57162,128,0,57486:0:0:0:0:
329,192,57486,128,0,58135:0:0:0:0:
182,192,58135,128,0,59108:0:0:0:0:
256,192,59108,128,0,59432:0:0:0:0:
329,192,59432,128,0,59756:0:0:0:0:
402,192,59756,128,0,60081:0:0:0:0:
182,192,60081,128,0,61054:0:0:0:0:
475,192,61054,128,0,61378:0:0:0:0:
402,192,61378,128,0,61702:0:0:0:0:
475,192,61702,128,0,61864:0:0:0:0:
329,192,61864,128,0,62189:0:0:0:0:
182,192,62189,128,0,62513:0:0:0:0:
256,192,62513,128,0,63972:0:0:0:0:
182,192,65270,1,0,0:0:0:0:
329,192,65351,1,0,0:0:0:0:
182,192,65513,1,0,0:0:0:0:
182,192,65756,1,0,0:0:0:0:
329,192,65918,1,0,0:0:0:0:
182,192,66081,1,0,0:0:0:0:
475,192,66243,128,0,66567:0:0:0:0:
182,192,66567,1,0,0:0:0:0:
329,192,66648,1,0,0:0:0:0:
182,192,66810,1,0,0:0:0:0:
182,192,67054,1,0,0:0:0:0:
329,192,67216,1,0,0:0:0:0:
182,192,67378,1,0,0:0:0:0:
36,192,67540,128,0,67864:0:0:0:0:
182,192,67864,1,0,0:0:0:0:
329,192,67945,1,0,0:0:0:0:
182,192,68108,1,0,0:0:0:0:
182,192,68351,1,0,0:0:0:0:
329,192,68513,1,0,0:0:0:0:
182,192,68675,1,0,0:0:0:0:
475,192,68837,1,0,0:0:0:0:
182,192,69162,1,0,0:0:0:0:
329,192,69243,1,0,0:0:0:0:
182,192,69486,1,0,0:0:0:0:
329,192,69567,1,0,0:0:0:0:
329,192,69729,1,0,0:0:0:0:
329,192,69891,1,0,0:0:0:0:
475,192,70135,128,0,70459:0:0:0:0:
36,192,70459,1,0,0:0:0:0:
109,192,70540,1,0,0:0:0:0:
36,192,70702,1,0,0:0:0:0:
182,192,70945,1,0,0:0:0:0:
256,192,71108,1,0,0:0:0:0:
109,192,71270,1,0,0:0:0:0:
256,192,71432,1,0,0:0:0:0:
256,192,71594,1,0,0:0:0:0:
182,192,71756,1,0,0:0:0:0:
329,192,71837,1,0,0:0:0:0:
256,192,71999,1,0,0:0:0:0:
329,192,72243,1,0,0:0:0:0:
402,192,72405,1,0,0:0:0:0:
329,192,72567,1,0,0:0:0:0:
475,192,72729,1,0,0:0:0:0:
475,192,72837,1,0,0:0:0:0:
475,192,72945,1,0,0:0:0:0:
256,192,73054,1,0,0:0:0:0:
402,192,73378,1,0,0:0:0:0:
329,192,73459,1,0,0:0:0:0:
109,192,73540,1,0,0:0:0:0:
256,192,73702,1,0,0:0:0:0:
182,192,73864,1,0,0:0:0:0:
256,192,73945,1,0,0:0:0:0:
329,192,74027,1,0,0:0:0:0:
182,192,74108,1,0,0:0:0:0:
475,192,74189,1,0,0:0:0:0:
256,192,74351,1,0,0:0:0:0:
256,192,74675,1,0,0:0:0:0:
256,192,74999,128,0,75324:0:0:0:0:
329,192,75324,1,0,0:0:0:0:
36,192,75648,1,0,0:0:0:0:
182,192,75729,1,0,0:0:0:0:
475,192,75810,1,0,0:0:0:0:
329,192,75891,1,0,0:0:0:0:
36,192,75972,1,0,0:0:0:0:
475,192,76054,1,0,0:0:0:0:
329,192,76135,1,0,0:0:0:0:
36,192,76216,1,0,0:0:0:0:
256,192,76297,1,0,0:0:0:0:
36,192,76621,1,0,0:0:0:0:
182,192,76702,1,0,0:0:0:0:
329,192,76783,1,0,0:0:0:0:
475,192,76864,1,0,0:0:0:0:
36,192,76945,1,0,0:0:0:0:
182,192,77027,1,0,0:0:0:0:
475,192,77108,1,0,0:0:0:0:
329,192,77189,1,0,0:0:0:0:
36,192,77270,1,0,0:0:0:0:
475,192,77351,1,0,0:0:0:0:
329,192,77432,1,0,0:0:0:0:
36,192,77513,1,0,0:0:0:0:
256,192,77594,1,0,0:0:0:0:
109,192,77756,1,0,0:0:0:0:
329,192,77918,1,0,0:0:0:0:
402,192,77999,1,0,0:0:0:0:
475,192,78162,1,0,0:0:0:0:
36,192,78243,1,0,0:0:0:0:
182,192,78324,1,0,0:0:0:0:
475,192,78405,1,0,0:0:0:0:
329,192,78486,1,0,0:0:0:0:
36,192,78567,1,0,0:0:0:0:
475,192,78648,1,0,0:0:0:0:
329,192,78729,1,0,0:0:0:0:
36,192,78810,1,0,0:0:0:0:
256,192,78891,1,0,0:0:0:0:
109,192,79216,1,0,0:0:0:0:
256,192,79297,1,0,0:0:0:0:
329,192,79378,1,0,0:0:0:0:
475,192,79459,1,0,0:0:0:0:
36,192,79540,1,0,0:0:0:0:
182,192,79621,1,0,0:0:0:0:
475,192,79702,1,0,0:0:0:0:
329,192,79783,1,0,0:0:0:0:
36,192,79864,1,0,0:0:0:0:
475,192,79945,1,0,0:0:0:0:
329,192,80027,1,0,0:0:0:0:
36,192,80108,1,0,0:0:0:0:
256,192,80189,1,0,0:0:0:0:
109,192,80351,1,0,0:0:0:0:
256,192,80513,1,0,0:0:0:0:
329,192,80594,1,0,0:0:0:0:
402,192,80756,1,0,0:0:0:0:
109,192,80837,1,0,0:0:0:0:
182,192,80918,1,0,0:0:0:0:
402,192,80999,1,0,0:0:0:0:
329,192,81081,1,0,0:0:0:0:
109,192,81162,1,0,0:0:0:0:
402,192,81243,1,0,0:0:0:0:
329,192,81324,1,0,0:0:0:0:
109,192,81405,1,0,0:0:0:0:
256,192,81486,1,0,0:0:0:0:
329,192,81648,1,0,0:0:0:0:
329,192,81972,1,0,0:0:0:0:
109,192,82135,1,0,0:0:0:0:
182,192,82216,1,0,0:0:0:0:
402,192,82297,1,0,0:0:0:0:
329,192,82378,1,0,0:0:0:0:
109,192,82459,1,0,0:0:0:0:
402,192,82540,1,0,0:0:0:0:
329,192,82621,1,0,0:0:0:0:
109,192,82702,1,0,0:0:0:0:
256,192,82783,1,0,0:0:0:0:
182,192,82945,1,0,0:0:0:0:
329,192,83027,1,0,0:0:0:0:
36,192,83108,1,0,0:0:0:0:
256,192,83189,1,0,0:0:0:0:
475,192,83351,1,0,0:0:0:0:
36,192,83432,1,0,0:0:0:0:
182,192,83513,1,0,0:0:0:0:
475,192,83594,1,0,0:0:0:0:
329,192,83675,1,0,0:0:0:0:
36,192,83756,1,0,0:0:0:0:
475,192,83837,1,0,0:0:0:0:
329,192,83918,1,0,0:0:0:0:
36,192,83999,1,0,0:0:0:0:
256,192,84081,1,0,0:0:0:0:
182,192,84243,1,0,0:0:0:0:
475,192,84324,1,0,0:0:0:0:
182,192,84486,1,0,0:0:0:0:
475,192,84567,1,0,0:0:0:0:
36,192,84648,1,0,0:0:0:0:
109,192,84729,1,0,0:0:0:0:
256,192,84810,1,0,0:0:0:0:
402,192,84891,1,0,0:0:0:0:
256,192,84972,1,0,0:0:0:0:
109,192,85054,1,0,0:0:0:0:
402,192,85135,1,0,0:0:0:0:
256,192,85216,1,0,0:0:0:0:
109,192,85297,1,0,0:0:0:0:
256,192,85378,1,0,0:0:0:0:
109,192,85621,1,0,0:0:0:0:
256,192,85702,128,0,86027:0:0:0:0:
36,192,86027,1,0,0:0:0:0:
182,192,86108,1,0,0:0:0:0:
475,192,86189,1,0,0:0:0:0:
329,192,86270,1,0,0:0:0:0:
36,192,86351,1,0,0:0:0:0:
475,192,86432,1,0,0:0:0:0:
329,192,86513,1,0,0:0:0:0:
36,192,86594,1,0,0:0:0:0:
256,192,86675,1,0,0:0:0:0:
109,192,86756,1,0,0:0:0:0:
256,192,86837,1,0,0:0:0:0:
402,192,86918,1,0,0:0:0:0:
36,192,86999,1,0,0:0:0:0:
182,192,87081,1,0,0:0:0:0:
329,192,87162,1,0,0:0:0:0:
475,192,87243,1,0,0:0:0:0:
36,192,87324,1,0,0:0:0:0:
182,192,87405,1,0,0:0:0:0:
475,192,87486,1,0,0:0:0:0:
329,192,87567,1,0,0:0:0:0:
36,192,87648,1,0,0:0:0:0:
475,192,87729,1,0,0:0:0:0:
329,192,87810,1,0,0:0:0:0:
36,192,87891,1,0,0:0:0:0:
256,192,87972,1,0,0:0:0:0:
182,192,88054,1,0,0:0:0:0:
36,192,88135,1,0,0:0:0:0:
182,192,88216,1,0,0:0:0:0:
329,192,88297,1,0,0:0:0:0:
402,192,88378,1,0,0:0:0:0:
475,192,88540,1,0,0:0:0:0:
36,192,88621,1,0,0:0:0:0:
182,192,88702,1,0,0:0:0:0:
475,192,88783,1,0,0:0:0:0:
329,192,88864,1,0,0:0:0:0:
36,192,88945,1,0,0:0:0:0:
475,192,89027,1,0,0:0:0:0:
329,192,89108,1,0,0:0:0:0:
36,192,89189,1,0,0:0:0:0:
256,192,89270,1,0,0:0:0:0:
36,192,89351,1,0,0:0:0:0:
182,192,89432,1,0,0:0:0:0:
475,192,89513,1,0,0:0:0:0:
109,192,89594,1,0,0:0:0:0:
256,192,89675,1,0,0:0:0:0:
329,192,89756,1,0,0:0:0:0:
475,192,89837,1,0,0:0:0:0:
36,192,89918,1,0,0:0:0:0:
182,192,89999,1,0,0:0:0:0:
475,192,90081,1,0,0:0:0:0:
329,192,90162,1,0,0:0:0:0:
36,192,90243,1,0,0:0:0:0:
475,192,90324,1,0,0:0:0:0:
329,192,90405,1,0,0:0:0:0:
36,192,90486,1,0,0:0:0:0:
256,192,90567,1,0,0:0:0:0:
36,192,90648,1,0,0:0:0:0:
109,192,90729,1,0,0:0:0:0:
402,192,90810,1,0,0:0:0:0:
256,192,90891,1,0,0:0:0:0:
329,192,90972,1,0,0:0:0:0:
402,192,91135,1,0,0:0:0:0:
109,192,91216,1,0,0:0:0:0:
182,192,91297,1,0,0:0:0:0:
402,192,91378,1,0,0:0:0:0:
329,192,91459,1,0,0:0:0:0:
109,192,91540,1,0,0:0:0:0:
402,192,91621,1,0,0:0:0:0:
329,192,91702,1,0,0:0:0:0:
109,192,91783,1,0,0:0:0:0:
256,192,91864,1,0,0:0:0:0:
36,192,91945,1,0,0:0:0:0:
329,192,92027,1,0,0:0:0:0:
475,192,92108,1,0,0:0:0:0:
109,192,92189,1,0,0:0:0:0:
182,192,92270,1,0,0:0:0:0:
329,192,92351,1,0,0:0:0:0:
109,192,92432,1,0,0:0:0:0:
109,192,92513,1,0,0:0:0:0:
182,192,92594,1,0,0:0:0:0:
402,192,92675,1,0,0:0:0:0:
329,192,92756,1,0,0:0:0:0:
109,192,92837,1,0,0:0:0:0:
402,192,92918,1,0,0:0:0:0:
329,192,92999,1,0,0:0:0:0:
109,192,93081,1,0,0:0:0:0:
256,192,93162,1,0,0:0:0:0:
182,192,93243,1,0,0:0:0:0:
36,192,93324,1,0,0:0:0:0:
475,192,93405,1,0,0:0:0:0:
36,192,93486,1,0,0:0:0:0:
256,192,93567,1,0,0:0:0:0:
475,192,93729,1,0,0:0:0:0:
36,192,93810,1,0,0:0:0:0:
182,192,93810,1,0,0:0:0:0:
36,192,93972,1,0,0:0:0:0:
402,192,93972,1,0,0:0:0:0:
36,192,94135,1,0,0:0:0:0:
182,192,94135,1,0,0:0:0:0:
402,192,94216,1,0,0:0:0:0:
36,192,94297,1,0,0:0:0:0:
182,192,94378,1,0,0:0:0:0:
36,192,94459,1,0,0:0:0:0:
329,192,94459,1,0,0:0:0:0:
36,192,94621,1,0,0:0:0:0:
109,192,94621,1,0,0:0:0:0:
329,192,94702,1,0,0:0:0:0:
36,192,94783,1,0,0:0:0:0:
182,192,94864,1,0,0:0:0:0:
36,192,94945,1,0,0:0:0:0:
402,192,94945,1,0,0:0:0:0:
109,192,95108,1,0,0:0:0:0:
182,192,95189,1,0,0:0:0:0:
256,192,95270,1,0,0:0:0:0:
329,192,95351,1,0,0:0:0:0:
402,192,95432,1,0,0:0:0:0:
329,192,95513,1,0,0:0:0:0:
256,192,95594,1,0,0:0:0:0:
182,192,95675,1,0,0:0:0:0:
109,192,95756,1,0,0:0:0:0:
182,192,95837,1,0,0:0:0:0:
256,192,95918,1,0,0:0:0:0:
329,192,95999,1,0,0:0:0:0:
36,192,96081,1,0,0:0:0:0:
109,192,96081,1,0,0:0:0:0:
182,192,96162,1,0,0:0:0:0:
256,192,96162,1,0,0:0:0:0:
329,192,96324,1,0,0:0:0:0:
475,192,96324,1,0,0:0:0:0:
36,192,96405,1,0,0:0:0:0:
182,192,96486,1,0,0:0:0:0:
475,192,96567,1,0,0:0:0:0:
329,192,96648,1,0,0:0:0:0:
36,192,96729,1,0,0:0:0:0:
475,192,96810,1,0,0:0:0:0:
329,192,96891,1,0,0:0:0:0:
36,192,96972,1,0,0:0:0:0:
256,192,97054,1,0,0:0:0:0:
109,192,97135,1,0,0:0:0:0:
36,192,97216,1,0,0:0:0:0:
256,192,97297,1,0,0:0:0:0:
182,192,97378,1,0,0:0:0:0:
329,192,97459,1,0,0:0:0:0:
475,192,97540,1,0,0:0:0:0:
256,192,97621,1,0,0:0:0:0:
36,192,97702,1,0,0:0:0:0:
182,192,97783,1,0,0:0:0:0:
475,192,97864,1,0,0:0:0:0:
329,192,97945,1,0,0:0:0:0:
36,192,98027,1,0,0:0:0:0:
475,192,98108,1,0,0:0:0:0:
329,192,98189,1,0,0:0:0:0:
36,192,98270,1,0,0:0:0:0:
256,192,98351,1,0,0:0:0:0:
36,192,98432,1,0,0:0:0:0:
182,192,98513,1,0,0:0:0:0:
329,192,98594,1,0,0:0:0:0:
256,192,98675,1,0,0:0:0:0:
329,192,98756,1,0,0:0:0:0:
402,192,98918,1,0,0:0:0:0:
109,192,98999,1,0,0:0:0:0:
182,192,99081,1,0,0:0:0:0:
402,192,99162,1,0,0:0:0:0:
329,192,99243,1,0,0:0:0:0:
109,192,99324,1,0,0:0:0:0:
402,192,99405,1,0,0:0:0:0:
329,192,99486,1,0,0:0:0:0:
109,192,99567,1,0,0:0:0:0:
256,192,99648,1,0,0:0:0:0:
109,192,99729,1,0,0:0:0:0:
256,192,99810,1,0,0:0:0:0:
402,192,99891,1,0,0:0:0:0:
109,192,99972,1,0,0:0:0:0:
256,192,100054,1,0,0:0:0:0:
402,192,100135,1,0,0:0:0:0:
475,192,100216,1,0,0:0:0:0:
109,192,100297,1,0,0:0:0:0:
182,192,100378,1,0,0:0:0:0:
402,192,100459,1,0,0:0:0:0:
329,192,100540,1,0,0:0:0:0:
109,192,100621,1,0,0:0:0:0:
402,192,100702,1,0,0:0:0:0:
329,192,100783,1,0,0:0:0:0:
109,192,100864,1,0,0:0:0:0:
256,192,100945,1,0,0:0:0:0:
36,192,101027,1,0,0:0:0:0:
182,192,101108,1,0,0:0:0:0:
329,192,101189,1,0,0:0:0:0:
256,192,101270,1,0,0:0:0:0:
329,192,101351,1,0,0:0:0:0:
475,192,101513,1,0,0:0:0:0:
36,192,101594,1,0,0:0:0:0:
109,192,101675,1,0,0:0:0:0:
475,192,101756,1,0,0:0:0:0:
402,192,101837,1,0,0:0:0:0:
36,192,101918,1,0,0:0:0:0:
475,192,101999,1,0,0:0:0:0:
402,192,102081,1,0,0:0:0:0:
36,192,102162,1,0,0:0:0:0:
256,192,102243,1,0,0:0:0:0:
109,192,102324,1,0,0:0:0:0:
256,192,102405,1,0,0:0:0:0:
402,192,102486,1,0,0:0:0:0:
109,192,102567,1,0,0:0:0:0:
256,192,102648,1,0,0:0:0:0:
402,192,102729,1,0,0:0:0:0:
182,192,102810,1,0,0:0:0:0:
109,192,102891,1,0,0:0:0:0:
256,192,102972,1,0,0:0:0:0:
402,192,103054,1,0,0:0:0:0:
109,192,103054,1,0,0:0:0:0:
256,192,103135,1,0,0:0:0:0:
402,192,103216,1,0,0:0:0:0:
256,192,103297,1,0,0:0:0:0:
402,192,103378,1,0,0:0:0:0:
109,192,103459,1,0,0:0:0:0:
182,192,103540,1,0,0:0:0:0:
36,192,103621,1,0,0:0:0:0:
182,192,103702,1,0,0:0:0:0:
329,192,103783,1,0,0:0:0:0:
256,192,103864,1,0,0:0:0:0:
329,192,103945,1,0,0:0:0:0:
475,192,104108,1,0,0:0:0:0:
36,192,104189,1,0,0:0:0:0:
182,192,104270,1,0,0:0:0:0:
475,192,104351,1,0,0:0:0:0:
329,192,104432,1,0,0:0:0:0:
36,192,104513,1,0,0:0:0:0:
475,192,104594,1,0,0:0:0:0:
329,192,104675,1,0,0:0:0:0:
36,192,104756,1,0,0:0:0:0:
256,192,104837,1,0,0:0:0:0:
109,192,104918,1,0,0:0:0:0:
256,192,104999,1,0,0:0:0:0:
402,192,105081,1,0,0:0:0:0:
36,192,105162,1,0,0:0:0:0:
182,192,105243,1,0,0:0:0:0:
475,192,105324,1,0,0:0:0:0:
329,192,105405,1,0,0:0:0:0:
109,192,105486,1,0,0:0:0:0:
256,192,105567,1,0,0:0:0:0:
402,192,105648,1,0,0:0:0:0:
182,192,105729,1,0,0:0:0:0:
36,192,105810,1,0,0:0:0:0:
475,192,105891,1,0,0:0:0:0:
329,192,105972,1,0,0:0:0:0:
36,192,106054,1,0,0:0:0:0:
402,192,106135,1,0,0:0:0:0:
329,192,106216,1,0,0:0:0:0:
256,192,106297,1,0,0:0:0:0:
182,192,106378,1,0,0:0:0:0:
256,192,106459,1,0,0:0:0:0:
36,192,106540,1,0,0:0:0:0:
109,192,106621,1,0,0:0:0:0:
475,192,106702,1,0,0:0:0:0:
36,192,106783,1,0,0:0:0:0:
256,192,106945,1,0,0:0:0:0:
329,192,106945,1,0,0:0:0:0:
109,192,107108,1,0,0:0:0:0:
182,192,107108,1,0,0:0:0:0:
256,192,107270,1,0,0:0:0:0:
329,192,107270,1,0,0:0:0:0:
36,192,107432,1,0,0:0:0:0:
256,192,107594,1,0,0:0:0:0:
402,192,107594,1,0,0:0:0:0:
109,192,107756,1,0,0:0:0:0:
182,192,107756,1,0,0:0:0:0:
256,192,107918,1,0,0:0:0:0:
475,192,107918,1,0,0:0:0:0:
36,192,108081,1,0,0:0:0:0:
256,192,108243,1,0,0:0:0:0:
475,192,108243,1,0,0:0:0:0:
109,192,108405,1,0,0:0:0:0:
182,192,108405,1,0,0:0:0:0:
256,192,108567,1,0,0:0:0:0:
402,192,108567,1,0,0:0:0:0:
36,192,108729,1,0,0:0:0:0:
256,192,108891,1,0,0:0:0:0:
402,192,108891,1,0,0:0:0:0:
109,192,109054,1,0,0:0:0:0:
182,192,109054,1,0,0:0:0:0:
256,192,109216,1,0,0:0:0:0:
329,192,109216,1,0,0:0:0:0:
36,192,109378,1,0,0:0:0:0:
256,192,109540,1,0,0:0:0:0:
329,192,109540,1,0,0:0:0:0:
109,192,109702,1,0,0:0:0:0:
182,192,109702,1,0,0:0:0:0:
256,192,109864,1,0,0:0:0:0:
329,192,109864,1,0,0:0:0:0:
36,192,110027,1,0,0:0:0:0:
256,192,110189,1,0,0:0:0:0:
402,192,110189,1,0,0:0:0:0:
109,192,110351,1,0,0:0:0:0:
182,192,110351,1,0,0:0:0:0:
256,192,110513,1,0,0:0:0:0:
475,192,110513,1,0,0:0:0:0:
36,192,110675,1,0,0:0:0:0:
256,192,110837,1,0,0:0:0:0:
475,192,110837,1,0,0:0:0:0:
109,192,110999,1,0,0:0:0:0:
182,192,110999,1,0,0:0:0:0:
256,192,111162,1,0,0:0:0:0:
402,192,111162,1,0,0:0:0:0:
36,192,111324,1,0,0:0:0:0:
256,192,111486,1,0,0:0:0:0:
402,192,111486,1,0,0:0:0:0:
109,192,111648,1,0,0:0:0:0:
182,192,111648,1,0,0:0:0:0:
256,192,111810,1,0,0:0:0:0:
329,192,111810,1,0,0:0:0:0:
36,192,111972,1,0,0:0:0:0:
256,192,112135,1,0,0:0:0:0:
36,192,112135,1,0,0:0:0:0:
109,192,112297,1,0,0:0:0:0:
182,192,112297,1,0,0:0:0:0:
36,192,112297,1,0,0:0:0:0:
256,192,112459,1,0,0:0:0:0:
36,192,112459,1,0,0:0:0:0:
36,192,112621,1,0,0:0:0:0:
36,192,112783,1,0,0:0:0:0:
256,192,112783,1,0,0:0:0:0:
36,192,112945,1,0,0:0:0:0:
329,192,112945,1,0,0:0:0:0:
402,192,112945,1,0,0:0:0:0:
36,192,113108,1,0,0:0:0:0:
256,192,113108,1,0,0:0:0:0:
475,192,113270,1,0,0:0:0:0:
475,192,113432,1,0,0:0:0:0:
256,192,113432,1,0,0:0:0:0:
475,192,113594,1,0,0:0:0:0:
329,192,113594,1,0,0:0:0:0:
402,192,113594,1,0,0:0:0:0:
475,192,113756,1,0,0:0:0:0:
256,192,113756,1,0,0:0:0:0:
475,192,113918,1,0,0:0:0:0:
475,192,114081,1,0,0:0:0:0:
256,192,114081,1,0,0:0:0:0:
475,192,114243,1,0,0:0:0:0:
109,192,114243,1,0,0:0:0:0:
182,192,114243,1,0,0:0:0:0:
475,192,114405,1,0,0:0:0:0:
256,192,114405,1,0,0:0:0:0:
182,192,114567,1,0,0:0:0:0:
329,192,114648,1,0,0:0:0:0:
182,192,114729,1,0,0:0:0:0:
329,192,114810,1,0,0:0:0:0:
36,192,114891,1,0,0:0:0:0:
182,192,114972,1,0,0:0:0:0:
329,192,115054,1,0,0:0:0:0:
475,192,115135,1,0,0:0:0:0:
182,192,115216,1,0,0:0:0:0:
329,192,115297,1,0,0:0:0:0:
182,192,115378,1,0,0:0:0:0:
329,192,115459,1,0,0:0:0:0:
36,192,115540,1,0,0:0:0:0:
182,192,115621,1,0,0:0:0:0:
329,192,115702,1,0,0:0:0:0:
475,192,115783,1,0,0:0:0:0:
402,192,115864,1,0,0:0:0:0:
109,192,115945,1,0,0:0:0:0:
402,192,116027,1,0,0:0:0:0:
109,192,116108,1,0,0:0:0:0:
256,192,116189,128,0,116513:0:0:0:0:
182,192,116189,128,0,116513:0:0:0:0:
475,192,116513,1,0,0:0:0:0:
256,192,116756,1,0,0:0:0:0:
36,192,116837,1,0,0:0:0:0:
182,192,116918,1,0,0:0:0:0:
329,192,116999,1,0,0:0:0:0:
475,192,117081,1,0,0:0:0:0:
36,192,117162,1,0,0:0:0:0:
109,192,117162,1,0,0:0:0:0:
256,192,117162,1,0,0:0:0:0:
